<?xml version="1.0" standalone="no"?>
<!DOCTYPE svg PUBLIC "-//W3C//DTD SVG 1.1//EN" "http://www.w3.org/Graphics/SVG/1.1/DTD/svg11.dtd" >
<svg xmlns="http://www.w3.org/2000/svg" xmlns:xlink="http://www.w3.org/1999/xlink" version="1.1">
<metadata>
Created by FontForge 20170812 at Thu Apr  7 20:28:29 2022
 By www-data
</metadata>
<defs>
<font id="AfroRegular" horiz-adv-x="0" >
  <font-face 
    font-family="Afro"
    font-weight="400"
    font-stretch="normal"
    units-per-em="1000"
    panose-1="0 0 0 0 0 0 0 0 0 0"
    ascent="800"
    descent="-200"
    x-height="288.083"
    cap-height="675.592"
    bbox="-272.001 -381.041 1075.65 893.253"
    underline-thickness="50"
    underline-position="-100"
    unicode-range="U+000A-20AC"
  />
<missing-glyph horiz-adv-x="527" 
d="M50 700h427v-700h-427v700zM78 680l185 -309l186 309h-371zM251 350l-180 300v-601zM264 329l-185 -308h370zM276 350l181 -303v605z" />
    <glyph glyph-name=".notdef" horiz-adv-x="527" 
d="M50 700h427v-700h-427v700zM78 680l185 -309l186 309h-371zM251 350l-180 300v-601zM264 329l-185 -308h370zM276 350l181 -303v605z" />
    <glyph glyph-name=".null" 
 />
    <glyph glyph-name=".null" 
 />
    <glyph glyph-name="LF" unicode="&#xa;" 
 />
    <glyph glyph-name="controlCR" unicode="&#xd;" 
 />
    <glyph glyph-name="space" unicode=" " horiz-adv-x="375" 
 />
    <glyph glyph-name="exclam" unicode="!" horiz-adv-x="188" 
d="M132.315 49.7402c-2.17773 -21.0566 -45.3076 -37.2236 -56.0244 -15.1387c-19.9189 41.0605 -22.0068 90.9629 -24.2383 135.874c-2.20801 44.4805 -2.37891 89.0029 -1.69922 133.521c1.44043 94.5723 1.23047 189.789 8.6084 284.109
c1.55273 19.8027 16.1348 34.0703 35.2852 39.1279c14.4033 3.80371 39.6201 0.461914 40.1445 -19.0186c2.53418 -94.2695 -3.14062 -188.842 -4.86035 -283.107c-0.837891 -45.8965 -1.54004 -91.8398 0.000976562 -137.729
c1.54102 -45.7295 7.49512 -92.0303 2.7832 -137.64zM131.046 -30.2393c8.04199 -22.0693 7.14551 -47.3828 6.76562 -70.5547c-0.22168 -13.6699 -11.8809 -23.835 -24.4951 -27.165c-9.48633 -2.50391 -28.2373 -0.376953 -27.8721 13.2041
c0.644531 23.9746 -1.4707 49.5059 3.32617 73.0967c2.8291 13.915 35.4521 30.1465 42.2754 11.4189z" />
    <glyph glyph-name="quotedbl" unicode="&#x22;" horiz-adv-x="252" 
d="M114.25 539.914c0.15918 -13.9375 -3.00098 -37.0225 2.53027 -49.6836c6.73438 -15.4248 -13.0137 -27.2744 -25.5967 -28.5977c-49.6777 -5.23633 -41.3096 91.0361 -39.5742 120.278c0.990234 16.7168 13.8916 28.8691 29.8281 33.0762
c11.5469 3.04688 34.3887 0.458008 33.9385 -16.0801c-0.535156 -19.6592 -1.35449 -39.3262 -1.12598 -58.9932zM144.14 596.416c6.4043 25.8457 63.3594 37.8301 57.0752 3.44922c-4.36621 -23.8896 -8.29785 -47.624 -10.4912 -71.832
c-1.76172 -19.4219 1.37793 -44.6855 -8.35645 -62.2334c-3.47754 -6.26855 -9.93262 -9.26074 -16.5469 -11.042c-5.45703 -1.4668 -14.7412 -1.87012 -18.8672 3.11719c-13.9072 16.8105 -12.5566 43.7588 -12.2383 64.5205
c0.380859 24.7627 3.4707 49.9873 9.4248 74.0205z" />
    <glyph glyph-name="quotedbl" unicode="&#x201d;" horiz-adv-x="252" 
d="M114.25 539.914c0.15918 -13.9375 -3.00098 -37.0225 2.53027 -49.6836c6.73438 -15.4248 -13.0137 -27.2744 -25.5967 -28.5977c-49.6777 -5.23633 -41.3096 91.0361 -39.5742 120.278c0.990234 16.7168 13.8916 28.8691 29.8281 33.0762
c11.5469 3.04688 34.3887 0.458008 33.9385 -16.0801c-0.535156 -19.6592 -1.35449 -39.3262 -1.12598 -58.9932zM144.14 596.416c6.4043 25.8457 63.3594 37.8301 57.0752 3.44922c-4.36621 -23.8896 -8.29785 -47.624 -10.4912 -71.832
c-1.76172 -19.4219 1.37793 -44.6855 -8.35645 -62.2334c-3.47754 -6.26855 -9.93262 -9.26074 -16.5469 -11.042c-5.45703 -1.4668 -14.7412 -1.87012 -18.8672 3.11719c-13.9072 16.8105 -12.5566 43.7588 -12.2383 64.5205
c0.380859 24.7627 3.4707 49.9873 9.4248 74.0205z" />
    <glyph glyph-name="quotedbl" unicode="&#x201c;" horiz-adv-x="252" 
d="M114.25 539.914c0.15918 -13.9375 -3.00098 -37.0225 2.53027 -49.6836c6.73438 -15.4248 -13.0137 -27.2744 -25.5967 -28.5977c-49.6777 -5.23633 -41.3096 91.0361 -39.5742 120.278c0.990234 16.7168 13.8916 28.8691 29.8281 33.0762
c11.5469 3.04688 34.3887 0.458008 33.9385 -16.0801c-0.535156 -19.6592 -1.35449 -39.3262 -1.12598 -58.9932zM144.14 596.416c6.4043 25.8457 63.3594 37.8301 57.0752 3.44922c-4.36621 -23.8896 -8.29785 -47.624 -10.4912 -71.832
c-1.76172 -19.4219 1.37793 -44.6855 -8.35645 -62.2334c-3.47754 -6.26855 -9.93262 -9.26074 -16.5469 -11.042c-5.45703 -1.4668 -14.7412 -1.87012 -18.8672 3.11719c-13.9072 16.8105 -12.5566 43.7588 -12.2383 64.5205
c0.380859 24.7627 3.4707 49.9873 9.4248 74.0205z" />
    <glyph glyph-name="numbersign" unicode="#" horiz-adv-x="558" 
d="M440.126 542.678c15.1836 31.0273 83.7627 32.5225 64.9307 -10.7275c-29.6182 -68.0674 -57.917 -136.216 -83.5459 -205.524c23.7969 -0.694336 47.5469 -1.88574 71.2188 -3.625c18.7705 -1.37793 3.36914 -26.0439 -10.002 -25.5508
c-23.7891 0.873047 -47.5312 1.47852 -71.2344 1.79688c-5.1543 -14.4268 -10.165 -28.916 -15.0557 -43.4668c29.9639 -0.764648 59.9355 -2.28223 89.8955 -4.65723c19.7129 -1.56055 0.961914 -25.8887 -13.5039 -24.7441
c-28.1475 2.22754 -56.3457 3.68262 -84.5557 4.45117c-1.30371 -4.0293 -2.66992 -8.02734 -3.95117 -12.0674c-17.167 -54.2031 -32.5684 -108.965 -46.1572 -164.173c-13.4102 -54.4746 -23.2568 -111.123 -43.0127 -163.719
c-4.43652 -11.8145 -14.3145 -19.9033 -26.8975 -21.8555c-9.25684 -1.43652 -23.5635 1.51367 -23.9941 13.4873c-2.01855 55.9688 12.1953 113.734 24.9336 167.914c13.2471 56.3262 28.373 112.21 45.3652 167.519c1.36621 4.44824 2.75977 8.89258 4.14941 13.3369
c-17.5898 -0.275391 -35.1758 -0.845703 -52.7471 -1.6875c-14.9668 -51.9902 -28.167 -104.493 -39.4893 -157.399c-11.4697 -53.6016 -17.3496 -111.011 -38.3047 -161.868c-6.8623 -16.6592 -45.4814 -27.1152 -49.041 -3.03906
c-4.02148 27.2236 0.682617 56.1006 5.08008 83.0918c4.4248 27.1689 9.2373 54.2842 14.9277 81.2168c10.8721 51.4824 23.5488 102.58 37.8867 153.204c-44.0107 -3.99414 -87.874 -9.75781 -131.446 -17.3535c-20.9092 -3.64453 -19.9502 20.6562 -1.9873 23.7881
c46.6572 8.13184 93.5361 14.2568 140.543 18.4482c4.34277 14.9238 8.79883 29.8945 13.3828 44.873c-40.8936 -2.67773 -81.7871 -6.50488 -122.743 -11.6709c-21.1846 -2.66992 -9.44336 22.9629 6.00781 25.1055c41.4375 5.74414 83.2236 10.3164 125.169 13.585
c24.5029 77.1455 52.9766 153.91 89.3525 225.094c7.46387 14.6133 25.9395 23.3584 41.8105 22.6289c12.2305 -0.5625 28.6016 -10.8867 22.8994 -25.6943c-19.7871 -51.3887 -42.3691 -101.598 -61.4111 -153.297c-7.875 -21.3857 -15.3623 -42.9121 -22.6084 -64.5195
c18.1914 0.756836 36.3945 1.22656 54.5898 1.44043c25.9854 73.5205 55.4873 146.059 89.5459 215.659zM326.604 255.96c4.63867 14.3916 9.38965 28.7686 14.2725 43.1221c-18.0098 -0.228516 -36.0117 -0.643555 -54.002 -1.26855
c-4.65332 -14.4736 -9.15918 -28.9941 -13.5254 -43.5527c17.7412 0.845703 35.4941 1.41211 53.2549 1.69922z" />
    <glyph glyph-name="dollar" unicode="$" horiz-adv-x="473" 
d="M420.481 53.5596c8.85742 -45.9512 -10.3623 -91.5615 -48.7686 -118.005c-32.1494 -22.1396 -77.9492 -28.4736 -116.029 -24.123c-9.47852 1.08301 -18.5488 2.87988 -27.2666 5.25098c1.82031 -20.1094 3.76855 -40.2109 6 -60.2852
c1.72754 -15.5566 -30.833 -26.2148 -32.6768 -8.70996c-2.88379 27.3711 -5.32129 54.7812 -7.44043 82.207c-53.8848 27.6816 -90.2529 81.2441 -113.266 139.717c-5.98926 15.2227 24.6621 29.8594 30.6895 14.9668c17.5205 -43.2695 41.3135 -86.748 79.793 -114.814
c-5.02637 78.958 -6.90527 158.063 -5.62012 237.122c-13.9609 10.3945 -27.8057 20.9404 -41.1494 32.1113c-30.7754 25.7686 -64.1514 54.96 -82.6494 91.2891c-37.75 74.1377 18.4287 158.812 91.375 181.91c18.0869 5.72852 36.2637 7.61914 53.8457 6.25293
c2.8916 23.8125 5.98145 47.6016 9.44727 71.3477c1.93652 13.2666 30.4062 18.5215 28.043 1.69629c-3.64453 -25.9619 -6.86621 -51.9707 -9.8125 -78.0068c44.2666 -12.5986 81.7021 -46.3857 99.335 -92.2168c5.42188 -14.1006 -22.6445 -27.7168 -28.4824 -13.8916
c-14.085 33.3604 -40.4395 62.7383 -74.0361 76.5713c-7.51465 -73.0391 -12.3193 -146.307 -14.3418 -219.648c12.374 -8.74512 24.8525 -17.3311 37.2344 -25.9551c64.8496 -45.1592 149.642 -101.104 165.776 -184.786zM188.234 285.64
c2.93457 68.7305 8.19824 137.368 15.876 205.772c-48.6875 6.46289 -94.3633 -19.4141 -101.979 -69.9102c-6.39258 -42.4072 16.2822 -75.0879 46.0557 -102.599c12.7461 -11.7803 26.2139 -22.749 40.0469 -33.2637zM334.717 -37.7764
c29.4551 27.9531 17.8555 74.8125 -0.00683594 105.875c-21.5264 37.4355 -56.5518 67.6748 -89.8848 94.3477c-9.34277 7.47168 -18.8789 14.7061 -28.4736 21.8633c-0.03125 -77.7197 2.98828 -155.447 9.08594 -232.984
c36.5352 -14.2676 80.8096 -16.123 109.279 10.8984z" />
    <glyph glyph-name="percent" unicode="%" horiz-adv-x="620" 
d="M495.98 549.082c17.373 -3.02734 25.543 -19.5322 17.124 -35.1084c-53.6631 -99.3232 -109.989 -196.826 -160.121 -298.086c-50.3604 -101.718 -99.0244 -204.387 -146.102 -307.665c-8.79102 -19.29 -61.2354 -26.04 -51.2832 2.42969
c37.3076 106.733 80.3867 211.099 129.633 312.887c49.4326 102.172 100.888 205.214 161.297 301.425c10.0957 16.0723 30.0303 27.5029 49.4521 24.1182zM267.18 345.695c8.24414 -64.2246 -52.1768 -110.575 -112.205 -109.329
c-29.9639 0.621094 -60.3896 12.541 -79.0127 36.6631c-16.7246 21.666 -20.8506 48.2178 -20.8506 74.7471c-26.1602 44.9072 54.7148 97.0371 92.9922 102.475c62.0781 8.82227 111.597 -46.3008 119.076 -104.556zM119.049 380.813
c1.00879 -32.8984 -0.200195 -74.4707 34.8213 -90.4932c25.6055 -11.7139 57.1299 -3 61.2754 27.6475c4.54492 33.6279 -18.1064 79.5557 -51.0469 91.8047c-15.2773 5.68262 -31.1055 2.2666 -44.6279 -6.25684c-2.7207 -1.71582 -6.60938 -4.60742 -10.7549 -8.2168
c5.79102 -2.58887 10.1074 -7.18457 10.333 -14.4854zM484.917 193.609c49.9609 -6.28027 88.8057 -51.8887 85.3164 -102.226c-3.91602 -56.458 -55.4141 -101.916 -111.783 -101.229c-66.6621 0.811523 -92.0537 66.79 -92.209 124.017
c-0.0273438 9.98242 6.53223 19.2393 15.5371 25.9268c16.3867 36.7949 64.5391 58.3633 103.139 53.5117zM519.333 83.0156c6.14844 31.6406 -10.7949 63.4463 -41.8066 73.9375c-21.8867 7.40137 -37.6602 0.379883 -50.5303 -12.2422
c2.98828 -2.98047 5.08789 -7.16504 5.86035 -12.7773c3.95898 -28.8037 4.5957 -67.0195 32.0293 -84.8779c26.707 -17.3848 49.6846 11.4492 54.4473 35.96z" />
    <glyph glyph-name="ampersand" unicode="&#x26;" horiz-adv-x="534" 
d="M475.142 144.841c17.3184 -35.0371 6.94336 -75.291 -12.4443 -107.006c-35.0605 -57.3506 -92.9658 -97.7051 -158.514 -109.229c1.18359 -14.3691 2.4375 -28.7383 3.78027 -43.0996c1.40137 -14.9785 -29.8818 -25.1553 -31.3799 -8.36426
c-1.43262 16.0645 -2.74805 32.1367 -3.98242 48.2129c-2.11133 -0.0664062 -4.23047 -0.121094 -6.35352 -0.125c-37.6104 -0.0966797 -75.8691 9.25391 -105.988 32.6045c-33.667 26.1016 -44.9189 68.6641 -36.9619 109.465
c8.21289 42.0928 36.4033 79.5205 65.6807 109.675c3.16699 3.26074 6.42383 6.42383 9.69531 9.57129c-2.00684 -0.100586 -4.00977 -0.251953 -6.0166 -0.318359c-32.6963 -1.0752 -70.6943 0.446289 -100.142 16.5381
c-57.8594 31.6211 -49.5723 100.992 -17.1709 148.562c33.3486 48.959 85.9404 84.0967 139.061 108.716c13.6699 6.33789 28.1045 12.4043 42.9932 17.9004c0.139648 40.7148 0.391602 81.4336 0.655273 122.137c0.0888672 13.4873 28.3027 22.4453 28.2715 7.5332
c-0.0888672 -39.9971 -0.15918 -80.0059 -0.131836 -120.019c32.8789 9.85059 67.042 15.9795 99.6494 14.959c25.1045 -0.78418 54.2344 -7.40234 62.5635 -34.3311c9.10156 -29.4209 1.83984 -63.9531 -4.95605 -93.0557
c-4.44434 -19.0186 -45.54 -27.9258 -41.7949 -2.52637c3.36523 22.8418 19.4648 79.8857 -10.7432 89.9463c-24.9336 8.30566 -58.7441 -2.69434 -82.8857 -9.6377c-7.29688 -2.09961 -14.5547 -4.50195 -21.751 -7.13379
c0.182617 -62.7578 0.733398 -125.512 2.0293 -188.242c9.30371 1.46289 18.5918 2.97266 27.8721 4.42773c12.96 2.03027 27.9883 -6.43457 29.4863 -20.0234c1.62988 -14.7607 -12.4746 -28.7842 -24.6113 -34.373c-10.4443 -4.80859 -20.8652 -10.3398 -31.0654 -16.5
c0.504883 -16.8252 1.08691 -33.6465 1.72754 -50.4678c24.7822 27.0098 59.9355 45.2559 96.5596 47.748c34.6836 2.36035 70.7646 -10.9639 86.8682 -43.5439zM145.74 258.886c20.9902 -11.7412 50.2051 -10.3213 73.291 -9.25781
c13.1963 0.605469 26.335 1.94043 39.4424 3.62891c-0.958984 60.1182 -1.24219 120.26 -1.17578 180.401c-31.1094 -14.7998 -60.2041 -34.4121 -84.8232 -57.8164c-24.9883 -23.7578 -74.2734 -90.3652 -26.7344 -116.956zM252.818 -28.1289
c5.49219 -1.4209 11.0674 -2.44043 16.668 -3.18164c-4.47559 67.248 -7.36328 134.573 -9.22266 201.934c-29.2617 -22.8965 -54.2031 -51.6104 -68.2266 -85.0791c-22.0693 -52.6699 7.90625 -99.9756 60.7812 -113.673zM397.571 5.44141
c39.8652 30.7051 85.4307 107.415 28.6074 146.217c-23.4707 16.0225 -55.29 12.8516 -79.7109 0.753906c-12.1875 -6.03516 -23.1211 -14.4658 -32.165 -24.6113c-4.875 -5.47266 -9.80469 -11.3994 -13.0342 -18.0205
c-1.21875 -2.50391 -3.72656 -6.10938 -3.41602 -9.05566c0.232422 -2.19336 2.64648 -8.36816 7.26562 -6.5791c17.1865 6.66016 26.9209 -11.6865 9.43945 -19.3486c-5.77539 -2.53418 -12.7734 -4.90918 -19.6748 -5.78223
c1.72754 -33.7363 3.81543 -67.4531 6.27637 -101.151c34.8271 2.68164 69.1963 16.6191 96.4121 37.5781z" />
    <glyph glyph-name="quotesingle" unicode="'" horiz-adv-x="168" 
d="M66.6523 607.011c9.33496 20.043 54.2539 27.9844 51.2852 -2.42969c-2.19727 -22.4961 -9.40137 -44.3555 -12.584 -66.7705c-2.89941 -20.4043 -4.11426 -40.5791 -5.63574 -61.0107c-0.772461 -10.3945 -12.7695 -20.6221 -23.6719 -17.5947
c-26.2227 7.28906 -26.2344 35.6348 -26.0088 58.9922c0.291016 30.0186 3.86914 61.4346 16.6152 88.8135z" />
    <glyph glyph-name="quotesingle" unicode="&#x2019;" horiz-adv-x="168" 
d="M66.6523 607.011c9.33496 20.043 54.2539 27.9844 51.2852 -2.42969c-2.19727 -22.4961 -9.40137 -44.3555 -12.584 -66.7705c-2.89941 -20.4043 -4.11426 -40.5791 -5.63574 -61.0107c-0.772461 -10.3945 -12.7695 -20.6221 -23.6719 -17.5947
c-26.2227 7.28906 -26.2344 35.6348 -26.0088 58.9922c0.291016 30.0186 3.86914 61.4346 16.6152 88.8135z" />
    <glyph glyph-name="quotesingle" unicode="&#x2018;" horiz-adv-x="168" 
d="M66.6523 607.011c9.33496 20.043 54.2539 27.9844 51.2852 -2.42969c-2.19727 -22.4961 -9.40137 -44.3555 -12.584 -66.7705c-2.89941 -20.4043 -4.11426 -40.5791 -5.63574 -61.0107c-0.772461 -10.3945 -12.7695 -20.6221 -23.6719 -17.5947
c-26.2227 7.28906 -26.2344 35.6348 -26.0088 58.9922c0.291016 30.0186 3.86914 61.4346 16.6152 88.8135z" />
    <glyph glyph-name="parenleft" unicode="(" horiz-adv-x="437" 
d="M386.276 -120.654c3.85449 -13.5928 -8.49414 -24.8613 -19.1641 -30.7568c-89.6748 -49.5918 -186.852 4.27734 -238.431 81.3184c-47.7832 71.374 -69.7363 160.808 -76.4277 245.51c-6.78027 85.8242 1.90234 173.201 23.6182 256.44
c21.9141 84.0078 57.2891 165.671 105.511 237.973c39.5898 59.3613 109.924 152.436 191.386 114.135c16.4609 -7.74316 -7.11816 -26.0977 -19.2744 -21.8203c-19.0498 6.70312 -43.1221 -10.7939 -56.4697 -22.6201
c-14.8154 -13.127 -27.7324 -29.0908 -39.2021 -45.1787c-23.2529 -32.6152 -43.3779 -68.1299 -60.9492 -104.087c-63.5684 -130.091 -90.6836 -280.054 -72.8057 -424.005c8.87695 -71.4863 30.0225 -143.936 70.6055 -204.166
c34.9824 -51.917 96.8281 -92.8613 160.801 -70.6719c11.167 3.87402 27.2783 0.361328 30.8027 -12.0703z" />
    <glyph glyph-name="parenright" unicode=")" horiz-adv-x="437" 
d="M278.275 644.904c87.5742 -148.756 125.641 -328.29 101.068 -499.527c-11.9658 -83.3945 -40.8428 -170.965 -96.1982 -235.989c-51.4668 -60.46 -147.371 -107.18 -223.123 -62.7578c-13.0068 7.63086 -12.5605 21.3203 -3.2334 32.2148
c10.2666 11.9893 27.209 16.4102 41.9346 11.5938c75.7012 -24.7627 133.405 33.5039 165.248 95.291c67.2637 130.514 65.6221 292.73 32.6621 432.68c-16.7441 71.1064 -44.2627 140.26 -80.1025 203.879c-17.7227 31.4541 -36.5859 63.0752 -60.2354 90.4697
c-16.5186 19.1387 -52.6035 59.4346 -81.7178 48.8965c-16.9688 -6.14453 -19.8135 14.9277 -5.79785 21.332c95.0537 43.4473 168.244 -68.0166 209.495 -138.082z" />
    <glyph glyph-name="asterisk" unicode="*" horiz-adv-x="298" 
d="M239.464 402.658c19.0186 -1.48242 1.18164 -25.5186 -13.168 -24.1172c-15.1641 1.4707 -31.0654 3.09668 -47.2158 4.21875c18.1689 -19.7129 37.0596 -38.708 57.1455 -56.5195c11.4541 -10.1572 -13.3789 -26.8506 -23.5557 -17.7988
c-15.7734 14.0234 -30.7559 28.8311 -45.2842 44.0889c1.10645 -15.001 2.29785 -30.0293 3.4502 -45.124c1.0752 -14.0508 -26.8125 -24.0186 -29.8242 -7.9502c-3.45801 18.4365 -5.8877 37.168 -7.5332 56.0391c-9.25293 -13.7822 -18.207 -27.7783 -27.0996 -41.7354
c-7.19238 -11.291 -35.2275 -11.0967 -25.4775 4.20703c14.1318 22.1895 28.4307 44.3135 43.7197 65.6299c-20.9238 -1.18359 -41.3828 -4.54102 -60.3389 -11.6016c-15.8984 -5.92285 -19.6318 15.0596 -5.54688 20.3965c19.6318 7.44043 40.3545 11.4502 61.4961 13.3906
c-15.6572 19.1348 -31.1162 38.6309 -48.6406 55.7285c-10.957 10.6855 13.6895 27.0264 23.3428 17.6377c12.6768 -12.335 24.2666 -25.9238 35.6348 -39.7217c0.116211 14.0664 0.461914 28.082 0.958984 41.9775c0.539062 15.1104 32.2539 24.8994 31.6406 8.43457
c-0.72168 -19.3682 -0.628906 -38.5928 -0.100586 -57.7666c13.4414 15.0869 27.8643 29.335 43.708 42.3564c12.8662 10.5762 31.1318 -2.46094 16.0527 -14.8545c-19.1426 -15.7354 -36.0381 -33.5312 -51.5518 -52.5068
c23.0938 -0.69043 46.0947 -2.68945 68.1875 -4.40918z" />
    <glyph glyph-name="plus" unicode="+" horiz-adv-x="298" 
d="M239.888 213.479c8.08887 -0.585938 10.3105 -8.76367 7.33398 -15.0322c-3.64844 -7.69238 -13.3057 -10.9141 -21.1807 -10.332c-13.3135 0.986328 -26.5918 1.52539 -39.8506 1.7041c1.44043 -55.833 7.32812 -114.562 -3.85742 -169.432
c-3.02734 -14.8535 -36.2822 -31.0273 -44.0215 -11.8887c-21.0723 52.1221 -20.6377 113.878 -23.5449 169.253c-0.166992 3.17871 -0.326172 6.37695 -0.493164 9.56348c-17.6641 -1.37793 -35.3203 -3.21777 -52.9883 -5.51172
c-18.4287 -2.39062 -11.7451 21.1338 1.94434 23.626c16.542 3.00781 33.1543 5.22754 49.8096 6.87695c-2.22363 47.1895 -3.5166 94.7979 -0.131836 141.704c1.33105 18.4326 15.1133 31.749 32.8584 36.4375c13.8291 3.65234 36.3135 0.357422 37.3848 -17.7139
c3.08984 -52.2041 2.10059 -104.808 2.625 -157.167c18.0322 -0.104492 36.0762 -0.776367 54.1123 -2.08789z" />
    <glyph glyph-name="comma" unicode="," horiz-adv-x="192" 
d="M117.096 94.624c12.168 0.489258 28.998 -7.9707 23.9053 -22.8711c-8.92285 -26.1172 -15.7383 -53.6943 -28.4453 -78.333c-9.68359 -18.7744 -28.873 -47.1816 -53.5078 -42.1396c-10.0176 2.0498 -11.5977 11.7031 -5.3252 18.9229
c-3.06641 -3.52832 0.69043 4.06738 1.26465 6.06641c1.33105 4.6416 2.85254 9.22559 4.19141 13.8604c2.25098 7.79395 4.38574 15.6455 6.39258 23.5049c4.68848 18.3584 9.02344 36.791 15.8076 54.5137c5.67871 14.8311 19.2793 25.8115 35.7168 26.4756z" />
    <glyph glyph-name="hyphen" unicode="-" horiz-adv-x="334" 
d="M269.808 246.295c28.0732 -5.23242 9.7959 -38.3037 -9.86328 -41.583c-31.0977 -5.18555 -63.4219 -3.50098 -94.915 -4.56836c-31.5713 -1.07129 -63.084 -3.25684 -94.6045 -5.29883c-11.4307 -0.737305 -22.7061 6.53613 -20.0244 19.1582
c2.86426 13.4912 17.6328 20.4189 29.917 22.1729c31.7412 4.5332 63.6377 7.45605 95.6279 9.5752c30.2354 2.00293 63.9023 6.12891 93.8623 0.543945z" />
    <glyph glyph-name="period" unicode="." horiz-adv-x="155" 
d="M103.773 33.5352c2.99609 -17.3926 0.0576172 -39.167 -3.94434 -56.1514c-2.75195 -11.6748 -15.0088 -19.3135 -26.082 -21.1963c-9.33887 -1.58789 -22.3994 1.61035 -23.2686 13.0801c-1.34277 17.707 0.03125 39.3574 5.48828 56.4082
c3.60547 11.2793 13.8604 18.5957 25.2676 20.5322c9.89355 1.68066 20.6562 -1.73145 22.5391 -12.6729z" />
    <glyph glyph-name="slash" unicode="/" horiz-adv-x="427" 
d="M356.621 553.27c19.1035 -3.33008 24.7324 -19.7354 17.6641 -36.2197c-44.3525 -103.445 -94.0996 -204.667 -138.999 -307.941c-22.2715 -51.2295 -43.5371 -102.855 -64.873 -154.478c-21.25 -51.4238 -38.3164 -110.032 -75.8994 -152.079
c-9.91699 -11.0967 -51.0361 -19.418 -43.627 7.2002c29.5801 106.268 72.127 209.061 114.197 310.945c42.8154 103.683 87.1328 208.968 140.524 307.689c9.1875 16.9883 31.9824 28.1973 51.0127 24.8828z" />
    <glyph glyph-name="zero" unicode="0" horiz-adv-x="433" 
d="M78.5176 400.652c-5.52344 -13.666 -34.6611 -13.8096 -27.3486 4.51074c19.2168 48.1406 48.4043 99.5723 93.249 128.166c42.9932 27.4102 92.251 26.6885 131.639 -5.96875c78.5889 -65.1562 97.9375 -186.044 105.138 -281.843
c3.82324 -50.834 1.73145 -103.418 -9.59473 -153.258c-10.5342 -46.3623 -29.2461 -97.2471 -63.7354 -131.337c-37.9561 -37.5166 -94.8916 -53.3447 -143.335 -25.6826c-45.0469 25.7256 -66.3633 76.9277 -79.5439 124.648
c-31.082 112.52 -9.59863 231.545 15.9873 342.982c8.06543 35.1299 85.2461 50.2207 76.4277 4.62305c-19.5391 -101.066 -42.0547 -203.083 -20.6875 -305.911c7.75879 -37.3467 21.8018 -83.4336 52.8994 -108.177c9.33105 -7.4248 24.3359 -15.7656 36.4961 -10.999
c12.6377 4.94824 22.4463 22.7363 28.5205 33.7783c39.3955 71.6299 44.666 159.329 40.792 239.258c-2.0918 43.1602 -6.2793 87.0654 -14.7559 129.469c-7.92188 39.6133 -19.5156 82.4443 -44.7441 114.916c-28.2832 36.3994 -74.8164 34.4004 -108.549 6.63672
c-32.3389 -26.6182 -53.4414 -67.6709 -68.8545 -105.812z" />
    <glyph glyph-name="one" unicode="1" horiz-adv-x="354" 
d="M79.2529 439.555c-7.61914 -11.9316 -37.4189 -11.9658 -27.1064 4.47559c15.502 24.7354 33.3018 47.8604 54.1484 68.3457c17.2217 16.9229 38.8057 38.3984 65.2646 35.4834c58.5693 -6.45898 70.2559 -96.3311 76.6211 -140.559
c9.94824 -69.1309 11.3994 -139.519 11.5586 -209.263c0.0771484 -35.1533 0.0888672 -70.3066 0.818359 -105.452c0.725586 -34.9785 5.22754 -70.7607 3.48047 -105.658c-0.535156 -10.6738 -7.3584 -20.8389 -16.7471 -28.4658
c13.0176 -1.58398 25.873 -1.17676 37.8311 5.75488c17.416 10.0957 27.1777 -10.7783 10.0342 -20.5713c-19.7207 -11.2676 -41.6699 -12.2646 -63.7275 -8.92285c-29.5605 4.47949 -54.3506 10.0879 -83.5537 -0.291016
c-18.8281 -6.6875 -16.9961 16.375 -1.83984 21.9951c13.7559 5.09961 27.8408 7.97559 42.1748 8.68555c-0.124023 0.508789 -0.271484 0.974609 -0.375977 1.50293c-5.70898 29.1797 -4.19531 60.6064 -4.43164 90.252
c-0.225586 27.752 0.0654297 55.5078 0.472656 83.2559c0.853516 58.1621 2.44531 116.289 2.7793 174.459c0.314453 55.1846 2.8252 113.494 -6.28809 168.093c-1.78516 10.7129 -4.26172 32.5459 -15.7314 37.9951c-12.8516 6.10938 -29.5293 -13.8252 -37.125 -21.2969
c-18.3623 -18.0635 -34.4043 -38.1221 -48.2568 -59.8184z" />
    <glyph glyph-name="two" unicode="2" horiz-adv-x="448" 
d="M97.8408 -88.7959c-23.6953 4.33887 -46.5967 21.165 -47.7803 46.8398c-1.05566 22.5967 12.6064 45.1895 29.7773 58.8398c33.8066 26.8779 76.8076 28.3955 116.176 16.4141c1.83984 3.03125 3.63672 6.05078 5.36816 9.0127
c42.6943 73.1055 64.6084 157.921 71.5361 241.937c3.5166 42.6328 2.76758 86.0342 -4.19531 128.278c-5.38379 32.6377 -15.0137 82.0547 -46.6152 100.273c-40.0166 23.0664 -81.1475 -19.0537 -96.2461 -52.79c-8.6123 -19.2402 -12.2061 -40.9219 -10.541 -61.9004
c1.26953 -15.9951 4.07227 -39.582 21.3672 -45.7959c16.6621 -5.98535 -6.82422 -25.9863 -19.4463 -22.0078c-47.6514 15.0244 -36.4658 94.7471 -22.3535 129.051c18.9297 46.0215 65.4863 89.8262 118.486 85.4678c45.6836 -3.75684 80.6816 -44.3711 98.6328 -83.417
c23.7422 -51.6494 31.124 -109.609 29.1133 -165.947c-3.62109 -101.497 -29.3311 -204.752 -86.1348 -289.804c13.5889 -7.88672 27.0498 -16.0225 41.0615 -23.1211c22.2168 -11.2559 55.6152 -26.9365 79.5898 -11.8691
c13.7207 8.62402 32.6729 -4.40918 16.0488 -14.8535c-53.2324 -33.457 -102.692 -1.49023 -152.77 27.2939c-32.2852 -41.6699 -85.335 -82.1016 -141.075 -71.9014zM143.682 16.6104c-17.6484 -0.582031 -53.1621 -10.5225 -50.6162 -34.8311
c1.9873 -18.8945 24.6582 -19.4189 37.626 -14.249c20.6523 8.23242 36.9736 24.8604 50.4492 43.2891c-12.3311 3.94727 -24.7979 6.20996 -37.459 5.79102z" />
    <glyph glyph-name="three" unicode="3" horiz-adv-x="417" 
d="M81.7617 407.46c-3.5127 -14.5205 -35.7295 -20.1758 -31.3516 -1.89062c19.1035 79.7617 113.074 156.426 192.852 103.36c39.1201 -26.0244 39.9854 -74.96 24.623 -115.144c-5.70898 -14.9434 -13.3555 -29.0752 -22.4844 -42.1982
c22.4922 -6.33789 43.8047 -18.1602 60.5684 -33.5537c43.8398 -40.2529 63.2734 -100.802 60.2969 -159.282c-3.08594 -60.6191 -22.6787 -127.362 -66.6309 -171.291c-42.0771 -42.0586 -112.659 -67.6797 -168.453 -36.7803
c-54.999 30.4531 -71.3584 91.8174 -73.5283 150.519c-1.16016 31.3535 62.7188 54.4902 67.1357 17.8936c5.25488 -43.5449 19.3398 -113.463 72.5957 -122.185c45.9629 -7.53027 73.0547 44.8174 84.3496 80.9717c16.7793 53.7021 18.8867 113.685 -10.2432 163.548
c-11.042 18.9023 -27.0293 36.0771 -46.3115 46.7314c-7.07227 3.91211 -23.1836 10.6963 -32.4365 10.2617c-4.09863 -2.93457 -8.27539 -5.75586 -12.5488 -8.40332c-13.4102 -8.30176 -32.2148 -15.7109 -46.8867 -5.58105
c-13.7441 9.49023 -10.0449 25.5049 -0.791992 36.9004c11.4961 14.1553 25.4766 23.6221 40.6797 29.1836c12.9053 11.0811 24.1104 24.3047 32.8164 38.584c14.8193 24.3047 34.835 61.0146 17.8311 88.6768c-19.6592 31.9824 -63.3633 25.0508 -90.1562 7.1582
c-26.9756 -18.0176 -44.3838 -46.3086 -51.9248 -77.4795z" />
    <glyph glyph-name="four" unicode="4" horiz-adv-x="448" 
d="M114.886 74.6162c-17.7959 -7.06055 -44.502 -11.2471 -58.6729 5.40039c-15.5488 18.2656 1.10254 41.6465 16.8262 53.0146c23.96 17.3262 57.0098 24.8984 85.3281 31.3457c1.9209 0.43457 3.84961 0.826172 5.77441 1.24121
c22.7178 51.9326 34.6299 110.599 42.459 165.927c9.28027 65.6064 10.375 132.013 6.59473 198.085c-0.776367 13.6191 27.5693 22.8525 28.5322 7.60254c4.73926 -75.1348 2.91895 -150.79 -9.09766 -225.207c-7.30859 -45.2754 -17.0742 -95.6318 -35.3359 -140.294
c38.2812 5.91113 77.0439 8.28613 115.803 9.62891c-0.271484 8.3877 -0.5625 16.7715 -0.741211 25.1631c-2.09961 99.6416 -1.62988 200.176 5.57422 299.607c1.45508 20.0664 16.4482 34.5635 35.7695 39.6631c14.2754 3.76855 40.626 0.507812 40.6963 -19.2832
c0.345703 -98.5938 -6.10156 -197.106 -5.36816 -295.747c0.365234 -49.3281 1.5293 -98.7334 4.28125 -147.987c2.70117 -48.334 4.02051 -96.4238 5.09961 -144.677c0.485352 -21.8135 -35.999 -38.2939 -48.9551 -18.3125
c-11.6553 17.9785 -14.9775 44.4688 -18.7852 65.2227c-4.50977 24.5957 -7.62695 49.6729 -9.98633 74.5596c-3.04297 32.0674 -5.1543 64.166 -6.59082 96.3115c-43.2998 -1.31934 -86.7432 -3.67578 -129.356 -11.1826
c-3.38086 -6.4082 -6.95898 -12.6572 -10.8252 -18.6543c-14.3838 -22.3096 -34.0586 -41.5264 -59.0234 -51.4277zM104.771 123.106c-9.5791 -3.93945 -34.582 -17.8447 -16.666 -27.9521c12.9209 -7.28906 33.6865 8.51562 42.4043 16.7051
c7.87109 7.38965 14.2129 16.1885 19.6426 25.4922c-15.3467 -3.82715 -30.7754 -8.24023 -45.3809 -14.2451z" />
    <glyph glyph-name="five" unicode="5" horiz-adv-x="436" 
d="M124.458 494.945c-30.6279 -3.53223 -61.8984 0.933594 -73.7441 30.1211c-5.3291 13.127 20.6367 25.8574 26.7617 13.0527c12.9678 -27.1074 52.6387 -19.873 75.667 -14.0273c30.0996 7.63867 58.5576 20.7734 88.9912 27.2246
c45.2949 9.60254 96.9824 3.50488 123.628 -38.7197c8.16211 -12.9365 -21.1152 -27.7129 -29.4639 -14.3691c-35.6846 57.04 -111.631 24.0254 -160.578 8.46875c-2.6084 -0.827148 -5.41504 -1.68848 -8.34961 -2.55371c3.97461 -2.36719 6.71875 -5.97656 6.2959 -11.251
c-3.5127 -43.8672 -8.24414 -88.0137 -13.915 -131.811c20.917 12.1641 46.1064 16.0186 71.126 18.2617c31.0469 2.7832 62.3076 -0.961914 87.75 -20.0039c42.3496 -31.6992 58.4453 -88.0605 64.4883 -138.188c6.36914 -52.8252 2.90332 -110.983 -14.4385 -161.584
c-23.8545 -69.6006 -89.0645 -132.544 -167.262 -124.999c-79.3535 7.6582 -124.21 84.5518 -122.456 158.336c0.357422 14.9629 31.7773 25.5625 31.9014 8.50391c0.251953 -34.9199 8.83789 -71.3848 34.6445 -96.5439
c24.3711 -23.7539 63.0371 -31.4043 94.2041 -16.8223c21.6924 10.1494 37.7109 30.1191 48.377 51.0166c8.18164 16.0264 12.3389 29.665 16.7207 49.9912c8.88867 41.2314 10.3945 84.4502 5.81836 126.342c-3.9082 35.7666 -12.0439 78.042 -36.6436 105.953
c-29.4287 33.3955 -88.4443 45.0938 -118.638 6.24902c-0.0771484 -0.100586 -0.173828 -0.174805 -0.254883 -0.271484c-7.11426 -29.5645 -69.3086 -40.6611 -65.5322 -1.75879c5.12695 52.8252 13.8682 107.215 28.668 158.216
c1.22266 4.20703 3.44238 7.92188 6.2334 11.167z" />
    <glyph glyph-name="six" unicode="6" horiz-adv-x="376" 
d="M159.222 -70.3984c-43.1484 20.8818 -68.0566 62.3486 -83.9736 105.843c-18.0518 49.3164 -25.8809 101.393 -25.209 153.825c1.24219 96.7812 22.0186 208.459 83.4248 286.144c25.5977 32.3818 71.6455 70.0693 116.168 58.4717
c44.8916 -11.6943 62.5557 -55.7012 70.5898 -96.6611c2.75586 -14.0352 -26.4941 -23.9717 -30.084 -8.01953c-7.4834 33.2627 -29.5684 92.209 -73.6953 63.999c-28.8574 -18.4482 -46.374 -56.8887 -57.4395 -87.9082
c-23.9902 -67.2598 -34.124 -141.82 -32.0703 -212.992c0.978516 -33.8955 5.29102 -68.001 12.2383 -101.229c25.1855 15.1406 53.7598 23.9434 84.042 22.1621c44.3135 -2.6123 84.9785 -28.4463 98.1436 -72.1582c27.8174 -92.3682 -88.8633 -146.943 -162.135 -111.476z
M287.649 36.6709c-12.4512 31.8662 -44.7949 50.5127 -78.252 51.3281c-23.8584 0.578125 -45.7646 -7.93359 -64.7207 -21.1924c6.67578 -26.6807 15.9248 -54.1064 31.6641 -76.0127c16.5146 -22.9893 51.7725 -45.5596 80.9248 -34.3887
c32.2461 12.3584 42.1982 50.0264 30.3838 80.2656z" />
    <glyph glyph-name="seven" unicode="7" horiz-adv-x="349" 
d="M69.8906 488.541c-18.374 -8.01465 -28.6162 12.5625 -10.1143 20.7363c41.6816 18.4365 115.466 47.1045 151.52 4.36719c35.1416 -41.6582 40.3076 -99.999 41.7402 -152.242c1.61816 -59.0977 -3.22559 -118.393 -9.3584 -177.199
c14.959 1.35059 29.9062 2.84082 44.834 4.60254c19.4883 2.29785 8.97754 -21.5107 -5.55371 -23.207c-13.8877 -1.61816 -27.7949 -3.01953 -41.71 -4.28516c-7.2002 -66.5107 -14.4199 -133.2 -25.0039 -199.261c-5.68652 -35.4873 -81.0273 -50.042 -75.4111 -4.56055
c8.21289 66.5264 19.3916 132.676 29.8203 198.923c-12.9912 -0.613281 -25.9941 -1.08301 -39.0078 -1.38965c-19.4961 -0.454102 -9.26465 22.6318 5.50391 22.9971c12.3662 0.302734 24.7246 0.760742 37.0752 1.34668c6.08594 39.5195 11.7607 79.0938 16.2129 118.827
c6.05469 54.0127 11.8926 109.954 4.78613 164.169c-3.20996 24.4795 -14.043 45.9707 -41.4297 47.1045c-27.9033 1.15234 -58.7559 -9.95996 -83.9033 -20.9287z" />
    <glyph glyph-name="eight" unicode="8" horiz-adv-x="383" 
d="M157.541 205.871c-71.2959 68.6455 -137.966 156.837 -92.8379 259.871c18.8438 43.0244 60.9678 81.7217 108.627 88.3467c46.8789 6.5166 89.1699 -16.6934 109.531 -58.8447c20.5205 -42.4932 21.541 -94.5928 20.3066 -140.776
c-1.45898 -54.4902 -9.33398 -108.654 -20.1592 -162.011c-0.104492 -0.524414 -0.314453 -1.00977 -0.500977 -1.50293c8.56641 -10.3633 16.5547 -21.2461 23.6611 -32.9404c29.5371 -48.5947 36.2598 -106.97 14.5283 -160.082
c-18.25 -44.6084 -60.4863 -76.668 -109.679 -76.8193c-44.666 -0.135742 -88.3662 23.7852 -112.535 61.2441c-27.5029 42.625 -17.625 97.5732 0.255859 141.995c12.9209 32.0986 32.4941 60.3857 58.8018 81.5195zM269.238 -10.4316
c8.17383 22.6436 8.41309 48.71 2.65332 71.9824c-13.084 52.8604 -54.7695 89.582 -93.373 124.708c-1.31152 1.19141 -2.62695 2.41016 -3.94238 3.61719c-34.4775 -29.9482 -54.2568 -75.9697 -60.3232 -120.671c-8.14648 -60.0283 33.6748 -114.654 94.5068 -121.517
c32.2734 -3.64062 50.042 12.9717 60.4785 41.8799zM195.721 520.41c-53.4844 1.14453 -76.0762 -55.3926 -72.1562 -100.233c4.83594 -55.3086 37.4814 -103.682 74.8623 -142.863c20.0391 -21.0059 41.5576 -40.5215 61.585 -61.3447
c10.0215 55.4375 16.4688 111.849 14 168.171c-2.14258 48.9131 -13.166 134.881 -78.291 136.271z" />
    <glyph glyph-name="nine" unicode="9" horiz-adv-x="484" 
d="M159.366 252.202c-46.4639 -10.9297 -90.3145 15.4893 -104.202 60.8701c-14.543 47.4922 3.36133 100.127 31.8701 138.688c48.1289 65.0938 164.701 116.486 231.755 50.1309c11.7568 5.0498 25.1904 5.28223 37.2617 -2.05762
c21.5957 -13.1387 38.2314 -41.457 47.1895 -64.2832c21.8477 -55.6855 31.5088 -117.725 31.0195 -177.385c-0.880859 -107.424 -28.3486 -260.263 -141.346 -306.749c-52.7354 -21.6924 -105.331 -7.1377 -140.166 37.4902
c-34.1631 43.7617 -35.8359 95.9268 -24.1611 148.174c3.70703 16.5928 39.6758 24.0488 36.1904 2.18945c-9.125 -57.2227 11.5078 -131.663 78.0693 -139.007c50.1895 -5.53516 80.1416 67.624 91.8594 105.606c17.5439 56.8652 24.6465 116.506 23.2295 175.898
c-0.756836 31.8271 -4.5957 63.3203 -9.76953 94.709c-4.11035 24.9492 -9.30762 51.793 -21.4023 74.375c-0.100586 -0.194336 -0.240234 -0.430664 -0.321289 -0.605469c-5.44141 -11.5156 -10.8174 -23.0664 -16.3486 -34.5439
c-11.9316 -24.7549 -24.8369 -49.083 -40.4668 -71.7227c-27.1611 -39.3486 -61.4453 -80.293 -110.261 -91.7783zM141.599 471.531c-44.5381 -36.1084 -78.9746 -110.308 -45.7422 -164.27c14.4697 -23.4902 40.7002 -36.4111 67.7031 -27.5732
c26.4199 8.65137 47.3096 30.7715 63.6689 52.3906c16.4492 21.7393 27.915 47.3906 38.2705 72.46c9.68359 23.4512 15.7969 49.0723 26.7852 71.8828c0.756836 1.57227 1.60645 3.09375 2.51855 4.57617c-42.6406 40.7617 -111.235 24.5566 -153.204 -9.4668z" />
    <glyph glyph-name="colon" unicode=":" horiz-adv-x="176" 
d="M100.777 343.161c-4.30859 -19.3213 -42.7529 -32.5879 -48.3223 -7.94922c-4.94141 21.8867 -1.54102 47.7832 2.46484 69.6084c4.69238 25.5859 59.3994 36.333 54.7803 3.31445c-3 -21.4482 -4.21484 -43.8672 -8.92285 -64.9736zM104.821 208.692
c11.6865 0.636719 24.1914 -6.96191 21.04 -20.1348c-4.82031 -20.1787 -9.77246 -40.082 -11.915 -60.7734c-1.24609 -12.0479 -16.8184 -20.3193 -27.1699 -22.0771c-8.60449 -1.45898 -24.7275 1.58008 -24.2344 13.6279
c0.919922 22.4268 3.20996 44.8418 10.833 66.0498c4.7627 13.2393 17.1748 22.5312 31.4463 23.3076z" />
    <glyph glyph-name="semicolon" unicode=";" horiz-adv-x="184" 
d="M74.0332 396.755c4.83984 28.3262 66.6816 37.9434 59.1133 3.57812c-4.32031 -19.6123 -8.50488 -39.1357 -14.0742 -58.4297c-6.81934 -23.626 -57.1641 -36.7373 -53.7637 -3.25293c1.9834 19.5391 5.41797 38.752 8.72461 58.1045zM72.0146 149.676
c6.31152 25.2988 62.6289 35.5762 55.041 3.32617c-5.68262 -24.1377 -11.8926 -48.167 -17.9707 -72.2119c-5.82617 -23.04 -10.3477 -48.9795 -22.4727 -69.6045c-6.65234 -11.3184 -30.457 -19.5117 -34.7578 -2.1543c-5.13867 20.7305 1.65723 47.8301 5.2207 68.6104
c4.14551 24.1611 9.00488 48.2529 14.9395 72.0342z" />
    <glyph glyph-name="less" unicode="&#x3c;" horiz-adv-x="334" 
d="M264.363 184.268c16.1777 -4.00195 24.1846 -17.1943 16.0449 -32.8867c-8.3252 -16.0459 -28.9004 -24.8799 -46.3311 -22.5977c-60.4717 7.92188 -125.577 7.83301 -178.037 42.5439c-8.94238 5.91895 -6.2793 19.1543 -2.62695 26.9014
c13.585 28.8232 55.7754 43.8906 82.6338 58.0107c28.2139 14.8311 61.3994 34.3389 93.6729 36.7959c14.7217 1.12207 21.1338 -12.9365 11.5977 -23.7773c-16.7754 -19.0732 -42.3027 -30.9307 -63.7471 -44.0029c-11.6055 -7.07227 -23.3311 -13.9424 -34.9092 -21.0566
c39.3604 -11.3486 80.9834 -9.87012 121.702 -19.9307z" />
    <glyph glyph-name="equal" unicode="=" horiz-adv-x="357" 
d="M161.736 297.198c-32.9639 0.166992 -66.0791 -3.80957 -98.9893 -1.41504c-8.5625 0.625 -14.1475 8.88867 -12.4395 16.9385c2.07227 9.77734 12.1943 16.1816 20.9541 18.9453c34.7656 10.9688 73.0469 12.0322 109.24 12.2422
c36.333 0.213867 73.3262 -1.22266 109.155 -7.59961c13.9111 -2.47656 19.8535 -15.0322 13.4023 -27.4756c-7.11035 -13.7207 -23.998 -20.2803 -38.6963 -18.875c-34.2217 3.26855 -68.1953 7.06445 -102.627 7.23926zM294.164 211.299
c27.4609 -6.50098 3.87402 -35.4521 -14.2637 -36.4307c-36.9814 -1.99512 -74.3389 2.23926 -111.277 3.98926c-16.876 0.799805 -33.7754 1.06738 -50.6709 0.888672c-15.502 -0.163086 -31.6992 -3.52441 -47.0459 -1.12598
c-11.0273 1.72363 -11.3457 12.3584 -5.53516 19.667c23.1289 29.0791 73.1357 24.4141 106.217 23.9756c40.5557 -0.535156 82.9707 -1.58691 122.576 -10.9639z" />
    <glyph glyph-name="greater" unicode="&#x3e;" horiz-adv-x="306" 
d="M242.906 245.813c60.8125 -54.7734 -114.088 -106.097 -145.911 -111.255c-14.4658 -2.34082 -28.7451 8.06934 -27.8799 22.7598c0.958984 16.3096 17.7461 28.877 32.4365 32.6807c16.4375 4.25391 33.1348 8.25195 49.0986 14.1055
c5.19336 1.90527 13.5029 4.88965 21.4639 8.06055c-5.42969 2.83301 -10.875 5.63574 -16.3711 8.33691c-11.6631 5.74023 -23.4316 11.3135 -35.2656 16.6934c-19.8877 9.04395 -47.7793 23.0908 -63.0947 29.8564c-7.98438 3.52832 -8.96289 12.2734 -5.4541 19.4033
c16.6738 33.8682 67.6553 13.0488 93.2256 4.10254c18.1689 -6.35742 36.0576 -13.4102 53.5703 -21.4053c14.3379 -6.54785 32.3047 -12.6416 44.1816 -23.3389z" />
    <glyph glyph-name="question" unicode="?" horiz-adv-x="434" 
d="M383.289 473.904c9.99805 -175.771 -113.962 -324.874 -127.306 -497.372c-1.56055 -20.1406 -16.4258 -34.6572 -35.8906 -39.7959c-14.1006 -3.72559 -41.0801 -0.539062 -40.8359 19.3447c1.06738 85.917 33.9697 166.87 66.1846 245.153
c27.8564 67.6865 58.3369 135.233 71.541 207.706c11.4463 62.8115 15.04 162.046 -64.5547 179.706c-66.0996 14.668 -143.35 -32.292 -157.09 -99.4316c-7.07227 -34.5518 2.41797 -74.5723 28.8262 -98.8574c26.8555 -24.6973 67.082 -28.3223 101.882 -30.2051
c17.5674 -0.951172 3.29199 -24.5459 -9.42676 -24.0879c-44.084 1.58789 -89.9883 8.12402 -125.898 36.0195c-35.4014 27.4951 -46.9561 74.832 -37.6289 117.341c17.4971 79.75 103.313 136.542 182.163 138.091c39.7139 0.780273 78.6396 -12.4043 105.914 -42.1816
c27.3711 -29.8828 39.8574 -71.5918 42.1201 -111.43zM216.444 -111.012c7.81348 2.33301 23.6797 1.59375 26.835 -8.20312c3.63672 -11.2988 4.09082 -23.0898 4.4248 -34.8848c0.442383 -15.6416 -14.0234 -26.5869 -27.6465 -30.6582
c-6.3418 -1.89844 -15.0596 -1.91016 -21.1729 0.969727c-4.88672 2.30176 -10.4482 7.99219 -10.2852 13.9307c0.333984 11.9697 0.174805 25.2207 3.46582 36.8066c3.21777 11.3262 13.5107 18.7939 24.3789 22.0391z" />
    <glyph glyph-name="at" unicode="@" horiz-adv-x="574" 
d="M507.181 83.1426c15.1299 -3.10156 20.9209 -15.9883 14.4854 -29.7012c-62.5869 -133.227 -243.38 -176.271 -362.634 -94.5918c-113.486 77.7314 -127.335 232.899 -91.5488 355.092c34.6025 118.159 125.197 239.4 254.97 257.084
c62.7959 8.55859 119.844 -19.5967 155.998 -70.5117c38.2236 -53.8262 43.3662 -123.679 37.874 -187.48c-5.34473 -62.082 -30.1074 -143.951 -97.2852 -164.565c-51.2334 -15.7197 -78.3564 20.0156 -89.1895 62.5322
c-4.63477 -4.72363 -9.28809 -9.41602 -13.9922 -13.9688c-17.7227 -17.1475 -37.3936 -33.5576 -62.7969 -36.6436c-53.4736 -6.49707 -65.9209 46.3477 -51.7852 87.3535c14.3838 41.7363 46.0869 78.6289 88.999 92.1357
c40.874 12.8662 92.4141 -1.86719 98.1621 -49.9492c0.22168 -1.86719 -0.120117 -3.65234 -0.837891 -5.32129c-1.41699 -30.791 5.53418 -55.6045 20.7412 -81.8809c1.23438 -2.12695 3.09375 -2.86035 4.16113 -3.25977c3.01953 2.65527 5.91895 6.60645 7.73535 8.99707
c8.05371 10.5957 14.1553 22.8955 18.4365 35.4707c17.5127 51.4355 18.9258 116.195 4.40527 168.512c-11.6328 41.915 -38.6816 82.4482 -80.0059 99.4873c-43.3076 17.8584 -90.0117 -2.15723 -124.727 -28.8721c-73.9863 -56.9395 -112.808 -153.127 -121.606 -243.981
c-9.5791 -98.9355 26.4707 -210.435 123.291 -253.308c87.0078 -38.5303 178.161 -2.9541 225.331 76.9746c7.92578 13.4297 25.9434 23.6533 41.8184 20.3965zM327.571 282.437c4.97559 8.43457 13.4414 15.1709 22.9043 18.5791
c-14.3574 18.623 -43.4404 21.6895 -65.5645 10.9541c-25.3525 -12.2998 -43.9834 -36.873 -48.1826 -64.7295c-3.02734 -20.0664 4.63867 -66.4209 33.0146 -41.4873c24.0605 21.1338 41.8018 49.5332 57.8281 76.6836z" />
    <glyph glyph-name="A" unicode="A" horiz-adv-x="802" 
d="M-37.6016 385.889c4.49414 12.1992 33.3506 16.9688 27.8037 1.67676c-10.126 -27.8252 14.7881 -52.2197 37.1719 -64.71c24.4873 -13.6621 52.7314 -18.3506 80.502 -17.4775c45.2529 1.4248 89.958 14.2334 133.375 27.8721
c14.6943 43.1182 29.8818 86.0654 46.3896 128.531c22.7021 58.3984 45.1748 123.539 87.9629 170.779c35.832 39.5586 94.9561 50.8574 130.439 3.74219c17.4854 -23.2178 27.0723 -54.1982 36.6436 -81.2861c10.8096 -30.5967 18.1182 -61.8799 24.2158 -93.7227
c24.0762 -125.701 26.1953 -253.999 56.3535 -378.804c7.33594 -30.3711 14.9043 -61.4023 25.1709 -90.9277c9.62598 -27.6777 24.7246 -53.791 57.9717 -51.583c63.7393 4.23828 91.5176 87.0352 109.081 136.86c4.37793 12.416 33.4727 17.2402 28.043 1.69531
c-21.1143 -60.4639 -46.8828 -126.652 -108.887 -155.498c-28.7607 -13.3789 -61.5889 -17.0078 -90.8037 -2.93359c-30.0801 14.4893 -50.3945 42.3379 -65.4971 71.3701c-31.3418 60.2461 -44.4648 129.035 -54.1025 195.666
c-8.64746 59.7764 -13.8877 119.938 -20.4629 179.951c-42.7764 5.9541 -91.7119 -8.66309 -130.164 -18.9023c-36.6006 -9.74609 -72.6191 -21.4678 -108.859 -32.4326c-21.5264 -63.9414 -42.1982 -128.193 -65.2109 -191.354
c-23.6602 -64.9307 -46.8125 -133.995 -84.0771 -192.604c-27.748 -43.6338 -83.5732 -102.606 -139.907 -67.6748c-14.3574 8.90332 7.12988 27.7393 18.4326 20.8613c40.5137 -24.6504 75.5625 20.4434 94.9424 51.1953c19.8418 31.4814 34.1445 66.1846 48.0859 100.565
c29.8711 73.6562 54.9365 149.156 80.0449 224.532c4.99121 14.9863 9.99414 29.9648 15.0283 44.9355c-9.39648 -2.64355 -18.8164 -5.2207 -28.291 -7.60352c-53.2793 -13.4023 -111.251 -25.4229 -165.256 -9.25684c-38.9219 11.6514 -93.7764 48.6562 -76.1396 96.5361z
M352.111 543.35c-30.0381 -64.8418 -54.708 -131.963 -77.8838 -199.669c51.2959 16.1934 102.739 32.8867 155.728 42.625c22.6396 4.16504 46.9873 8.15137 70.7686 7.74023c-7.52637 65.1094 -14.9473 133.281 -34.2217 195.949
c-8.17773 26.5908 -22.7324 68.4746 -56.3604 41.5068c-26.9404 -21.6035 -43.8242 -57.4902 -58.0303 -88.1523z" />
    <glyph glyph-name="A" unicode="&#xc5;" horiz-adv-x="802" 
d="M-37.6016 385.889c4.49414 12.1992 33.3506 16.9688 27.8037 1.67676c-10.126 -27.8252 14.7881 -52.2197 37.1719 -64.71c24.4873 -13.6621 52.7314 -18.3506 80.502 -17.4775c45.2529 1.4248 89.958 14.2334 133.375 27.8721
c14.6943 43.1182 29.8818 86.0654 46.3896 128.531c22.7021 58.3984 45.1748 123.539 87.9629 170.779c35.832 39.5586 94.9561 50.8574 130.439 3.74219c17.4854 -23.2178 27.0723 -54.1982 36.6436 -81.2861c10.8096 -30.5967 18.1182 -61.8799 24.2158 -93.7227
c24.0762 -125.701 26.1953 -253.999 56.3535 -378.804c7.33594 -30.3711 14.9043 -61.4023 25.1709 -90.9277c9.62598 -27.6777 24.7246 -53.791 57.9717 -51.583c63.7393 4.23828 91.5176 87.0352 109.081 136.86c4.37793 12.416 33.4727 17.2402 28.043 1.69531
c-21.1143 -60.4639 -46.8828 -126.652 -108.887 -155.498c-28.7607 -13.3789 -61.5889 -17.0078 -90.8037 -2.93359c-30.0801 14.4893 -50.3945 42.3379 -65.4971 71.3701c-31.3418 60.2461 -44.4648 129.035 -54.1025 195.666
c-8.64746 59.7764 -13.8877 119.938 -20.4629 179.951c-42.7764 5.9541 -91.7119 -8.66309 -130.164 -18.9023c-36.6006 -9.74609 -72.6191 -21.4678 -108.859 -32.4326c-21.5264 -63.9414 -42.1982 -128.193 -65.2109 -191.354
c-23.6602 -64.9307 -46.8125 -133.995 -84.0771 -192.604c-27.748 -43.6338 -83.5732 -102.606 -139.907 -67.6748c-14.3574 8.90332 7.12988 27.7393 18.4326 20.8613c40.5137 -24.6504 75.5625 20.4434 94.9424 51.1953c19.8418 31.4814 34.1445 66.1846 48.0859 100.565
c29.8711 73.6562 54.9365 149.156 80.0449 224.532c4.99121 14.9863 9.99414 29.9648 15.0283 44.9355c-9.39648 -2.64355 -18.8164 -5.2207 -28.291 -7.60352c-53.2793 -13.4023 -111.251 -25.4229 -165.256 -9.25684c-38.9219 11.6514 -93.7764 48.6562 -76.1396 96.5361z
M352.111 543.35c-30.0381 -64.8418 -54.708 -131.963 -77.8838 -199.669c51.2959 16.1934 102.739 32.8867 155.728 42.625c22.6396 4.16504 46.9873 8.15137 70.7686 7.74023c-7.52637 65.1094 -14.9473 133.281 -34.2217 195.949
c-8.17773 26.5908 -22.7324 68.4746 -56.3604 41.5068c-26.9404 -21.6035 -43.8242 -57.4902 -58.0303 -88.1523z" />
    <glyph glyph-name="A" unicode="&#xc4;" horiz-adv-x="802" 
d="M-37.6016 385.889c4.49414 12.1992 33.3506 16.9688 27.8037 1.67676c-10.126 -27.8252 14.7881 -52.2197 37.1719 -64.71c24.4873 -13.6621 52.7314 -18.3506 80.502 -17.4775c45.2529 1.4248 89.958 14.2334 133.375 27.8721
c14.6943 43.1182 29.8818 86.0654 46.3896 128.531c22.7021 58.3984 45.1748 123.539 87.9629 170.779c35.832 39.5586 94.9561 50.8574 130.439 3.74219c17.4854 -23.2178 27.0723 -54.1982 36.6436 -81.2861c10.8096 -30.5967 18.1182 -61.8799 24.2158 -93.7227
c24.0762 -125.701 26.1953 -253.999 56.3535 -378.804c7.33594 -30.3711 14.9043 -61.4023 25.1709 -90.9277c9.62598 -27.6777 24.7246 -53.791 57.9717 -51.583c63.7393 4.23828 91.5176 87.0352 109.081 136.86c4.37793 12.416 33.4727 17.2402 28.043 1.69531
c-21.1143 -60.4639 -46.8828 -126.652 -108.887 -155.498c-28.7607 -13.3789 -61.5889 -17.0078 -90.8037 -2.93359c-30.0801 14.4893 -50.3945 42.3379 -65.4971 71.3701c-31.3418 60.2461 -44.4648 129.035 -54.1025 195.666
c-8.64746 59.7764 -13.8877 119.938 -20.4629 179.951c-42.7764 5.9541 -91.7119 -8.66309 -130.164 -18.9023c-36.6006 -9.74609 -72.6191 -21.4678 -108.859 -32.4326c-21.5264 -63.9414 -42.1982 -128.193 -65.2109 -191.354
c-23.6602 -64.9307 -46.8125 -133.995 -84.0771 -192.604c-27.748 -43.6338 -83.5732 -102.606 -139.907 -67.6748c-14.3574 8.90332 7.12988 27.7393 18.4326 20.8613c40.5137 -24.6504 75.5625 20.4434 94.9424 51.1953c19.8418 31.4814 34.1445 66.1846 48.0859 100.565
c29.8711 73.6562 54.9365 149.156 80.0449 224.532c4.99121 14.9863 9.99414 29.9648 15.0283 44.9355c-9.39648 -2.64355 -18.8164 -5.2207 -28.291 -7.60352c-53.2793 -13.4023 -111.251 -25.4229 -165.256 -9.25684c-38.9219 11.6514 -93.7764 48.6562 -76.1396 96.5361z
M352.111 543.35c-30.0381 -64.8418 -54.708 -131.963 -77.8838 -199.669c51.2959 16.1934 102.739 32.8867 155.728 42.625c22.6396 4.16504 46.9873 8.15137 70.7686 7.74023c-7.52637 65.1094 -14.9473 133.281 -34.2217 195.949
c-8.17773 26.5908 -22.7324 68.4746 -56.3604 41.5068c-26.9404 -21.6035 -43.8242 -57.4902 -58.0303 -88.1523z" />
    <glyph glyph-name="A" unicode="&#xc3;" horiz-adv-x="802" 
d="M-37.6016 385.889c4.49414 12.1992 33.3506 16.9688 27.8037 1.67676c-10.126 -27.8252 14.7881 -52.2197 37.1719 -64.71c24.4873 -13.6621 52.7314 -18.3506 80.502 -17.4775c45.2529 1.4248 89.958 14.2334 133.375 27.8721
c14.6943 43.1182 29.8818 86.0654 46.3896 128.531c22.7021 58.3984 45.1748 123.539 87.9629 170.779c35.832 39.5586 94.9561 50.8574 130.439 3.74219c17.4854 -23.2178 27.0723 -54.1982 36.6436 -81.2861c10.8096 -30.5967 18.1182 -61.8799 24.2158 -93.7227
c24.0762 -125.701 26.1953 -253.999 56.3535 -378.804c7.33594 -30.3711 14.9043 -61.4023 25.1709 -90.9277c9.62598 -27.6777 24.7246 -53.791 57.9717 -51.583c63.7393 4.23828 91.5176 87.0352 109.081 136.86c4.37793 12.416 33.4727 17.2402 28.043 1.69531
c-21.1143 -60.4639 -46.8828 -126.652 -108.887 -155.498c-28.7607 -13.3789 -61.5889 -17.0078 -90.8037 -2.93359c-30.0801 14.4893 -50.3945 42.3379 -65.4971 71.3701c-31.3418 60.2461 -44.4648 129.035 -54.1025 195.666
c-8.64746 59.7764 -13.8877 119.938 -20.4629 179.951c-42.7764 5.9541 -91.7119 -8.66309 -130.164 -18.9023c-36.6006 -9.74609 -72.6191 -21.4678 -108.859 -32.4326c-21.5264 -63.9414 -42.1982 -128.193 -65.2109 -191.354
c-23.6602 -64.9307 -46.8125 -133.995 -84.0771 -192.604c-27.748 -43.6338 -83.5732 -102.606 -139.907 -67.6748c-14.3574 8.90332 7.12988 27.7393 18.4326 20.8613c40.5137 -24.6504 75.5625 20.4434 94.9424 51.1953c19.8418 31.4814 34.1445 66.1846 48.0859 100.565
c29.8711 73.6562 54.9365 149.156 80.0449 224.532c4.99121 14.9863 9.99414 29.9648 15.0283 44.9355c-9.39648 -2.64355 -18.8164 -5.2207 -28.291 -7.60352c-53.2793 -13.4023 -111.251 -25.4229 -165.256 -9.25684c-38.9219 11.6514 -93.7764 48.6562 -76.1396 96.5361z
M352.111 543.35c-30.0381 -64.8418 -54.708 -131.963 -77.8838 -199.669c51.2959 16.1934 102.739 32.8867 155.728 42.625c22.6396 4.16504 46.9873 8.15137 70.7686 7.74023c-7.52637 65.1094 -14.9473 133.281 -34.2217 195.949
c-8.17773 26.5908 -22.7324 68.4746 -56.3604 41.5068c-26.9404 -21.6035 -43.8242 -57.4902 -58.0303 -88.1523z" />
    <glyph glyph-name="A" unicode="&#xc2;" horiz-adv-x="802" 
d="M-37.6016 385.889c4.49414 12.1992 33.3506 16.9688 27.8037 1.67676c-10.126 -27.8252 14.7881 -52.2197 37.1719 -64.71c24.4873 -13.6621 52.7314 -18.3506 80.502 -17.4775c45.2529 1.4248 89.958 14.2334 133.375 27.8721
c14.6943 43.1182 29.8818 86.0654 46.3896 128.531c22.7021 58.3984 45.1748 123.539 87.9629 170.779c35.832 39.5586 94.9561 50.8574 130.439 3.74219c17.4854 -23.2178 27.0723 -54.1982 36.6436 -81.2861c10.8096 -30.5967 18.1182 -61.8799 24.2158 -93.7227
c24.0762 -125.701 26.1953 -253.999 56.3535 -378.804c7.33594 -30.3711 14.9043 -61.4023 25.1709 -90.9277c9.62598 -27.6777 24.7246 -53.791 57.9717 -51.583c63.7393 4.23828 91.5176 87.0352 109.081 136.86c4.37793 12.416 33.4727 17.2402 28.043 1.69531
c-21.1143 -60.4639 -46.8828 -126.652 -108.887 -155.498c-28.7607 -13.3789 -61.5889 -17.0078 -90.8037 -2.93359c-30.0801 14.4893 -50.3945 42.3379 -65.4971 71.3701c-31.3418 60.2461 -44.4648 129.035 -54.1025 195.666
c-8.64746 59.7764 -13.8877 119.938 -20.4629 179.951c-42.7764 5.9541 -91.7119 -8.66309 -130.164 -18.9023c-36.6006 -9.74609 -72.6191 -21.4678 -108.859 -32.4326c-21.5264 -63.9414 -42.1982 -128.193 -65.2109 -191.354
c-23.6602 -64.9307 -46.8125 -133.995 -84.0771 -192.604c-27.748 -43.6338 -83.5732 -102.606 -139.907 -67.6748c-14.3574 8.90332 7.12988 27.7393 18.4326 20.8613c40.5137 -24.6504 75.5625 20.4434 94.9424 51.1953c19.8418 31.4814 34.1445 66.1846 48.0859 100.565
c29.8711 73.6562 54.9365 149.156 80.0449 224.532c4.99121 14.9863 9.99414 29.9648 15.0283 44.9355c-9.39648 -2.64355 -18.8164 -5.2207 -28.291 -7.60352c-53.2793 -13.4023 -111.251 -25.4229 -165.256 -9.25684c-38.9219 11.6514 -93.7764 48.6562 -76.1396 96.5361z
M352.111 543.35c-30.0381 -64.8418 -54.708 -131.963 -77.8838 -199.669c51.2959 16.1934 102.739 32.8867 155.728 42.625c22.6396 4.16504 46.9873 8.15137 70.7686 7.74023c-7.52637 65.1094 -14.9473 133.281 -34.2217 195.949
c-8.17773 26.5908 -22.7324 68.4746 -56.3604 41.5068c-26.9404 -21.6035 -43.8242 -57.4902 -58.0303 -88.1523z" />
    <glyph glyph-name="A" unicode="&#xc1;" horiz-adv-x="802" 
d="M-37.6016 385.889c4.49414 12.1992 33.3506 16.9688 27.8037 1.67676c-10.126 -27.8252 14.7881 -52.2197 37.1719 -64.71c24.4873 -13.6621 52.7314 -18.3506 80.502 -17.4775c45.2529 1.4248 89.958 14.2334 133.375 27.8721
c14.6943 43.1182 29.8818 86.0654 46.3896 128.531c22.7021 58.3984 45.1748 123.539 87.9629 170.779c35.832 39.5586 94.9561 50.8574 130.439 3.74219c17.4854 -23.2178 27.0723 -54.1982 36.6436 -81.2861c10.8096 -30.5967 18.1182 -61.8799 24.2158 -93.7227
c24.0762 -125.701 26.1953 -253.999 56.3535 -378.804c7.33594 -30.3711 14.9043 -61.4023 25.1709 -90.9277c9.62598 -27.6777 24.7246 -53.791 57.9717 -51.583c63.7393 4.23828 91.5176 87.0352 109.081 136.86c4.37793 12.416 33.4727 17.2402 28.043 1.69531
c-21.1143 -60.4639 -46.8828 -126.652 -108.887 -155.498c-28.7607 -13.3789 -61.5889 -17.0078 -90.8037 -2.93359c-30.0801 14.4893 -50.3945 42.3379 -65.4971 71.3701c-31.3418 60.2461 -44.4648 129.035 -54.1025 195.666
c-8.64746 59.7764 -13.8877 119.938 -20.4629 179.951c-42.7764 5.9541 -91.7119 -8.66309 -130.164 -18.9023c-36.6006 -9.74609 -72.6191 -21.4678 -108.859 -32.4326c-21.5264 -63.9414 -42.1982 -128.193 -65.2109 -191.354
c-23.6602 -64.9307 -46.8125 -133.995 -84.0771 -192.604c-27.748 -43.6338 -83.5732 -102.606 -139.907 -67.6748c-14.3574 8.90332 7.12988 27.7393 18.4326 20.8613c40.5137 -24.6504 75.5625 20.4434 94.9424 51.1953c19.8418 31.4814 34.1445 66.1846 48.0859 100.565
c29.8711 73.6562 54.9365 149.156 80.0449 224.532c4.99121 14.9863 9.99414 29.9648 15.0283 44.9355c-9.39648 -2.64355 -18.8164 -5.2207 -28.291 -7.60352c-53.2793 -13.4023 -111.251 -25.4229 -165.256 -9.25684c-38.9219 11.6514 -93.7764 48.6562 -76.1396 96.5361z
M352.111 543.35c-30.0381 -64.8418 -54.708 -131.963 -77.8838 -199.669c51.2959 16.1934 102.739 32.8867 155.728 42.625c22.6396 4.16504 46.9873 8.15137 70.7686 7.74023c-7.52637 65.1094 -14.9473 133.281 -34.2217 195.949
c-8.17773 26.5908 -22.7324 68.4746 -56.3604 41.5068c-26.9404 -21.6035 -43.8242 -57.4902 -58.0303 -88.1523z" />
    <glyph glyph-name="B" unicode="B" horiz-adv-x="676" 
d="M137.516 321.327c-86.333 -3.50879 -162.952 62.6846 -172.372 148.578c-8.77539 79.9521 33.8145 180.293 101.016 226.144c32.2539 22.0029 75.4883 34.749 111.546 14.1699c38.9414 -22.2246 56.8613 -61.2588 69.5225 -102.673
c29.9561 -97.9922 31.4736 -201.504 35.2422 -303.032c1.16016 -31.2832 2.7666 -62.5049 4.62988 -93.6914c6.59863 50.1426 14.7998 100.053 25.5352 149.536c22.9971 105.987 55.0029 216.981 120.566 305.146c27.4258 36.877 66.1533 70.4346 114.856 69.4023
c42.8809 -0.908203 70.5352 -33.5693 84.4609 -71.4082c17.1553 -46.6191 9.34961 -98.4736 -2.90332 -145.329c-13.7822 -52.6934 -34.415 -104.172 -57.6143 -153.38c-22.8652 -48.4971 -50.4072 -94.751 -84.1279 -136.529
c-8.0498 -9.97461 -16.5928 -19.748 -25.6553 -28.9697c21.3555 -6.89355 41.3174 -18.1846 58.1738 -33.9814c26.5449 -24.876 43.5723 -59.0508 50.6592 -94.9023c44.3174 9.04785 87.2139 23.2803 126.854 47.2471c16.9961 10.2734 26.3311 -10.2236 9.8623 -20.2217
c-41.4912 -25.1895 -86.7783 -40.373 -133.521 -50.1924c0.52832 -6.89355 0.726562 -13.7871 0.520508 -20.6299c-2.87598 -95.9854 -66.6309 -177.776 -157.664 -207.062c-80.3164 -25.8379 -207.768 -5.10352 -222.932 95.2061
c-5.09668 33.7246 10.2031 64.791 33.9648 87.2949c-12.4941 88.6963 -17.3301 178.821 -18.4863 268.216c-1.12598 86.791 3.06543 173.488 -4.58887 260.112c-3.54785 40.1562 -6.6416 85.7969 -23.7275 122.81c-8.48047 18.3701 -21.0439 35.2344 -41.7744 39.7988
c-21.2119 4.67285 -42.8779 -4.99902 -59.7109 -17.3379c-59.6133 -43.6846 -94.3555 -138.983 -80.876 -210.605c12.5527 -66.6895 75.8418 -121.39 144.352 -119.453c20.6172 0.582031 9.68359 -23.6338 -5.80664 -24.2627zM513.802 22.085
c-0.493164 4.9873 -1.2373 9.9502 -2.19629 14.8721c-22.333 -2.77539 -44.7676 -4.80566 -67.0576 -6.54492c-42.7686 -3.33789 -86.8721 -3.80762 -129.035 -12.1484c-4.58789 -0.908203 -9.27637 -2.01465 -13.9844 -3.32617
c0.78418 -9.52832 1.56836 -19.0605 2.36035 -28.5967c2.74805 -33.1348 -63.8828 -56.6982 -70.4424 -19.0645c-3.13574 -6.28809 -5.3252 -13.2119 -6.27246 -20.8506c-5.67871 -45.8115 34.9043 -77.8633 73.2285 -92.4375
c34.3223 -13.0527 73.4385 -13.4443 108.312 -2.25879c71.6963 22.9971 112.291 97.0332 105.087 170.355zM327.665 283.286c-13.4834 -80.4102 -21.6309 -161.544 -28.2295 -242.776c0.03125 -0.345703 0.0585938 -0.695312 0.0859375 -1.04102
c31.9434 8.25977 66.041 9.89355 98.4775 12.2031c35.4834 2.52637 71.5293 4.67676 107.249 8.66699c-7.75488 21.9141 -20.1826 42.1631 -36.7363 58.6006c-18.5254 18.3896 -46.9834 34.2607 -74.126 32.1729c-12.1562 -5.03809 -25.042 -8.57422 -38.751 -10.1387
c-15.2891 -1.74316 -30.3838 8.00684 -29.4404 24.0332c1.04785 17.8232 18.8125 29.6494 34.2529 34.5049c3.20215 1.00488 6.43164 1.88965 9.67285 2.70117c38.5264 12.8701 65.1445 50.2939 88.4326 82.1602c30.0264 41.084 54.4512 86.2119 75.8525 132.291
c19.9111 42.8691 38.9297 86.9111 50.4336 132.874c9.38086 37.4785 22.0186 89.791 4.06738 126.877c-22.4492 46.3818 -76.6836 36.958 -108.231 6.38867c-32.1338 -31.1396 -54.7695 -73.3027 -73.124 -113.638c-40.9209 -89.9307 -63.6113 -188.819 -79.8857 -285.88z
" />
    <glyph glyph-name="C" unicode="C" horiz-adv-x="380" 
d="M104.528 -126.005c-60.7236 39.3564 -90.2266 109.416 -108.449 176.688c-19.7559 72.9268 -27.6113 148.193 -22.6162 223.615c8.90039 134.407 50.9668 293.208 164.64 377.747c53.8496 40.0518 133.871 70.5938 187.752 14.1436
c47.0537 -49.2969 52.6113 -130.056 46.2812 -194.381c-6.41602 -65.1484 -31.2412 -135.284 -91.7012 -168.613c-48.4893 -26.7305 -116.929 -18.5488 -142.061 35.8516c-6.79199 14.6982 23.7119 29.416 30.4424 14.8457
c12.3623 -26.7617 40.9209 -43.0049 70.4658 -39.5664c31.3262 3.64453 56.7021 27.1387 71.8281 53.4971c33.1465 57.7578 36.2051 135.986 20.2334 199.36c-13.3672 53.042 -57.2109 106.55 -115.99 76.2715c-43.4014 -22.3564 -75.7559 -66.2695 -98.4697 -108.246
c-54.1445 -100.057 -73.6055 -219.567 -67.0107 -332.238c3.44629 -58.8682 13.4482 -117.76 32.2803 -173.736c16.0527 -47.7168 42.3447 -104.33 89.165 -128.884c55.5771 -29.1445 108.93 10.8252 139.607 56.0781c33.791 49.8477 57.8867 107.342 74.9414 164.859
c3.77246 12.7227 32.8125 18.0791 28.2949 1.71191c-20.8506 -75.5039 -53.3604 -159.337 -110.261 -215.302c-55.1191 -54.2148 -130.095 -78.6055 -199.373 -33.7021z" />
    <glyph glyph-name="D" unicode="D" horiz-adv-x="709" 
d="M287.819 242.287c5.98145 64.748 13.2568 129.378 21.9082 193.653c8.49609 63.0947 17.8809 127.288 35.7656 188.505c14.1475 48.4277 36.1084 104.354 82.1641 130.867c91.8398 52.875 160.936 -83.3945 187.135 -150.049
c39.7842 -101.21 50.3799 -217.091 38.7627 -324.646c-5.88379 -54.4746 -19.375 -107.831 -40.4971 -157.932c41.0059 -7.7041 82.6143 -11.748 124.952 -9.95117c20.377 0.865234 9.63379 -23.3975 -5.75586 -24.0498
c-43.9873 -1.86719 -87.2412 2.28223 -129.894 10.1455c-16.8291 -34.9395 -37.5635 -68.0391 -62.3223 -98.4727c-63.1729 -77.6582 -160.684 -143.3 -264.044 -142.613c-88.9023 0.589844 -174.346 52.3711 -212.736 133.316
c-33.3408 70.3027 -25.9004 173.604 42.3721 221.473c31.8848 22.3564 68.626 28.7959 106.706 26.4902c-0.461914 15.4746 -0.803711 30.9375 -1.02148 46.3779c-1.17969 83.208 3.26074 166.327 -4.33887 249.368c-3.58984 39.2285 -6.54785 83.9453 -23.835 119.902
c-7.90625 16.4492 -20.1523 33.3408 -38.79 38.0137c-19.8145 4.96387 -40.8555 -2.42969 -57.5527 -13.0527c-61.123 -38.8867 -98.2559 -132.47 -86.5029 -202.47c11.3564 -67.6436 76.5439 -120.333 144.793 -118.442
c20.6182 0.570312 9.68457 -23.6377 -5.80566 -24.2627c-84.4619 -3.41211 -163.3 58.7549 -172.289 144.319c-8.22852 78.3447 35.5254 173.884 101.384 217.902c32.8828 21.9805 74.9102 33.0264 111.64 14.0117c38.8643 -20.1211 57.2422 -59.0977 69.7168 -99.2578
c29.2959 -94.2969 31.0811 -194.105 34.5039 -291.95c0.904297 -25.7725 2.12305 -51.498 3.58203 -77.1963zM523.282 83.5811c5.48047 9.71094 10.5586 19.6045 15.2822 29.6377c-39.7451 10.499 -79.001 23.373 -117.85 36.8447
c-35.4639 12.2998 -70.8271 25.8809 -106.667 37.6064c-4.11816 -45.6016 -8.0498 -91.2188 -12.1367 -136.824c1.08301 -12.8975 2.17773 -25.7988 3.27246 -38.7041c2.81738 -33.2285 -64.0732 -56.8037 -70.5049 -18.7939
c-12.1992 72.0879 -18.4561 145.355 -21.4102 218.565c-38.3125 3.9082 -78.3447 -0.939453 -103.457 -31.1748c-49.9453 -60.1338 -17.9863 -150.511 30.4297 -200.405c54.7656 -56.4385 133.545 -81.3838 209.049 -55.0566
c75.1895 26.2148 135.676 90.3965 173.992 158.305zM352.47 512.453c-8.93066 -52.1074 -15.7744 -104.56 -21.7207 -157.082c-5.23242 -46.2812 -9.78516 -92.6279 -14.0742 -139.002c31.8848 -10.5303 62.458 -22.7568 89.5654 -32.375
c47.0146 -16.6855 94.5645 -33.4102 142.875 -46.5098c27.041 66.8252 39.0811 139.224 40.7188 211.374c2.14258 94.3711 -8.63965 195.294 -41.4062 284.277c-13.4414 36.5117 -30.7637 89.4805 -70.8887 104.587c-48.874 18.4014 -78.8496 -49.1924 -91.8174 -84.5439
c-16.585 -45.2178 -25.1396 -93.4043 -33.252 -140.726z" />
    <glyph glyph-name="E" unicode="E" horiz-adv-x="456" 
d="M273.576 460.264c61.5967 38.9961 92.1855 139.636 32.126 194.875c-59.2568 54.498 -147.755 -15.8242 -187.644 -62.0234c-42.415 -49.1221 -67.9111 -112.217 -74.5361 -176.624c-6.36914 -61.9189 6.08203 -135.198 41.1465 -188.908
c23.6572 36.3018 53.1514 69.3555 87.5439 95.5508c38.8057 29.5566 97.5615 61.7988 147.196 40.8086c45.7295 -19.3408 56.6318 -71.5605 40.1631 -114.512c-17.167 -44.7637 -52.6035 -75.6982 -95.3213 -95.1123c-46.8281 -21.2812 -100.247 -21.0713 -148.182 -4.30762
c-6.01953 -15.5449 -10.8398 -31.4971 -14.2363 -47.6592c-14.7373 -70.1709 -3.14746 -157.78 54.8438 -206.231c66.0762 -55.208 154.248 -17.6016 205.87 37.3975c49.8096 53.0615 72.9854 122.421 107.976 184.806c6.58301 11.7334 34.2529 11.9512 25.4775 -4.20703
c-24.4717 -45.0625 -42.1396 -93.5674 -69.1885 -137.279c-26.6729 -43.0986 -61.6709 -81.3223 -105.623 -107.176c-44.084 -25.9316 -96.998 -40.3193 -147.871 -28.9707c-49.7393 11.0967 -88.3115 45.0859 -112.97 88.8477
c-44.0801 78.2324 -38.3975 171.462 -1.95898 250.805c-10.1807 7.46387 -19.7207 15.7969 -28.4033 24.9688c-64.8184 68.4824 -72.2041 175.483 -48.9082 263.093c22.7178 85.4395 76.3809 165.465 150.945 213.938c41.7168 27.1152 89.3408 47.7676 140.07 44.0762
c47.748 -3.47754 86.6201 -32.6807 101.346 -78.4375c25.4697 -79.1172 -14.7568 -166.894 -84.9971 -207.594c-15.6104 -9.04395 -31.3799 9.41992 -14.8652 19.876zM215.186 283.364c-35.5225 -26.8623 -64.5996 -62.5205 -85.1865 -102.386
c17.749 -10.9805 38.0605 -16.6748 61.3486 -15.5303c33.251 1.63379 61.332 15.4551 83.2422 40.1758c21.2773 24.0059 33.8955 62.1172 11.9189 90.1055c-20.3145 25.873 -51.6484 2.51562 -71.3232 -12.3652z" />
    <glyph glyph-name="E" unicode="&#xcb;" horiz-adv-x="456" 
d="M273.576 460.264c61.5967 38.9961 92.1855 139.636 32.126 194.875c-59.2568 54.498 -147.755 -15.8242 -187.644 -62.0234c-42.415 -49.1221 -67.9111 -112.217 -74.5361 -176.624c-6.36914 -61.9189 6.08203 -135.198 41.1465 -188.908
c23.6572 36.3018 53.1514 69.3555 87.5439 95.5508c38.8057 29.5566 97.5615 61.7988 147.196 40.8086c45.7295 -19.3408 56.6318 -71.5605 40.1631 -114.512c-17.167 -44.7637 -52.6035 -75.6982 -95.3213 -95.1123c-46.8281 -21.2812 -100.247 -21.0713 -148.182 -4.30762
c-6.01953 -15.5449 -10.8398 -31.4971 -14.2363 -47.6592c-14.7373 -70.1709 -3.14746 -157.78 54.8438 -206.231c66.0762 -55.208 154.248 -17.6016 205.87 37.3975c49.8096 53.0615 72.9854 122.421 107.976 184.806c6.58301 11.7334 34.2529 11.9512 25.4775 -4.20703
c-24.4717 -45.0625 -42.1396 -93.5674 -69.1885 -137.279c-26.6729 -43.0986 -61.6709 -81.3223 -105.623 -107.176c-44.084 -25.9316 -96.998 -40.3193 -147.871 -28.9707c-49.7393 11.0967 -88.3115 45.0859 -112.97 88.8477
c-44.0801 78.2324 -38.3975 171.462 -1.95898 250.805c-10.1807 7.46387 -19.7207 15.7969 -28.4033 24.9688c-64.8184 68.4824 -72.2041 175.483 -48.9082 263.093c22.7178 85.4395 76.3809 165.465 150.945 213.938c41.7168 27.1152 89.3408 47.7676 140.07 44.0762
c47.748 -3.47754 86.6201 -32.6807 101.346 -78.4375c25.4697 -79.1172 -14.7568 -166.894 -84.9971 -207.594c-15.6104 -9.04395 -31.3799 9.41992 -14.8652 19.876zM215.186 283.364c-35.5225 -26.8623 -64.5996 -62.5205 -85.1865 -102.386
c17.749 -10.9805 38.0605 -16.6748 61.3486 -15.5303c33.251 1.63379 61.332 15.4551 83.2422 40.1758c21.2773 24.0059 33.8955 62.1172 11.9189 90.1055c-20.3145 25.873 -51.6484 2.51562 -71.3232 -12.3652z" />
    <glyph glyph-name="E" unicode="&#xca;" horiz-adv-x="456" 
d="M273.576 460.264c61.5967 38.9961 92.1855 139.636 32.126 194.875c-59.2568 54.498 -147.755 -15.8242 -187.644 -62.0234c-42.415 -49.1221 -67.9111 -112.217 -74.5361 -176.624c-6.36914 -61.9189 6.08203 -135.198 41.1465 -188.908
c23.6572 36.3018 53.1514 69.3555 87.5439 95.5508c38.8057 29.5566 97.5615 61.7988 147.196 40.8086c45.7295 -19.3408 56.6318 -71.5605 40.1631 -114.512c-17.167 -44.7637 -52.6035 -75.6982 -95.3213 -95.1123c-46.8281 -21.2812 -100.247 -21.0713 -148.182 -4.30762
c-6.01953 -15.5449 -10.8398 -31.4971 -14.2363 -47.6592c-14.7373 -70.1709 -3.14746 -157.78 54.8438 -206.231c66.0762 -55.208 154.248 -17.6016 205.87 37.3975c49.8096 53.0615 72.9854 122.421 107.976 184.806c6.58301 11.7334 34.2529 11.9512 25.4775 -4.20703
c-24.4717 -45.0625 -42.1396 -93.5674 -69.1885 -137.279c-26.6729 -43.0986 -61.6709 -81.3223 -105.623 -107.176c-44.084 -25.9316 -96.998 -40.3193 -147.871 -28.9707c-49.7393 11.0967 -88.3115 45.0859 -112.97 88.8477
c-44.0801 78.2324 -38.3975 171.462 -1.95898 250.805c-10.1807 7.46387 -19.7207 15.7969 -28.4033 24.9688c-64.8184 68.4824 -72.2041 175.483 -48.9082 263.093c22.7178 85.4395 76.3809 165.465 150.945 213.938c41.7168 27.1152 89.3408 47.7676 140.07 44.0762
c47.748 -3.47754 86.6201 -32.6807 101.346 -78.4375c25.4697 -79.1172 -14.7568 -166.894 -84.9971 -207.594c-15.6104 -9.04395 -31.3799 9.41992 -14.8652 19.876zM215.186 283.364c-35.5225 -26.8623 -64.5996 -62.5205 -85.1865 -102.386
c17.749 -10.9805 38.0605 -16.6748 61.3486 -15.5303c33.251 1.63379 61.332 15.4551 83.2422 40.1758c21.2773 24.0059 33.8955 62.1172 11.9189 90.1055c-20.3145 25.873 -51.6484 2.51562 -71.3232 -12.3652z" />
    <glyph glyph-name="E" unicode="&#xc9;" horiz-adv-x="456" 
d="M273.576 460.264c61.5967 38.9961 92.1855 139.636 32.126 194.875c-59.2568 54.498 -147.755 -15.8242 -187.644 -62.0234c-42.415 -49.1221 -67.9111 -112.217 -74.5361 -176.624c-6.36914 -61.9189 6.08203 -135.198 41.1465 -188.908
c23.6572 36.3018 53.1514 69.3555 87.5439 95.5508c38.8057 29.5566 97.5615 61.7988 147.196 40.8086c45.7295 -19.3408 56.6318 -71.5605 40.1631 -114.512c-17.167 -44.7637 -52.6035 -75.6982 -95.3213 -95.1123c-46.8281 -21.2812 -100.247 -21.0713 -148.182 -4.30762
c-6.01953 -15.5449 -10.8398 -31.4971 -14.2363 -47.6592c-14.7373 -70.1709 -3.14746 -157.78 54.8438 -206.231c66.0762 -55.208 154.248 -17.6016 205.87 37.3975c49.8096 53.0615 72.9854 122.421 107.976 184.806c6.58301 11.7334 34.2529 11.9512 25.4775 -4.20703
c-24.4717 -45.0625 -42.1396 -93.5674 -69.1885 -137.279c-26.6729 -43.0986 -61.6709 -81.3223 -105.623 -107.176c-44.084 -25.9316 -96.998 -40.3193 -147.871 -28.9707c-49.7393 11.0967 -88.3115 45.0859 -112.97 88.8477
c-44.0801 78.2324 -38.3975 171.462 -1.95898 250.805c-10.1807 7.46387 -19.7207 15.7969 -28.4033 24.9688c-64.8184 68.4824 -72.2041 175.483 -48.9082 263.093c22.7178 85.4395 76.3809 165.465 150.945 213.938c41.7168 27.1152 89.3408 47.7676 140.07 44.0762
c47.748 -3.47754 86.6201 -32.6807 101.346 -78.4375c25.4697 -79.1172 -14.7568 -166.894 -84.9971 -207.594c-15.6104 -9.04395 -31.3799 9.41992 -14.8652 19.876zM215.186 283.364c-35.5225 -26.8623 -64.5996 -62.5205 -85.1865 -102.386
c17.749 -10.9805 38.0605 -16.6748 61.3486 -15.5303c33.251 1.63379 61.332 15.4551 83.2422 40.1758c21.2773 24.0059 33.8955 62.1172 11.9189 90.1055c-20.3145 25.873 -51.6484 2.51562 -71.3232 -12.3652z" />
    <glyph glyph-name="F" unicode="F" horiz-adv-x="384" 
d="M-43.2734 665.407c3.19824 13.8252 33.7305 19.3213 29.8262 1.80469c-3.2334 -14.4736 73.2988 -14.4111 82.1641 -13.957c28.4658 1.45898 56.5049 6.74512 84.0703 13.832c2.3252 0.597656 4.62695 1.27734 6.94434 1.89844
c6.60645 9.24512 17.0312 15.8936 28.5166 18.9248c7.85547 2.07617 19.3096 1.99805 28.0693 -1.74707c31.1709 10.2969 62.125 21.3008 93.6338 30.5186c48.4316 14.167 104.194 28.1631 154.893 19.5586c40.1797 -6.81934 76.3418 -36.6826 69.8525 -80.5693
c-2.32129 -15.6924 -36.1396 -21.8252 -33.1357 -2.00293c4.22266 27.8838 -20.292 48.6455 -45.0586 54.6113c-24.4482 5.8877 -51.4395 2.72852 -75.9893 -1.03613c-51.9785 -7.97266 -101.8 -26.083 -151.562 -42.5977
c0.442383 -89.0879 -1.52148 -178.153 -1.60254 -267.234c20.1484 6.87012 40.6455 11.7725 61.9814 11.124c21.3896 -0.648438 10.3242 -25.8574 -6.05859 -25.3145c-19.3408 0.640625 -37.7969 -2.98828 -55.8564 -8.47266
c0.0742188 -23.7734 0.260742 -47.5508 0.738281 -71.3281c1.21484 -60.3389 2.9541 -120.663 6.77344 -180.901c1.9209 -30.3096 4.02051 -60.5996 6.15137 -90.8936c1.03613 -14.7178 1.94434 -29.4434 2.99219 -44.1611
c0.59375 -8.29785 -1.0166 -25.2627 1.62305 -34.0264c5.01855 -7.44824 2.29395 -19.5117 -7.27344 -26.9873c-9.83496 -7.68457 -23.8545 -11.6201 -35.6035 -5.70508c-12.1133 6.10156 -15.1758 21.0371 -18.7539 32.9062
c-9.06641 30.084 -14.248 60.5879 -18.0869 91.7236c-8.12793 65.9287 -12.3623 132.381 -15.0791 198.74c-1.38574 33.8604 -2.34082 67.7754 -2.89941 101.714c-25.8691 -8.2832 -52.3984 -13.0615 -81.0391 -7.12305c-19.3252 4.00586 -1.02051 27.2471 13.2783 24.3281
c23.2764 -4.75098 45.5703 -1.58008 67.5156 4.84375c-1.05176 91.3438 0.648438 182.812 4.47949 273.914c-29.4131 -7.30469 -59.2959 -12.5635 -89.5898 -13.918c-23.6455 -1.05957 -115.707 -4.80859 -105.914 37.5332z" />
    <glyph glyph-name="G" unicode="G" horiz-adv-x="507" 
d="M169.588 474.282c37.8662 -39.2051 100.548 -20.3965 127.349 22.1084c23.335 37.001 22.4932 123.275 -34.6748 129.847c-39.5977 4.55273 -79.5371 -27.7754 -105.045 -54.1104c-30.5615 -31.5518 -54.5059 -67.5586 -72.7363 -107.509
c-36.0811 -79.0781 -50.6748 -172.339 -35.79 -258.206c6.79199 -39.1973 22.0029 -88.5684 51.7842 -116.743c40.1953 -38.0215 87.8779 6.78516 113.173 39.749c55.418 72.2275 82.8594 161.452 130.328 238.539c1.87109 3.03125 5.18555 5.27441 8.90039 6.66016
c11.0615 8.27148 28.6055 10.8916 31.4385 -4.62207c10.2354 -56.0586 12.3271 -113.417 20.125 -169.887c4.30078 -31.1357 9.8584 -62.2871 14.0391 -93.5586c39.7412 9.67188 80.2275 16.5957 120.803 21.8896c19.6592 2.56543 8.92383 -21.4756 -5.60449 -23.416
c-37.583 -5.02637 -75.3984 -11.4541 -112.531 -20.4746c1.79688 -16.6553 3.04297 -33.3486 3.31055 -50.1045c1.4248 -88.8398 -28.2051 -180.218 -110.947 -224.651c-67.7725 -36.3955 -180.785 -18.1729 -186.044 74.5449
c-4.89844 86.3516 87.1514 141.707 154.229 174.221c20.5205 9.94824 41.5186 18.5918 62.8779 26.1602c-1.06348 9.04395 -2.21191 18.0176 -3.36426 26.8906c-7.70801 59.3301 -14.4463 120.03 -9.49023 179.752c-16.9766 -35.1572 -32.8936 -70.8613 -51.4502 -105.246
c-27.8838 -51.6562 -66.3242 -114.355 -121.536 -140.019c-56.2363 -26.1406 -113.548 -3.44238 -146.566 46.5801c-32.6689 49.4873 -43.374 112.074 -42.0586 170.48c2.62012 116.028 42.6797 235.779 121.254 322.608c39.5781 43.7354 93.3076 80.6279 153.422 86.2559
c61.6318 5.76758 99.0869 -42.1631 102.615 -100.111c3.2334 -53.0928 -25.2832 -103.007 -71.4482 -128.923c-41.3125 -23.1914 -98.3916 -25.0273 -132.912 11.2324c-12.0635 12.6729 15.9404 31.0508 26.5518 20.0625zM323.928 -109.724
c28.0664 52.9258 28.6631 113.293 23.0586 171.998c-20.9824 -7.67383 -41.5225 -16.4961 -61.418 -26.7588c-52.7471 -27.208 -154.698 -90.9902 -111.802 -163.703c17.3809 -29.459 50.9932 -45.6289 84.7061 -38.1064c30.6396 6.83887 51.2881 29.8594 65.4551 56.5703z
" />
    <glyph glyph-name="H" unicode="H" horiz-adv-x="657" 
d="M273.377 568.164c28.8232 -101.633 25.9307 -208.728 25.8145 -313.326c-0.03125 -26.5332 0.232422 -53.0273 0.694336 -79.502c25.6016 7.57617 51.1914 15.2031 76.96 22.0342c31.4346 8.33301 72.2158 18.8398 114.487 24.6855
c-0.550781 9.35059 -1.0791 18.7012 -1.56836 28.0518c-6.67578 127.211 -8.50391 256.071 1.41309 383.146c1.41309 18.1025 14.7529 31.1436 32.2539 35.7666c12.5791 3.31836 37.0508 0.489258 36.6973 -17.3877c-2.41797 -122.592 -5.46875 -244.827 -0.53125 -367.419
c0.780273 -19.3135 1.68457 -38.6191 2.65918 -57.9209c57.7393 -2.10352 109.857 -20.6562 135.168 -74.1338c6.19434 -13.0918 -21.1074 -26.3037 -27.2559 -13.2939c-20.3301 43.0322 -62.5127 58.1348 -106.551 61.5654
c1.86328 -33.3682 4.04492 -66.7207 6.72266 -100.05c2.46094 -30.6514 4.96094 -61.2988 7.49121 -91.9424c1.27344 -15.3857 2.37988 -30.8447 3.11719 -46.2656c0.5625 -11.7988 -1.29688 -26.377 1.99023 -37.8848
c5.03809 -17.6211 -18.5684 -32.7314 -34.1943 -25.6592c-26.3818 11.9395 -27.1309 44.8574 -31.6104 70.0938c-5.3291 30.0381 -8.72949 60.4639 -12.2031 90.7695c-5.28223 46.0635 -9.12891 92.376 -12.125 138.696
c-64.6709 -7.36328 -127.409 -26.0674 -189.705 -44.248c-0.916016 -0.263672 -1.83984 -0.542969 -2.75586 -0.810547c1.73145 -78.8691 5.24414 -157.579 9.25391 -236.529c1.68066 -33.0537 -65.5986 -57.1025 -70.5049 -18.7939
c-9.88184 77.1729 -13.8643 155.366 -14.2217 233.385c-35.9336 -9.57129 -72.4492 -16.9727 -109.097 -17.3262c-47.5889 -0.458008 -116.044 13.9453 -125.58 69.8291c-2.2627 13.2666 25.6748 22.6826 28.2715 7.53809
c5.33301 -31.1123 38.7432 -45.5781 66.3896 -51.0625c33.1309 -6.57129 67.4844 -2.30566 100.185 4.60352c13.3555 2.82129 26.6143 6.05078 39.8301 9.45508c0.0966797 22.1816 0.454102 44.3398 1.05566 66.4482c2.48438 91.417 9.96777 182.508 3.71875 273.964
c-2.7832 40.7109 -5.07715 87.8262 -23.9053 124.804c-10.8945 21.3936 -28.2832 38.4951 -53.5977 39.1592c-20.4238 0.535156 -40.6494 -8.27148 -57.1562 -19.6943c-64.3721 -44.5459 -107.502 -143.555 -91.7363 -220.49
c14.0586 -68.6143 80.2275 -123.089 150.165 -123.59c20.5713 -0.147461 9.82031 -24.1885 -5.80566 -24.2627c-87.2871 -0.415039 -167.938 64.3369 -178.332 152.699c-10.0645 85.5254 40.4277 188.761 112.197 235.997c35.1768 23.1562 81.291 35.8867 120.454 15.0908
c41.3555 -21.9609 59.2402 -63.1416 71.4473 -106.189z" />
    <glyph glyph-name="I" unicode="I" horiz-adv-x="330" 
d="M320.578 622.127c-21.4873 27.2861 -61.4043 26.4268 -92.874 24.8008c-23.2686 -1.20312 -46.1953 -4.84766 -69.0098 -9.21387c0.418945 -1.44043 0.741211 -2.9541 0.830078 -4.63086c4.12207 -77.8906 -0.745117 -156.546 -1.04395 -234.525
c-0.287109 -74.7969 1.46289 -149.858 9.2373 -224.299c3.55176 -34.0156 9.0127 -68.4814 19.3525 -101.146c8.75195 -27.6465 19.4141 -59.1748 41.0986 -79.6299c60.2422 -56.8193 102.751 93.8818 108.973 129.613c2.48438 14.2793 33.3643 19.9346 30.333 1.83594
c-10.0176 -59.7725 -36.0771 -136.867 -93.1367 -167.728c-55.3438 -29.9326 -105.242 5.27148 -134.162 52.6006c-32.4521 53.1084 -44.4648 116.657 -50.5547 177.823c-6.92773 69.5654 -8.18555 139.752 -8.28613 209.612
c-0.108398 71.8555 -0.283203 144.355 4.05566 216.087c0.232422 3.87402 1.03613 7.53027 2.28613 10.9502c-22.9932 -3.32617 -46.3164 -5.0918 -69.3564 -4.20312c-18.7041 0.72168 -65.6104 -0.143555 -62.1367 27.8604c1.28906 10.4023 20.0361 18.0566 27.6748 10.457
c10.293 -10.2432 38.5293 -9.94434 51.877 -10.2197c17.0547 -0.349609 34.3115 1.24902 51.1367 3.96973c34.4199 5.56934 68.1797 14.6514 102.514 20.6787c33.8799 5.9502 68.0586 9.43164 102.117 2.77148c24.7393 -4.83594 47.2979 -11.0732 60.0986 -34.4619
c7.63086 -13.9453 -21.8438 -30.6582 -31.0234 -19.0029z" />
    <glyph glyph-name="I" unicode="&#xcf;" horiz-adv-x="330" 
d="M320.578 622.127c-21.4873 27.2861 -61.4043 26.4268 -92.874 24.8008c-23.2686 -1.20312 -46.1953 -4.84766 -69.0098 -9.21387c0.418945 -1.44043 0.741211 -2.9541 0.830078 -4.63086c4.12207 -77.8906 -0.745117 -156.546 -1.04395 -234.525
c-0.287109 -74.7969 1.46289 -149.858 9.2373 -224.299c3.55176 -34.0156 9.0127 -68.4814 19.3525 -101.146c8.75195 -27.6465 19.4141 -59.1748 41.0986 -79.6299c60.2422 -56.8193 102.751 93.8818 108.973 129.613c2.48438 14.2793 33.3643 19.9346 30.333 1.83594
c-10.0176 -59.7725 -36.0771 -136.867 -93.1367 -167.728c-55.3438 -29.9326 -105.242 5.27148 -134.162 52.6006c-32.4521 53.1084 -44.4648 116.657 -50.5547 177.823c-6.92773 69.5654 -8.18555 139.752 -8.28613 209.612
c-0.108398 71.8555 -0.283203 144.355 4.05566 216.087c0.232422 3.87402 1.03613 7.53027 2.28613 10.9502c-22.9932 -3.32617 -46.3164 -5.0918 -69.3564 -4.20312c-18.7041 0.72168 -65.6104 -0.143555 -62.1367 27.8604c1.28906 10.4023 20.0361 18.0566 27.6748 10.457
c10.293 -10.2432 38.5293 -9.94434 51.877 -10.2197c17.0547 -0.349609 34.3115 1.24902 51.1367 3.96973c34.4199 5.56934 68.1797 14.6514 102.514 20.6787c33.8799 5.9502 68.0586 9.43164 102.117 2.77148c24.7393 -4.83594 47.2979 -11.0732 60.0986 -34.4619
c7.63086 -13.9453 -21.8438 -30.6582 -31.0234 -19.0029z" />
    <glyph glyph-name="I" unicode="&#xce;" horiz-adv-x="330" 
d="M320.578 622.127c-21.4873 27.2861 -61.4043 26.4268 -92.874 24.8008c-23.2686 -1.20312 -46.1953 -4.84766 -69.0098 -9.21387c0.418945 -1.44043 0.741211 -2.9541 0.830078 -4.63086c4.12207 -77.8906 -0.745117 -156.546 -1.04395 -234.525
c-0.287109 -74.7969 1.46289 -149.858 9.2373 -224.299c3.55176 -34.0156 9.0127 -68.4814 19.3525 -101.146c8.75195 -27.6465 19.4141 -59.1748 41.0986 -79.6299c60.2422 -56.8193 102.751 93.8818 108.973 129.613c2.48438 14.2793 33.3643 19.9346 30.333 1.83594
c-10.0176 -59.7725 -36.0771 -136.867 -93.1367 -167.728c-55.3438 -29.9326 -105.242 5.27148 -134.162 52.6006c-32.4521 53.1084 -44.4648 116.657 -50.5547 177.823c-6.92773 69.5654 -8.18555 139.752 -8.28613 209.612
c-0.108398 71.8555 -0.283203 144.355 4.05566 216.087c0.232422 3.87402 1.03613 7.53027 2.28613 10.9502c-22.9932 -3.32617 -46.3164 -5.0918 -69.3564 -4.20312c-18.7041 0.72168 -65.6104 -0.143555 -62.1367 27.8604c1.28906 10.4023 20.0361 18.0566 27.6748 10.457
c10.293 -10.2432 38.5293 -9.94434 51.877 -10.2197c17.0547 -0.349609 34.3115 1.24902 51.1367 3.96973c34.4199 5.56934 68.1797 14.6514 102.514 20.6787c33.8799 5.9502 68.0586 9.43164 102.117 2.77148c24.7393 -4.83594 47.2979 -11.0732 60.0986 -34.4619
c7.63086 -13.9453 -21.8438 -30.6582 -31.0234 -19.0029z" />
    <glyph glyph-name="I" unicode="&#xcd;" horiz-adv-x="330" 
d="M320.578 622.127c-21.4873 27.2861 -61.4043 26.4268 -92.874 24.8008c-23.2686 -1.20312 -46.1953 -4.84766 -69.0098 -9.21387c0.418945 -1.44043 0.741211 -2.9541 0.830078 -4.63086c4.12207 -77.8906 -0.745117 -156.546 -1.04395 -234.525
c-0.287109 -74.7969 1.46289 -149.858 9.2373 -224.299c3.55176 -34.0156 9.0127 -68.4814 19.3525 -101.146c8.75195 -27.6465 19.4141 -59.1748 41.0986 -79.6299c60.2422 -56.8193 102.751 93.8818 108.973 129.613c2.48438 14.2793 33.3643 19.9346 30.333 1.83594
c-10.0176 -59.7725 -36.0771 -136.867 -93.1367 -167.728c-55.3438 -29.9326 -105.242 5.27148 -134.162 52.6006c-32.4521 53.1084 -44.4648 116.657 -50.5547 177.823c-6.92773 69.5654 -8.18555 139.752 -8.28613 209.612
c-0.108398 71.8555 -0.283203 144.355 4.05566 216.087c0.232422 3.87402 1.03613 7.53027 2.28613 10.9502c-22.9932 -3.32617 -46.3164 -5.0918 -69.3564 -4.20312c-18.7041 0.72168 -65.6104 -0.143555 -62.1367 27.8604c1.28906 10.4023 20.0361 18.0566 27.6748 10.457
c10.293 -10.2432 38.5293 -9.94434 51.877 -10.2197c17.0547 -0.349609 34.3115 1.24902 51.1367 3.96973c34.4199 5.56934 68.1797 14.6514 102.514 20.6787c33.8799 5.9502 68.0586 9.43164 102.117 2.77148c24.7393 -4.83594 47.2979 -11.0732 60.0986 -34.4619
c7.63086 -13.9453 -21.8438 -30.6582 -31.0234 -19.0029z" />
    <glyph glyph-name="J" unicode="J" horiz-adv-x="457" 
d="M463.523 713.894c6.12109 10.7588 39.6299 17.7168 32.9736 -1.55762c-18.9521 -54.9287 -90.3223 -56.7998 -138.905 -61.8262c-18.8672 -1.95215 -37.7734 -3.40332 -56.6953 -4.73438c19.248 -135.024 29.751 -273.387 32.165 -409.937
c68.4785 -8.21289 133.755 -46.9717 162.726 -111.522c6.10938 -13.6123 -20.0234 -25.8584 -27.7432 -13.5312c-31.6992 50.6045 -80.4531 85.9287 -134.594 96.8818c0.625 -64.2168 0.225586 -130.482 -11.6514 -193.791
c-9.90527 -52.7939 -30.5693 -108.825 -75.3906 -141.809c-38.5537 -28.373 -88.0605 -28.9785 -125.166 2.57324c-38.6035 32.8242 -50.0225 90.1094 -47.1855 138.443c6.05469 103.201 77.5449 192.289 178.258 217.863
c1.72754 0.438477 3.47461 0.807617 5.21387 1.20312c-1.69238 25.4268 -3.58301 50.7676 -5.35254 75.9307c-7.68164 109.112 -19.2676 217.867 -27.752 326.905c-0.139648 1.79297 -0.0390625 3.55078 0.186523 5.28223
c-18.5684 -1.55273 -37.1055 -3.37695 -55.5811 -5.87305c-55.0137 -7.43652 -113.758 -21.2656 -150.506 -66.2969c-15.9482 -19.5469 -23.0977 -45.8896 -21.2148 -70.9746c0.857422 -11.3721 4.34668 -22.4648 9.79199 -32.4746
c5.70215 -10.4756 21.5264 -32.25 36.1045 -28.4814c19.4844 5.03418 17.8193 -17.5166 1.85547 -22.1934c-52.2119 -15.2959 -85.2891 55.1191 -82.9443 97.2314c3.09766 55.6855 50.2598 101.648 97.4883 124.634c61.2549 29.8125 133.23 34.4932 200.095 39.3447
c35.2119 2.55371 70.4893 4.28906 105.639 7.65039c30.0645 2.87207 81.1113 1.04785 98.1855 31.0586zM256.805 -13.6758c8.58203 72.7637 6.73926 146.983 2.32227 220.675c-14.2363 -3.15137 -28.4844 -8.0498 -42.5615 -14.9395
c-83.4062 -40.8164 -124.905 -138.913 -105.983 -228.413c8.75977 -41.4375 42.8809 -96.7236 93.2998 -86.291c41.6006 8.60449 48.9287 75.1191 52.9229 108.969z" />
    <glyph glyph-name="K" unicode="K" horiz-adv-x="690" 
d="M197.93 674.354c41.3555 -21.9609 59.2402 -63.1406 71.4551 -106.196c18.2461 -64.3408 23.7695 -130.875 25.3457 -197.576c34.8115 33.0186 65.2607 70.5049 90.1016 111.636c30.2705 50.124 62.7998 113.863 63.498 173.559
c0.170898 14.6172 30.7598 24.251 30.6045 8.15918c-0.617188 -64.2715 -33.6006 -132.199 -66.1611 -186.328c-27.79 -46.1953 -61.9844 -87.8457 -101.232 -124.544c4.05957 -3.63281 9.90527 -5.16211 14.4033 -8.43066c4.25 -3.08594 8.12793 -7.01758 11.8154 -10.7666
c8.72949 -8.88477 16.1621 -18.8828 23.0283 -29.2422c15.0127 -22.6553 25.8691 -47.8262 37.2031 -72.4414c22.1465 -48.1016 41.3242 -98.248 67.1426 -144.549c25.2129 -45.2178 70.042 -86.4492 125.654 -71.4248c47.2939 12.7773 83.1924 50.1582 113.828 86.2705
c10.8057 12.7344 38.3242 6.27148 24.4678 -11.1709c-32.9023 -41.4219 -73.7842 -79.1875 -124.237 -97.4844c-54.0127 -19.585 -114.856 -8.71289 -162.376 22.998c-49.9375 33.3252 -69.5029 93.7656 -92.0186 146.493
c-12.7266 29.8008 -25.6396 59.6367 -36.6592 90.1133c-5.09277 14.0811 -9.23438 28.4609 -14.001 42.6553c-1.42871 4.26172 -2.90723 8.52344 -4.47559 12.7461c-0.0078125 -18.04 -0.104492 -36.0537 -0.124023 -53.9893
c-0.124023 -113.024 4.67676 -225.386 10.4092 -338.231c1.68066 -33.0537 -65.5986 -57.1025 -70.5049 -18.7939c-13.666 106.722 -16.0879 215.399 -13.1689 322.862c2.48438 91.417 9.96777 182.508 3.71875 273.964c-2.7832 40.7109 -5.07715 87.8262 -23.9053 124.804
c-10.8945 21.3936 -28.2832 38.4951 -53.5977 39.1592c-20.4238 0.535156 -40.6494 -8.27148 -57.1562 -19.6943c-64.3721 -44.5459 -107.502 -143.555 -91.7363 -220.49c14.0586 -68.6143 80.2275 -123.089 150.165 -123.59
c20.5713 -0.147461 9.82031 -24.1885 -5.80566 -24.2627c-87.2871 -0.415039 -167.938 64.3369 -178.332 152.699c-10.0645 85.5254 40.4277 188.761 112.197 235.997c35.1768 23.1562 81.291 35.8867 120.454 15.0908z" />
    <glyph glyph-name="L" unicode="L" horiz-adv-x="500" 
d="M269.377 568.164c28.8232 -101.633 25.9277 -208.725 25.8154 -313.323c-0.0810547 -74.8281 2.01465 -149.369 5.09277 -223.949c25.9121 10.8945 52.7051 19.7793 79.416 28.6523c25.2988 8.40332 50.6094 16.8457 75.0312 27.6006
c22.2559 9.80469 47.3682 20.5947 62.8232 40.0635c9.38867 11.8262 34.082 5.66992 21.9062 -9.99902c-23.5674 -30.333 -65.043 -46.8945 -99.7227 -60.5527c-39.4072 -15.5215 -80.2158 -27.2275 -119.483 -43.0908
c-6.31543 -2.55371 -12.627 -5.21973 -18.8994 -8.01465c1.30371 -29.6299 2.74023 -59.2676 4.24609 -88.9443c1.68066 -33.0537 -65.5986 -57.1025 -70.5049 -18.7939c-2.69727 21.0605 -4.94043 42.1982 -6.80762 63.3867
c-3.12402 -2.70117 -6.18652 -5.47656 -9.14453 -8.37988c-13.9766 -13.7168 -26.54 -29.8203 -34.21 -47.9541c-8.23633 -19.4766 -8.61719 -50.9033 18.498 -54.5479c20.4736 -2.75195 0.605469 -26.4707 -13.7324 -25.1592
c-49.4209 4.51758 -46.9209 61.084 -28.8457 94.0518c15.7002 28.6406 38.8877 51.874 65.1445 70.8574c-5.49219 76.7227 -6.15234 153.973 -4.07227 230.609c2.48438 91.417 9.96777 182.508 3.71875 273.964c-2.7832 40.7109 -5.07715 87.8262 -23.9053 124.804
c-10.8945 21.3936 -28.2832 38.4951 -53.5977 39.1592c-20.4238 0.535156 -40.6494 -8.27148 -57.1562 -19.6943c-64.3721 -44.5459 -107.502 -143.555 -91.7363 -220.49c14.0586 -68.6143 80.2275 -123.089 150.165 -123.59
c20.5713 -0.147461 9.82031 -24.1885 -5.80566 -24.2627c-87.2871 -0.415039 -167.938 64.3369 -178.332 152.699c-10.0645 85.5254 40.4277 188.761 112.197 235.997c35.1768 23.1562 81.291 35.8867 120.454 15.0908c41.3555 -21.9609 59.2402 -63.1416 71.4473 -106.189z
" />
    <glyph glyph-name="M" unicode="M" horiz-adv-x="907" 
d="M-34.7227 423.263c-10.0605 85.5293 40.4287 188.769 112.21 236.012c35.1768 23.1562 81.291 35.8867 120.454 15.0908c41.3555 -21.9609 59.2363 -63.1416 71.4473 -106.189c28.8193 -101.633 25.9238 -208.73 25.8076 -313.333
c-0.0390625 -34.4473 0.422852 -68.8281 1.1875 -103.182c7.02148 32.7783 14.9863 65.3896 24.7793 97.457c9.35449 30.624 18.9219 63.623 36.3418 90.7383c12.502 19.4609 36.6709 42.1279 61.6709 29.8281c24.7588 -12.1836 38.4443 -48.8193 46.2578 -73.1045
c4.0791 -12.6807 7.56836 -25.4932 10.5605 -38.3984c7.89453 76.1328 19.4766 151.912 35.293 226.667c10.8682 51.3535 22.6982 105.067 44.9502 152.878c14.1553 30.4141 51.3809 82.9209 88.3506 48.0078c35.1143 -33.166 46.9561 -92.543 56.7988 -137.562
c12.0439 -55.0879 18.9336 -110.952 24.3477 -167.021c10.8682 -112.574 15.0059 -227.399 44.3213 -337.241c6.60254 -24.7432 15.7041 -49.0752 25.4619 -72.7246c9.53613 -23.1094 28.6709 -30.9727 49.502 -14.834c39.5156 30.6123 63.9404 78.8652 74.0781 126.959
c2.91504 13.8291 33.0576 19.6162 29.8242 1.80469c-9.19922 -50.7021 -33.3486 -97.791 -69.3672 -134.737c-34.5596 -35.4482 -91.1885 -63.8018 -132.691 -22.2051c-36.834 36.915 -47.6318 92.542 -57.9248 141.765c-11.5703 55.3359 -17.7227 111.487 -22.2285 167.79
c-9.02051 112.66 -8.28711 226.997 -25.1514 338.889c-3.9668 26.3232 -5.66309 59.7568 -18.8594 83.2354c-8.96191 15.9443 -17.5479 8.87598 -26.0947 -4.02148c-7.70801 -11.6367 -13.6777 -24.5186 -18.7041 -37.5059
c-19.8799 -51.3887 -31.7881 -106.601 -42.2441 -160.559c-22.1855 -114.473 -35.3584 -230.785 -42.1426 -347.155c0.345703 -8.30957 0.640625 -16.6191 0.888672 -24.9209c0.880859 -29.4209 -60.46 -48.9785 -61.4385 -16.375
c-1.78516 59.4268 -2.41406 118.8 -8.4375 178.002c-2.65918 26.1016 -3.55176 60.4238 -15.46 84.1895c-1.44434 3.90039 -3.75 7.28125 -6.9248 10.1494c-2.10352 3.89258 -4.59961 4.14844 -7.4834 0.763672c-7.41309 -2.16602 -11.2402 -12.9053 -14.5312 -19.2051
c-6.95117 -13.3018 -12.0781 -27.5039 -17.0459 -41.6357c-32.0059 -91.041 -49.9688 -187.411 -61.3955 -283.563c1.21484 -27.1191 2.53809 -54.25 3.91602 -81.4082c1.68066 -33.0537 -65.5986 -57.1025 -70.5049 -18.7939
c-13.666 106.722 -16.0879 215.399 -13.1689 322.862c2.48438 91.417 9.96777 182.508 3.71875 273.964c-2.7832 40.7109 -5.07715 87.8262 -23.9053 124.804c-10.8945 21.3936 -28.2832 38.4951 -53.5977 39.1592c-20.4238 0.535156 -40.6494 -8.27148 -57.1572 -19.6943
c-64.3721 -44.5459 -107.502 -143.555 -91.7363 -220.49c14.0625 -68.6143 80.2275 -123.089 150.165 -123.59c20.5713 -0.147461 9.82031 -24.1885 -5.80566 -24.2627c-87.2871 -0.415039 -167.938 64.3369 -178.332 152.699z" />
    <glyph glyph-name="N" unicode="N" horiz-adv-x="740" 
d="M-34.7227 423.263c-10.0605 85.5293 40.4316 188.771 112.217 236.014c35.1768 23.1562 81.291 35.8867 120.454 15.0908c41.3555 -21.9609 59.2363 -63.1416 71.4473 -106.189c28.8193 -101.633 25.9238 -208.73 25.8076 -313.333
c-0.0664062 -56.9277 1.125 -113.681 3.0498 -170.414c15.1523 91.6035 30.9492 183.11 48.291 274.299c10.9727 57.6885 22.5898 115.509 38.2822 172.126c6.99805 25.248 15.207 50.3213 26.3467 74.0752c8.62402 18.3818 19.2822 40.9824 41.6309 44.4873
c47.3291 7.4209 63.7393 -68.9639 72.4336 -101.102c15.502 -57.2881 24.1924 -116.16 31.2832 -175.009c14.1045 -117.026 25.0654 -234.293 45.6055 -350.458c5.49609 -31.0898 27.5889 -118.925 75.877 -87.1172c43.7891 28.8457 63.5566 94.5176 72.6348 142.844
c2.7832 14.8271 34.998 20.7109 31.6055 1.91016c-10.0605 -55.7627 -32.4209 -117.845 -74.6729 -157.543c-39.2324 -36.8613 -92.3447 -38.4297 -132.214 -1.45215c-39.2988 36.4492 -50.7373 92.6895 -59.917 143.174c-10.6465 58.5615 -16.2354 118.194 -22.042 177.385
c-5.8457 59.5898 -10.0449 119.343 -15.6143 178.96c-5.46484 58.5107 -8.55469 118.271 -19.2979 176.088c-1.1377 6.14062 -1.93359 21.4834 -7.52246 25.3799c3.20996 5.06934 2.25098 3.63281 -2.88379 -4.3125l-3.19043 -5.84473
c-6.99414 -12.793 -12.6221 -26.4434 -17.5361 -40.1484c-8.62012 -24.0293 -15.0977 -48.7842 -21.207 -73.5508c-14.2559 -57.7852 -25.7334 -116.211 -36.5469 -174.722c-22.873 -123.765 -44.6709 -247.73 -65.3818 -371.871
c-0.0625 -0.369141 -0.217773 -0.710938 -0.318359 -1.06836c0.558594 -11.4502 1.12109 -22.8965 1.70312 -34.3545c1.68066 -33.0537 -65.5986 -57.1025 -70.5049 -18.7939c-13.666 106.722 -16.0879 215.399 -13.1689 322.862
c2.48438 91.417 9.96777 182.508 3.71875 273.964c-2.7832 40.7109 -5.07715 87.8262 -23.9053 124.804c-10.8945 21.3936 -28.2832 38.4951 -53.5977 39.1592c-20.4238 0.535156 -40.6494 -8.27148 -57.1572 -19.6943
c-64.3721 -44.5459 -107.502 -143.555 -91.7363 -220.49c14.0625 -68.6143 80.2275 -123.089 150.165 -123.59c20.5713 -0.147461 9.82031 -24.1885 -5.80566 -24.2627c-87.2871 -0.415039 -167.938 64.3369 -178.332 152.699z" />
    <glyph glyph-name="O" unicode="O" horiz-adv-x="447" 
d="M385.832 439.013c10.293 -94.875 7.92188 -193.806 -15.2539 -286.694c-2.40234 -9.62598 -5.02637 -19.3994 -7.90625 -29.2041c36.3994 -2.11523 72.8223 2.38281 107.063 16.5889c17.0352 7.06445 26.583 -11.7598 9.35352 -19.1768
c-39.9854 -17.21 -82.0283 -23.3545 -124.06 -21.5459c-22.1855 -64.873 -57.8398 -127.378 -122.1 -156.068c-82.5254 -36.8496 -166.164 8.94629 -194.3 91.6455c-25.7178 75.5811 -24.4404 162.398 -9.4082 241.714c-8.83008 13.3281 -16.8027 27.3516 -23.6885 42.1709
c-32.9951 71.0127 -41.6777 151.846 -28.9043 228.797c12.7305 76.6992 48.4004 160.307 124.184 193.255c72.166 31.373 154.524 0.400391 202.521 -58.4912c54.5371 -66.9141 73.4082 -159.208 82.498 -242.99zM272.004 22.8369
c17.7803 24.041 31.5869 51.3926 42.5166 80.2539c-38.4141 6.08594 -76.2529 18.0596 -111.907 33.5654c-40.3662 17.5518 -78.0459 40.5059 -110.754 68.8438c-0.341797 -8.16211 -0.563477 -16.3359 -0.52832 -24.5293
c0.182617 -42.1436 3.10156 -87.0352 17.7344 -126.92c11.6553 -31.7725 34.8271 -66.8594 69.5654 -76.2178c38.0098 -10.2393 72.0684 16.2002 93.373 45.0039zM240.484 152.039c26.3115 -10.46 54.207 -18.9951 82.6182 -24.1299
c12.7109 40.0938 20.7061 82.0234 26.5703 121.35c12.4785 83.666 11.0156 167.984 -4.78516 251.111c-13.3906 70.4424 -37.8857 146.703 -96.1523 193.034c-27.9111 22.1934 -63.8682 37.377 -99.9844 35.7969c-37.7617 -1.65332 -69.8252 -23.4395 -92.4883 -52.6465
c-43.083 -55.5264 -55.7129 -136.301 -52.5068 -204.818c2.40234 -51.2725 14.4541 -102.351 37.1914 -148.321c7.45605 13.8018 24.1846 22.9307 39.2598 23.75c15.5947 0.845703 32.6885 -9.37012 28.2949 -27.0693c-6.07031 -24.4561 -10.5723 -49.1875 -13.46 -74.1094
c40.1914 -41.918 91.6738 -72.5693 145.442 -93.9473z" />
    <glyph glyph-name="O" unicode="&#xd6;" horiz-adv-x="447" 
d="M385.832 439.013c10.293 -94.875 7.92188 -193.806 -15.2539 -286.694c-2.40234 -9.62598 -5.02637 -19.3994 -7.90625 -29.2041c36.3994 -2.11523 72.8223 2.38281 107.063 16.5889c17.0352 7.06445 26.583 -11.7598 9.35352 -19.1768
c-39.9854 -17.21 -82.0283 -23.3545 -124.06 -21.5459c-22.1855 -64.873 -57.8398 -127.378 -122.1 -156.068c-82.5254 -36.8496 -166.164 8.94629 -194.3 91.6455c-25.7178 75.5811 -24.4404 162.398 -9.4082 241.714c-8.83008 13.3281 -16.8027 27.3516 -23.6885 42.1709
c-32.9951 71.0127 -41.6777 151.846 -28.9043 228.797c12.7305 76.6992 48.4004 160.307 124.184 193.255c72.166 31.373 154.524 0.400391 202.521 -58.4912c54.5371 -66.9141 73.4082 -159.208 82.498 -242.99zM272.004 22.8369
c17.7803 24.041 31.5869 51.3926 42.5166 80.2539c-38.4141 6.08594 -76.2529 18.0596 -111.907 33.5654c-40.3662 17.5518 -78.0459 40.5059 -110.754 68.8438c-0.341797 -8.16211 -0.563477 -16.3359 -0.52832 -24.5293
c0.182617 -42.1436 3.10156 -87.0352 17.7344 -126.92c11.6553 -31.7725 34.8271 -66.8594 69.5654 -76.2178c38.0098 -10.2393 72.0684 16.2002 93.373 45.0039zM240.484 152.039c26.3115 -10.46 54.207 -18.9951 82.6182 -24.1299
c12.7109 40.0938 20.7061 82.0234 26.5703 121.35c12.4785 83.666 11.0156 167.984 -4.78516 251.111c-13.3906 70.4424 -37.8857 146.703 -96.1523 193.034c-27.9111 22.1934 -63.8682 37.377 -99.9844 35.7969c-37.7617 -1.65332 -69.8252 -23.4395 -92.4883 -52.6465
c-43.083 -55.5264 -55.7129 -136.301 -52.5068 -204.818c2.40234 -51.2725 14.4541 -102.351 37.1914 -148.321c7.45605 13.8018 24.1846 22.9307 39.2598 23.75c15.5947 0.845703 32.6885 -9.37012 28.2949 -27.0693c-6.07031 -24.4561 -10.5723 -49.1875 -13.46 -74.1094
c40.1914 -41.918 91.6738 -72.5693 145.442 -93.9473z" />
    <glyph glyph-name="O" unicode="&#xd5;" horiz-adv-x="447" 
d="M385.832 439.013c10.293 -94.875 7.92188 -193.806 -15.2539 -286.694c-2.40234 -9.62598 -5.02637 -19.3994 -7.90625 -29.2041c36.3994 -2.11523 72.8223 2.38281 107.063 16.5889c17.0352 7.06445 26.583 -11.7598 9.35352 -19.1768
c-39.9854 -17.21 -82.0283 -23.3545 -124.06 -21.5459c-22.1855 -64.873 -57.8398 -127.378 -122.1 -156.068c-82.5254 -36.8496 -166.164 8.94629 -194.3 91.6455c-25.7178 75.5811 -24.4404 162.398 -9.4082 241.714c-8.83008 13.3281 -16.8027 27.3516 -23.6885 42.1709
c-32.9951 71.0127 -41.6777 151.846 -28.9043 228.797c12.7305 76.6992 48.4004 160.307 124.184 193.255c72.166 31.373 154.524 0.400391 202.521 -58.4912c54.5371 -66.9141 73.4082 -159.208 82.498 -242.99zM272.004 22.8369
c17.7803 24.041 31.5869 51.3926 42.5166 80.2539c-38.4141 6.08594 -76.2529 18.0596 -111.907 33.5654c-40.3662 17.5518 -78.0459 40.5059 -110.754 68.8438c-0.341797 -8.16211 -0.563477 -16.3359 -0.52832 -24.5293
c0.182617 -42.1436 3.10156 -87.0352 17.7344 -126.92c11.6553 -31.7725 34.8271 -66.8594 69.5654 -76.2178c38.0098 -10.2393 72.0684 16.2002 93.373 45.0039zM240.484 152.039c26.3115 -10.46 54.207 -18.9951 82.6182 -24.1299
c12.7109 40.0938 20.7061 82.0234 26.5703 121.35c12.4785 83.666 11.0156 167.984 -4.78516 251.111c-13.3906 70.4424 -37.8857 146.703 -96.1523 193.034c-27.9111 22.1934 -63.8682 37.377 -99.9844 35.7969c-37.7617 -1.65332 -69.8252 -23.4395 -92.4883 -52.6465
c-43.083 -55.5264 -55.7129 -136.301 -52.5068 -204.818c2.40234 -51.2725 14.4541 -102.351 37.1914 -148.321c7.45605 13.8018 24.1846 22.9307 39.2598 23.75c15.5947 0.845703 32.6885 -9.37012 28.2949 -27.0693c-6.07031 -24.4561 -10.5723 -49.1875 -13.46 -74.1094
c40.1914 -41.918 91.6738 -72.5693 145.442 -93.9473z" />
    <glyph glyph-name="O" unicode="&#xd4;" horiz-adv-x="447" 
d="M385.832 439.013c10.293 -94.875 7.92188 -193.806 -15.2539 -286.694c-2.40234 -9.62598 -5.02637 -19.3994 -7.90625 -29.2041c36.3994 -2.11523 72.8223 2.38281 107.063 16.5889c17.0352 7.06445 26.583 -11.7598 9.35352 -19.1768
c-39.9854 -17.21 -82.0283 -23.3545 -124.06 -21.5459c-22.1855 -64.873 -57.8398 -127.378 -122.1 -156.068c-82.5254 -36.8496 -166.164 8.94629 -194.3 91.6455c-25.7178 75.5811 -24.4404 162.398 -9.4082 241.714c-8.83008 13.3281 -16.8027 27.3516 -23.6885 42.1709
c-32.9951 71.0127 -41.6777 151.846 -28.9043 228.797c12.7305 76.6992 48.4004 160.307 124.184 193.255c72.166 31.373 154.524 0.400391 202.521 -58.4912c54.5371 -66.9141 73.4082 -159.208 82.498 -242.99zM272.004 22.8369
c17.7803 24.041 31.5869 51.3926 42.5166 80.2539c-38.4141 6.08594 -76.2529 18.0596 -111.907 33.5654c-40.3662 17.5518 -78.0459 40.5059 -110.754 68.8438c-0.341797 -8.16211 -0.563477 -16.3359 -0.52832 -24.5293
c0.182617 -42.1436 3.10156 -87.0352 17.7344 -126.92c11.6553 -31.7725 34.8271 -66.8594 69.5654 -76.2178c38.0098 -10.2393 72.0684 16.2002 93.373 45.0039zM240.484 152.039c26.3115 -10.46 54.207 -18.9951 82.6182 -24.1299
c12.7109 40.0938 20.7061 82.0234 26.5703 121.35c12.4785 83.666 11.0156 167.984 -4.78516 251.111c-13.3906 70.4424 -37.8857 146.703 -96.1523 193.034c-27.9111 22.1934 -63.8682 37.377 -99.9844 35.7969c-37.7617 -1.65332 -69.8252 -23.4395 -92.4883 -52.6465
c-43.083 -55.5264 -55.7129 -136.301 -52.5068 -204.818c2.40234 -51.2725 14.4541 -102.351 37.1914 -148.321c7.45605 13.8018 24.1846 22.9307 39.2598 23.75c15.5947 0.845703 32.6885 -9.37012 28.2949 -27.0693c-6.07031 -24.4561 -10.5723 -49.1875 -13.46 -74.1094
c40.1914 -41.918 91.6738 -72.5693 145.442 -93.9473z" />
    <glyph glyph-name="O" unicode="&#xd3;" horiz-adv-x="447" 
d="M385.832 439.013c10.293 -94.875 7.92188 -193.806 -15.2539 -286.694c-2.40234 -9.62598 -5.02637 -19.3994 -7.90625 -29.2041c36.3994 -2.11523 72.8223 2.38281 107.063 16.5889c17.0352 7.06445 26.583 -11.7598 9.35352 -19.1768
c-39.9854 -17.21 -82.0283 -23.3545 -124.06 -21.5459c-22.1855 -64.873 -57.8398 -127.378 -122.1 -156.068c-82.5254 -36.8496 -166.164 8.94629 -194.3 91.6455c-25.7178 75.5811 -24.4404 162.398 -9.4082 241.714c-8.83008 13.3281 -16.8027 27.3516 -23.6885 42.1709
c-32.9951 71.0127 -41.6777 151.846 -28.9043 228.797c12.7305 76.6992 48.4004 160.307 124.184 193.255c72.166 31.373 154.524 0.400391 202.521 -58.4912c54.5371 -66.9141 73.4082 -159.208 82.498 -242.99zM272.004 22.8369
c17.7803 24.041 31.5869 51.3926 42.5166 80.2539c-38.4141 6.08594 -76.2529 18.0596 -111.907 33.5654c-40.3662 17.5518 -78.0459 40.5059 -110.754 68.8438c-0.341797 -8.16211 -0.563477 -16.3359 -0.52832 -24.5293
c0.182617 -42.1436 3.10156 -87.0352 17.7344 -126.92c11.6553 -31.7725 34.8271 -66.8594 69.5654 -76.2178c38.0098 -10.2393 72.0684 16.2002 93.373 45.0039zM240.484 152.039c26.3115 -10.46 54.207 -18.9951 82.6182 -24.1299
c12.7109 40.0938 20.7061 82.0234 26.5703 121.35c12.4785 83.666 11.0156 167.984 -4.78516 251.111c-13.3906 70.4424 -37.8857 146.703 -96.1523 193.034c-27.9111 22.1934 -63.8682 37.377 -99.9844 35.7969c-37.7617 -1.65332 -69.8252 -23.4395 -92.4883 -52.6465
c-43.083 -55.5264 -55.7129 -136.301 -52.5068 -204.818c2.40234 -51.2725 14.4541 -102.351 37.1914 -148.321c7.45605 13.8018 24.1846 22.9307 39.2598 23.75c15.5947 0.845703 32.6885 -9.37012 28.2949 -27.0693c-6.07031 -24.4561 -10.5723 -49.1875 -13.46 -74.1094
c40.1914 -41.918 91.6738 -72.5693 145.442 -93.9473z" />
    <glyph glyph-name="P" unicode="P" horiz-adv-x="615" 
d="M77.4756 659.264c35.1807 23.1523 81.292 35.8848 120.47 15.1084c41.3555 -21.9609 59.2402 -63.1416 71.4473 -106.189c28.8193 -101.633 25.9238 -208.73 25.8076 -313.333c-0.0195312 -18.6387 0.135742 -37.2578 0.365234 -55.8652
c-0.0927734 6.58301 2.58496 13.1113 6.53223 18.7393c8.63965 77.3477 17.71 154.633 31.1123 231.332c11.0117 63.0059 22.1318 134.814 57.7158 189.491c28.3418 43.5488 88.4365 66.6738 126.847 21.4678c39.6016 -46.6074 56.6289 -111.503 62.959 -170.973
c6.59863 -61.9854 -1.30762 -123.815 -25.9072 -181.209c-17.3535 -40.4902 -45.7188 -78.6084 -81.749 -105.327c0.542969 -0.361328 1.10156 -0.695312 1.64453 -1.06055c51.7578 -34.9316 96.3467 -107.132 166.269 -101.48
c21.9375 1.77344 10.2002 -24.585 -6.20996 -25.9473c-60.4717 -5.01855 -103.787 36.1504 -145.282 73.8496c-14.5977 13.2627 -29.8242 25.6562 -46.374 36.0889c-6.75391 -3.40039 -13.6895 -6.43945 -20.8193 -9.00098
c-30.2627 -10.876 -65.0664 -14.4004 -96.1445 -4.50684c-0.454102 0.143555 -0.912109 0.294922 -1.37012 0.446289c-6.75781 -59.7686 -13.8184 -119.498 -22.8193 -178.976c1.14062 -25.0889 2.35547 -50.1855 3.63281 -75.3096
c1.68066 -33.0537 -65.5986 -57.1025 -70.5049 -18.7939c-13.6621 106.722 -16.0879 215.399 -13.1689 322.862c2.48438 91.417 9.96777 182.508 3.71875 273.964c-2.7832 40.7109 -5.07715 87.8262 -23.9053 124.804c-10.8945 21.3936 -28.2832 38.4951 -53.5977 39.1592
c-20.4238 0.535156 -40.6494 -8.27148 -57.1562 -19.6943c-64.3721 -44.5459 -107.502 -143.555 -91.7363 -220.49c14.0625 -68.6143 80.2275 -123.089 150.165 -123.59c20.5713 -0.147461 9.82031 -24.1885 -5.80566 -24.2627
c-87.2871 -0.415039 -167.938 64.3369 -178.332 152.699c-10.0645 85.5254 40.4277 188.761 112.197 235.997zM341.163 311.964c-3.09766 -24.7393 -5.97852 -49.5 -8.80762 -74.2666c19.9268 5.11523 43.7041 2.2041 61.9229 -1.51855
c8.36816 -1.71191 16.5186 -3.99414 24.5029 -6.69531c0.481445 0.251953 0.970703 0.492188 1.45215 0.751953c18.2305 9.84277 32.9521 24.2227 45.6631 40.416c30.8027 39.2402 45.1406 87.043 54.0371 135.335c9.44727 51.3037 9.26465 105.782 1.50586 157.322
c-4.02148 26.7305 -10.2275 57.0283 -27.8643 78.4219c-18.5215 22.4609 -45.2676 26.0742 -66.5176 4.72656c-20.2568 -20.3496 -30.2471 -51.6758 -38.7549 -78.418c-8.3877 -26.374 -14.5127 -53.4033 -19.8691 -80.5342
c-11.4697 -58.1074 -19.915 -116.785 -27.2705 -175.541zM295.789 195.812c-0.112305 0.741211 -0.181641 1.48242 -0.224609 2.21973c0.139648 -11.3486 0.302734 -22.6934 0.52832 -34.0342c0.884766 7.90625 1.76953 15.8164 2.64648 23.7266
c-1.43262 2.38672 -2.48047 5.05664 -2.9502 8.08789z" />
    <glyph glyph-name="Q" unicode="Q" horiz-adv-x="447" 
d="M362.668 123.114c36.3994 -2.11914 72.8203 2.37988 107.058 16.5938c17.0352 7.06445 26.583 -11.7598 9.35352 -19.1768c-39.9854 -17.21 -82.0283 -23.3545 -124.06 -21.5459c-20.8232 -60.8984 -53.5469 -119.67 -110.63 -150.383
c11.0156 -35.1455 32.293 -76.6758 72.6318 -65.8271c20.6953 5.56543 19.3721 -19.1318 1.9873 -23.793c-41.4258 -11.1084 -78.6904 14.7881 -95.6709 51.8896c-3.74121 8.16602 -6.58203 16.6045 -8.99609 25.1709c-76.1826 -22.8379 -149.688 22.0264 -175.712 98.5156
c-25.7178 75.5811 -24.4404 162.398 -9.4082 241.714c-8.83008 13.3281 -16.8027 27.3516 -23.6885 42.1709c-32.9951 71.0127 -41.6777 151.846 -28.9043 228.797c12.7305 76.6992 48.4004 160.307 124.184 193.255c72.166 31.373 154.524 0.400391 202.521 -58.4912
c54.541 -66.9141 73.4082 -159.208 82.498 -242.99c10.293 -94.875 7.92188 -193.807 -15.2578 -286.695c-2.40234 -9.62598 -5.02637 -19.3994 -7.90625 -29.2041zM3.75488 471.737c2.40234 -51.2725 14.457 -102.354 37.1943 -148.316
c7.45605 13.8018 24.1846 22.9307 39.2598 23.75c15.5957 0.845703 32.6895 -9.37012 28.2959 -27.0693c-6.07031 -24.4561 -10.5723 -49.1875 -13.46 -74.1094c40.1914 -41.9189 91.6738 -72.5703 145.442 -93.9482c26.3115 -10.4639 54.207 -18.9951 82.6143 -24.1338
c12.7109 40.0938 20.7061 82.0234 26.5703 121.35c12.4785 83.666 11.0156 167.984 -4.78516 251.111c-13.3906 70.4424 -37.8857 146.703 -96.1523 193.034c-27.9111 22.1934 -63.8682 37.377 -99.9844 35.7969c-37.7617 -1.65332 -69.8252 -23.4395 -92.4883 -52.6465
c-43.083 -55.5264 -55.7129 -136.301 -52.5068 -204.818zM272.001 22.8379c17.7803 24.041 31.5889 51.3936 42.5186 80.2588c-38.4141 6.08594 -76.2529 18.0596 -111.907 33.5654c-40.3662 17.5518 -78.0459 40.5059 -110.754 68.8438
c-0.341797 -8.16211 -0.563477 -16.3359 -0.52832 -24.5293c0.182617 -42.1436 3.10156 -87.0352 17.7344 -126.92c11.6553 -31.7725 34.8271 -66.8594 69.5654 -76.2178c8.92285 -2.40625 17.6172 -2.72461 25.9932 -1.5293
c-0.330078 1.34668 -0.644531 2.70117 -0.986328 4.04395c-5.08496 19.9111 -12.4668 41.6113 -32.8828 50.1309c-16.5889 6.9209 6.81152 28.0508 19.9502 22.582c27.5068 -11.4463 37.167 -38.7012 43.7842 -65.6025c14.6943 8.92676 27.5225 21.8633 37.5127 35.374z" />
    <glyph glyph-name="R" unicode="R" horiz-adv-x="679" 
d="M143.603 270.562c-87.2871 -0.415039 -167.936 64.3398 -178.326 152.714c-10.0645 85.5254 40.4277 188.761 112.197 235.997c35.1768 23.1562 81.291 35.8867 120.454 15.0908c41.3555 -21.9609 59.2402 -63.1416 71.4473 -106.189
c23.4434 -82.6689 25.9004 -168.951 25.9395 -254.565c14.0703 88.8438 35.2432 182.818 82.793 259.327c20.1943 32.4941 52.9688 69.8057 94.9766 67.7871c37.3193 -1.79297 63.8135 -37.501 75.915 -69.3438c57.7275 -151.877 -52.5215 -311.726 -195.126 -367.659
c23.8975 -18.5527 40.874 -51.4355 50.29 -76.9053c17.334 -46.8867 29.8633 -94.3828 56.5479 -137.217c10.666 -17.1201 27.8252 -35.9521 46.9404 -43.5439c28.5088 -11.3223 61.1973 0.69043 85.3896 16.6504c45.2217 29.8281 78.3564 79.8545 97.8018 129.613
c5.03418 12.8857 36.0381 18.0986 29.8242 1.80469c-38.9141 -102.06 -134.434 -207.48 -254.682 -177.776c-52.46 12.9561 -85.8125 60.6729 -103.158 108.817c-10.6621 29.5918 -18.1494 60.2197 -27.8135 90.1406c-5.6748 17.5674 -11.9434 45.2725 -27.1387 59.4512
c-5.13477 -61.251 -6.98242 -122.731 -5.84863 -184.185c1.12598 -24.6387 2.31738 -49.2891 3.57129 -73.9668c1.68066 -33.0537 -65.5986 -57.1025 -70.5049 -18.7939c-13.666 106.722 -16.0879 215.399 -13.1689 322.862c2.48438 91.417 9.96777 182.508 3.71875 273.964
c-2.7832 40.7109 -5.07715 87.8262 -23.9053 124.804c-10.8945 21.3936 -28.2832 38.4951 -53.5977 39.1592c-20.4238 0.535156 -40.6494 -8.27148 -57.1562 -19.6943c-64.3721 -44.5459 -107.502 -143.555 -91.7363 -220.49
c14.0586 -68.6143 80.2275 -123.089 150.165 -123.59c20.5674 -0.147461 9.81641 -24.1885 -5.80957 -24.2627zM414.309 580.909c-24.9961 -33.5469 -40.6104 -75.5547 -53.5703 -114.923c-23.1211 -70.2139 -36.1895 -143.796 -45.1865 -217.238
c24.7354 9.22559 48.8965 19.4102 71.125 34.4814c31.5439 21.3857 59.4043 48.0859 79.6455 80.5303c38.9805 62.4814 54.6494 143.229 30.6748 214.203c-5.7832 17.124 -14.6758 38.4834 -36.2871 37.793c-19.2939 -0.617188 -35.832 -20.6602 -46.4014 -34.8467z" />
    <glyph glyph-name="S" unicode="S" horiz-adv-x="350" 
d="M389.999 123.13c10.2002 -13.2275 -16.3125 -30.3721 -25.2744 -19.0811c-31.3691 39.4775 -77.2119 44.1504 -121.785 31.5557c25.5938 -61.7441 44.4844 -131.146 34.8008 -195.977c-10.0957 -67.5703 -72.1738 -115.594 -140.218 -95.2285
c-60.3701 18.0713 -98.2871 81.4033 -82.9248 142.872c14.085 56.3574 57.9248 104.801 107.4 136.787c-6.81543 13.585 -13.9453 27.0186 -21.3311 40.3203c-6.68359 -5.53516 -13.7939 -10.5186 -21.3857 -14.8193c-28.5977 -16.1973 -67.4189 -24.1426 -98.0967 -9.11426
c-29.9092 14.6523 -47.5107 43.332 -53.9658 75.0889c-3.48145 17.1396 35.4053 33.0684 40.3809 15.1055c10.2549 -37.0205 38.3906 -79.0635 83.0264 -67.4199c14.5088 3.78418 26.9951 12.0479 37.7969 22.7529c-15.2148 26.2305 -31.2568 51.9912 -47.5469 77.4453
c-44.5186 69.5732 -90.1475 143.854 -94.3467 228.774c-3.59375 72.6582 28.5049 158.801 102.188 185.19c71.9248 25.7607 130.529 -35.7588 147.576 -100.321c20.8662 -79.0283 12.8047 -165.256 -6.83496 -243.744c-7.95312 -31.7842 -19.1504 -67.124 -35.5684 -99.2383
c10.9336 -18.79 21.3516 -37.8828 30.7598 -57.585c2.97656 -6.2334 5.93066 -12.5947 8.83789 -19.0537c55.3203 16.4805 118.729 14.6836 156.511 -34.3105zM70.748 611.254c-36.2051 -69.127 -3.67188 -159.803 30.2979 -222.929
c22.9385 -42.6328 49.5762 -83.0107 74.8438 -124.203c35.8018 83.7012 49.7666 186.281 33.7246 275.762c-6.65625 37.1445 -21.96 79.1836 -56.5742 98.9512c-33.8027 19.3018 -65.2607 4.94043 -82.292 -27.5811zM194.458 51.0918
c-6.59473 17.1709 -13.8799 34.0479 -21.6777 50.6914c-16.1855 -11.1318 -30.6084 -23.6104 -42.0586 -36.1436c-28.9971 -31.7451 -55.4287 -75.4609 -45.9121 -120.174c7.78613 -36.582 38.6191 -69.3096 75.3369 -77.623
c19.7832 -4.47949 42.0117 -3.03223 54.5371 14.7012c9.98633 14.1396 12.6299 31.7031 11.834 48.6494c-1.91309 40.7773 -17.5547 82.1445 -32.0596 119.898z" />
    <glyph glyph-name="T" unicode="T" horiz-adv-x="464" 
d="M476.989 748.267c43.502 6.34961 93.1992 6.44336 130.499 -20.1826c33.4883 -23.8936 49.2197 -66.8867 32.3945 -105.199c-6.10938 -13.915 -36.2324 -14.1475 -28.2793 4.66895c11.4268 27.041 -2.65039 57.9951 -23.8662 75.8145
c-24.9453 20.9512 -60.1377 24.1416 -91.3633 21.9834c-59.0469 -4.0752 -116.561 -23.9209 -169.901 -49.2471c14.2949 0.923828 31.9121 -4.16113 32.3232 -20.4863c3.07422 -121.486 1.83203 -243.034 5.80273 -364.539
c1.96777 -60.1836 4.74707 -120.337 7.34766 -180.498c2.68164 -62.0195 7.68457 -124.07 3.87305 -186.109c-1.55664 -25.2871 -49.0176 -46.4639 -56.2559 -14.9941c-1.87109 8.13574 -3.53223 16.3057 -5.04199 24.499
c-2.27441 1.33105 -3.86621 3.57031 -4.12988 7.02832c-1.12598 14.7529 -2.25195 29.5254 -3.39648 44.3018c-3.45801 30.1738 -5.55371 60.5449 -7.69238 90.8389c-8.20508 86.5928 -19.7285 172.859 -41.5996 257.107c-20.6836 79.6758 -62.792 184.81 -149.059 210.003
c-10.6621 -7.0332 -21.3516 -14.0234 -32.1182 -20.8975c-22.6514 -14.458 -45.8545 -30.2314 -72.4844 -36.127c-14.9316 -3.30664 -40.3467 -5.55371 -45.3691 13.8027c-5.3877 20.7461 22.9619 41.748 37.4316 51.1025c32.9912 21.3281 74.1758 28.1631 112.508 20.5908
c25.8027 17.21 51.4775 34.6182 77.541 51.4209c89.123 57.4551 184.522 109.597 290.836 125.118zM5.29102 511.44c14.7139 3.60156 28.167 11.916 40.9053 19.8223c9.25293 5.74023 18.4209 11.6084 27.5576 17.5234
c-24.2354 0.749023 -49.4912 -5.48438 -68.7158 -20.7109c-8.01074 -6.3457 -21.7812 -22.0303 0.25293 -16.6348zM138.122 562.83c83.7666 -33.3877 123.31 -120.737 146.885 -204.36c-3.40039 92.252 -5.52734 184.803 -2.41016 276.841
c0.302734 8.99316 3.81152 16.8994 9.26465 23.3389c-48.2139 -25.7412 -93.9092 -55.8916 -139.352 -86.2129c-4.79688 -3.20215 -9.59082 -6.4043 -14.3877 -9.60645z" />
    <glyph glyph-name="U" unicode="U" horiz-adv-x="651" 
d="M489.418 626.524c-1.94043 -75.7637 -7.64062 -151.343 -10.1514 -227.087c-2.18164 -65.6562 -2.06152 -131.255 0.729492 -196.889c2.65918 -62.6025 7.00977 -126.458 24.4062 -186.964c7.24609 -25.1973 17.4775 -51.8389 39.3291 -67.9307
c25.791 -18.9912 46.1641 -5.27051 62.5898 17.8975c33.9971 47.9463 46.8408 107.365 56.5596 164.281c2.23145 13.0645 30.3398 18.335 27.7861 1.67969c-10.4062 -67.8457 -26.3428 -147.293 -77.4834 -197.432c-21.0947 -20.6836 -45.2441 -34.3848 -75.585 -32.2852
c-31.2061 2.1582 -56.5898 19.5352 -74.3857 44.543c-40.3311 56.668 -49.4404 134.92 -55.2158 202.308c-10.0488 117.221 -7.96094 236.77 0.507812 354.902c-25.6709 -65.6719 -44.7441 -134.007 -62.9092 -202.264
c-25.9541 -97.5342 -46.7812 -203.033 -97.957 -291.217c-20.6602 -35.6035 -54.835 -68.2529 -98.9033 -66.2383c-46.8438 2.14258 -79.3418 36.1582 -90.6445 79.6992c-13.4756 51.9131 -7.77734 110.207 -4.56348 163.148c3.29492 54.3076 8.0459 108.522 10.833 162.865
c2.76758 54.0127 3.05469 108.643 -1.06348 162.585c-1.75781 23.0244 1.96094 60.9453 -14.5039 79.9482c-19.2363 22.2051 -50.7568 10.8096 -61.3184 -12.541c-5.79102 -12.7969 -33.7559 -13.0107 -26.1797 4.32324c17.7881 40.6963 69.7324 57.7119 106.9 31.8818
c43.3076 -30.0957 53.2676 -90.3027 59.5977 -138.886c14.2676 -109.477 -4.69629 -221.197 -7.54102 -330.907c-0.729492 -28.1748 -1.05566 -56.3691 -0.349609 -84.5479c0.582031 -23.2412 2.66992 -46.1182 14.1895 -66.6895
c14.2871 -25.5195 38.9922 -28.7256 61.3486 -9.31934c18.8633 16.3711 30.3711 40.959 40.6875 63.168c43.4434 93.5322 63.335 197.862 90.6631 296.825c22.9658 83.1807 49.4561 165.888 88.8086 242.754c0.849609 8.90723 1.72266 17.8037 2.63086 26.6846
c2.93848 28.7256 72.0996 47.3408 71.1875 11.7021z" />
    <glyph glyph-name="U" unicode="&#xdc;" horiz-adv-x="651" 
d="M489.418 626.524c-1.94043 -75.7637 -7.64062 -151.343 -10.1514 -227.087c-2.18164 -65.6562 -2.06152 -131.255 0.729492 -196.889c2.65918 -62.6025 7.00977 -126.458 24.4062 -186.964c7.24609 -25.1973 17.4775 -51.8389 39.3291 -67.9307
c25.791 -18.9912 46.1641 -5.27051 62.5898 17.8975c33.9971 47.9463 46.8408 107.365 56.5596 164.281c2.23145 13.0645 30.3398 18.335 27.7861 1.67969c-10.4062 -67.8457 -26.3428 -147.293 -77.4834 -197.432c-21.0947 -20.6836 -45.2441 -34.3848 -75.585 -32.2852
c-31.2061 2.1582 -56.5898 19.5352 -74.3857 44.543c-40.3311 56.668 -49.4404 134.92 -55.2158 202.308c-10.0488 117.221 -7.96094 236.77 0.507812 354.902c-25.6709 -65.6719 -44.7441 -134.007 -62.9092 -202.264
c-25.9541 -97.5342 -46.7812 -203.033 -97.957 -291.217c-20.6602 -35.6035 -54.835 -68.2529 -98.9033 -66.2383c-46.8438 2.14258 -79.3418 36.1582 -90.6445 79.6992c-13.4756 51.9131 -7.77734 110.207 -4.56348 163.148c3.29492 54.3076 8.0459 108.522 10.833 162.865
c2.76758 54.0127 3.05469 108.643 -1.06348 162.585c-1.75781 23.0244 1.96094 60.9453 -14.5039 79.9482c-19.2363 22.2051 -50.7568 10.8096 -61.3184 -12.541c-5.79102 -12.7969 -33.7559 -13.0107 -26.1797 4.32324c17.7881 40.6963 69.7324 57.7119 106.9 31.8818
c43.3076 -30.0957 53.2676 -90.3027 59.5977 -138.886c14.2676 -109.477 -4.69629 -221.197 -7.54102 -330.907c-0.729492 -28.1748 -1.05566 -56.3691 -0.349609 -84.5479c0.582031 -23.2412 2.66992 -46.1182 14.1895 -66.6895
c14.2871 -25.5195 38.9922 -28.7256 61.3486 -9.31934c18.8633 16.3711 30.3711 40.959 40.6875 63.168c43.4434 93.5322 63.335 197.862 90.6631 296.825c22.9658 83.1807 49.4561 165.888 88.8086 242.754c0.849609 8.90723 1.72266 17.8037 2.63086 26.6846
c2.93848 28.7256 72.0996 47.3408 71.1875 11.7021z" />
    <glyph glyph-name="U" unicode="&#xdb;" horiz-adv-x="651" 
d="M489.418 626.524c-1.94043 -75.7637 -7.64062 -151.343 -10.1514 -227.087c-2.18164 -65.6562 -2.06152 -131.255 0.729492 -196.889c2.65918 -62.6025 7.00977 -126.458 24.4062 -186.964c7.24609 -25.1973 17.4775 -51.8389 39.3291 -67.9307
c25.791 -18.9912 46.1641 -5.27051 62.5898 17.8975c33.9971 47.9463 46.8408 107.365 56.5596 164.281c2.23145 13.0645 30.3398 18.335 27.7861 1.67969c-10.4062 -67.8457 -26.3428 -147.293 -77.4834 -197.432c-21.0947 -20.6836 -45.2441 -34.3848 -75.585 -32.2852
c-31.2061 2.1582 -56.5898 19.5352 -74.3857 44.543c-40.3311 56.668 -49.4404 134.92 -55.2158 202.308c-10.0488 117.221 -7.96094 236.77 0.507812 354.902c-25.6709 -65.6719 -44.7441 -134.007 -62.9092 -202.264
c-25.9541 -97.5342 -46.7812 -203.033 -97.957 -291.217c-20.6602 -35.6035 -54.835 -68.2529 -98.9033 -66.2383c-46.8438 2.14258 -79.3418 36.1582 -90.6445 79.6992c-13.4756 51.9131 -7.77734 110.207 -4.56348 163.148c3.29492 54.3076 8.0459 108.522 10.833 162.865
c2.76758 54.0127 3.05469 108.643 -1.06348 162.585c-1.75781 23.0244 1.96094 60.9453 -14.5039 79.9482c-19.2363 22.2051 -50.7568 10.8096 -61.3184 -12.541c-5.79102 -12.7969 -33.7559 -13.0107 -26.1797 4.32324c17.7881 40.6963 69.7324 57.7119 106.9 31.8818
c43.3076 -30.0957 53.2676 -90.3027 59.5977 -138.886c14.2676 -109.477 -4.69629 -221.197 -7.54102 -330.907c-0.729492 -28.1748 -1.05566 -56.3691 -0.349609 -84.5479c0.582031 -23.2412 2.66992 -46.1182 14.1895 -66.6895
c14.2871 -25.5195 38.9922 -28.7256 61.3486 -9.31934c18.8633 16.3711 30.3711 40.959 40.6875 63.168c43.4434 93.5322 63.335 197.862 90.6631 296.825c22.9658 83.1807 49.4561 165.888 88.8086 242.754c0.849609 8.90723 1.72266 17.8037 2.63086 26.6846
c2.93848 28.7256 72.0996 47.3408 71.1875 11.7021z" />
    <glyph glyph-name="U" unicode="&#xda;" horiz-adv-x="651" 
d="M489.418 626.524c-1.94043 -75.7637 -7.64062 -151.343 -10.1514 -227.087c-2.18164 -65.6562 -2.06152 -131.255 0.729492 -196.889c2.65918 -62.6025 7.00977 -126.458 24.4062 -186.964c7.24609 -25.1973 17.4775 -51.8389 39.3291 -67.9307
c25.791 -18.9912 46.1641 -5.27051 62.5898 17.8975c33.9971 47.9463 46.8408 107.365 56.5596 164.281c2.23145 13.0645 30.3398 18.335 27.7861 1.67969c-10.4062 -67.8457 -26.3428 -147.293 -77.4834 -197.432c-21.0947 -20.6836 -45.2441 -34.3848 -75.585 -32.2852
c-31.2061 2.1582 -56.5898 19.5352 -74.3857 44.543c-40.3311 56.668 -49.4404 134.92 -55.2158 202.308c-10.0488 117.221 -7.96094 236.77 0.507812 354.902c-25.6709 -65.6719 -44.7441 -134.007 -62.9092 -202.264
c-25.9541 -97.5342 -46.7812 -203.033 -97.957 -291.217c-20.6602 -35.6035 -54.835 -68.2529 -98.9033 -66.2383c-46.8438 2.14258 -79.3418 36.1582 -90.6445 79.6992c-13.4756 51.9131 -7.77734 110.207 -4.56348 163.148c3.29492 54.3076 8.0459 108.522 10.833 162.865
c2.76758 54.0127 3.05469 108.643 -1.06348 162.585c-1.75781 23.0244 1.96094 60.9453 -14.5039 79.9482c-19.2363 22.2051 -50.7568 10.8096 -61.3184 -12.541c-5.79102 -12.7969 -33.7559 -13.0107 -26.1797 4.32324c17.7881 40.6963 69.7324 57.7119 106.9 31.8818
c43.3076 -30.0957 53.2676 -90.3027 59.5977 -138.886c14.2676 -109.477 -4.69629 -221.197 -7.54102 -330.907c-0.729492 -28.1748 -1.05566 -56.3691 -0.349609 -84.5479c0.582031 -23.2412 2.66992 -46.1182 14.1895 -66.6895
c14.2871 -25.5195 38.9922 -28.7256 61.3486 -9.31934c18.8633 16.3711 30.3711 40.959 40.6875 63.168c43.4434 93.5322 63.335 197.862 90.6631 296.825c22.9658 83.1807 49.4561 165.888 88.8086 242.754c0.849609 8.90723 1.72266 17.8037 2.63086 26.6846
c2.93848 28.7256 72.0996 47.3408 71.1875 11.7021z" />
    <glyph glyph-name="V" unicode="V" horiz-adv-x="589" 
d="M478.405 697.735c52.4102 -82.6182 56.0605 -189.044 54.3027 -283.822c-1.82812 -98.3916 -15.0557 -196.931 -42.1865 -291.612c38.6777 -10.4482 78.8887 -7.41309 114.026 20.3193c14.7061 11.6055 35.4365 -3.08496 18.1143 -16.7588
c-42.7803 -33.7676 -92.3213 -40.2344 -139.969 -29.7822c-12.5449 -40.4316 -27.4062 -80.7979 -46.4951 -118.338c-19.6592 -38.666 -49.1377 -72.5039 -91.7783 -85.3936c-40.9404 -12.3779 -87.8809 -0.229492 -119.84 27.6816
c-37.4395 32.7002 -53.2598 77.8398 -68.0361 123.775c-33.123 102.979 -53.3838 210.45 -75.2275 316.244c-11.0928 53.7295 -22.1738 107.443 -33.2236 161.173c-4.62695 22.4844 -9.45117 45.7412 -19.4453 66.5723c-8.41895 17.5518 -29.1953 38.0723 -50.3994 29.126
c-19.6357 -8.28711 -30.5693 13.3008 -10.7979 22.1348c36.6787 16.3906 78.4307 4.26953 105.686 -24.0098c15.9951 -16.5928 24.6191 -36.5195 32.3701 -57.9287c9.02441 -24.9375 17.6182 -50.2861 24.457 -75.9072c27.623 -103.465 49.1797 -208.358 74.6875 -312.344
c11.2246 -45.7646 22.7207 -92.0029 37.6055 -136.735c12.2725 -36.8691 27.2393 -78.9355 60.6377 -102.146c82.874 -57.5879 133.58 119.467 149.361 169.641c0.508789 1.61816 0.986328 3.24805 1.4873 4.87012c-33.7793 12.3232 -65.6221 32.4795 -92.2012 56.5322
c-74.5293 67.4502 -124.862 162.038 -138.074 261.742c-12.2959 92.8105 6.50879 197.964 61.6045 275.141c23.4785 32.8906 59.3457 59.5166 101.229 59.9707c40.8779 0.438477 71.3584 -27.4453 92.1045 -60.1455zM499.417 370.055
c4.16113 87.6562 4.63086 183.246 -28.0186 266.097c-13.7168 34.8076 -35.3594 78.5537 -73.082 92.2314c-48.5322 17.5977 -85.1758 -31.0547 -104.404 -68.3076c-40.1445 -77.7744 -51.2607 -169.319 -34.1172 -254.884
c16.3555 -81.6279 59.1748 -157.873 118.928 -215.623c22.9814 -22.2129 52.0059 -43.3818 83.2354 -57.126c21.4639 77.4326 33.6514 157.365 37.459 237.612z" />
    <glyph glyph-name="W" unicode="W" horiz-adv-x="766" 
d="M740.678 454.228c-1.61426 -87.6016 -16.9961 -176.338 -39.3643 -260.869c-3.64844 -13.7822 -7.51465 -27.6465 -11.6328 -41.5029c30.6475 -10.4639 63.5957 -11.5234 95.7334 2.81445c17.1094 7.63086 26.6494 -11.6748 9.43945 -19.3525
c-37.8086 -16.8682 -76.5137 -17.8545 -112.715 -7.77832c-18.665 -57.7969 -42.791 -114.503 -77.7539 -163.485c-20.2568 -28.3838 -45.4658 -55.623 -80.8291 -63.6924c-37.7266 -8.6084 -75.9619 8.96289 -99.2734 38.3799
c-25.9004 32.6846 -35.6309 77.4443 -46.0488 117.034c-11.873 45.1201 -18.2227 91.9951 -23.6914 138.272c-0.811523 6.88574 -1.50977 13.7949 -2.23926 20.7002c-4.01758 -24.0449 -8.58594 -48.001 -13.9346 -71.8203
c-9.53613 -42.4814 -20.2949 -86.0264 -39.752 -125.224c-15.2344 -30.6855 -38.7627 -65.707 -73.4736 -76.0117c-89.1348 -26.4629 -119.568 105.898 -135.113 165.551c-23.9092 91.7432 -24.4482 189.84 -30.5967 283.981
c-2.98438 45.6797 -5.47656 91.584 -11.3184 137.015c-2.63574 20.4893 -5.20508 41.5381 -14.6406 60.2461c-9.24902 18.332 -33.6855 38.3291 -45.4385 10.2979c-4.82422 -11.5156 -35.0479 -14.5312 -29.3154 1.38965c13.332 37.0439 56.7061 51.75 92.0918 36.6553
c45.1592 -19.2627 57.125 -68.1094 65.7998 -111.646c18.417 -92.4297 21.5264 -187.057 30.0771 -280.702c4.27734 -46.8477 8.7334 -93.8154 14.7305 -140.477c3.05859 -23.793 7.38281 -47.2871 12.165 -70.7852c3.97852 -19.5615 8.14746 -41.751 23.3467 -56.1162
c65.5986 -62.001 114.143 165.174 120.896 200.052c12.0947 62.4512 19.6631 125.593 25.7178 188.89c-0.275391 34.8467 1.33105 69.6582 9.26465 103.612c3.19043 13.6582 35.5645 30.6162 42.5234 11.4854c14.8271 -40.7734 17.5635 -83.6035 22.0117 -126.585
c4.31641 -41.7402 7.75879 -83.5303 12.6846 -125.212c5.05762 -42.8037 11.668 -85.417 20.4863 -127.611c8.49219 -40.6494 14.8076 -82.001 29.8711 -120.888c10.2393 -26.4355 33.71 -63.8828 65.7539 -42.6328c28.0078 18.5684 47.4648 52.9023 63.0596 81.7715
c19.8301 36.7139 35.3477 76.0898 48.082 116.332c-32.8203 14.1123 -62.7109 37.0664 -86.8027 64.9111c-54.7617 63.293 -89.0615 145.154 -99.7314 227.893c-9.44336 73.2061 -2.16211 160.416 40.0664 223.224c39.0498 58.084 116.172 79.5791 167.557 24.1963
c53.2285 -57.3701 63.6846 -147.561 62.3066 -222.312zM598.796 214.942c18.4678 -20.707 41.2373 -39.4863 66.334 -52.5234c6.54785 22.8652 12.3232 45.8779 17.582 68.7197c16.9688 73.6758 29.2959 150.096 29.0977 225.863
c-0.174805 65.9551 -9.59473 144.587 -54.2725 196.651c-22.3955 26.0908 -55.251 41.5654 -87.8506 23.626c-31.2334 -17.1865 -47.2598 -53.5703 -56.9277 -86.1348c-19.0771 -64.252 -19.0029 -132.785 -3.85059 -197.844
c15.0518 -64.6201 45.5625 -128.646 89.8877 -178.358z" />
    <glyph glyph-name="X" unicode="X" horiz-adv-x="457" 
d="M326.739 638.137c21.1221 6.83105 19.5576 -18.9238 2.05664 -24.583c-33.8223 -10.9375 -57.8711 -38.8252 -78.8457 -66.165c-20.1289 -26.2383 -37.832 -54.2852 -53.8154 -83.2168c-6.26074 -11.334 -12.1719 -22.8418 -17.9238 -34.4277
c5.3916 -24.0098 9.94824 -47.9502 14.1514 -71.1025c15.168 -83.6191 18.793 -167.887 28.8223 -252.073c4.5957 -38.5918 11.5742 -78.0996 25.9395 -114.359c12.8584 -32.46 35.8555 -72.5078 73.3916 -79.2227c39.4072 -7.04883 71.1367 30.7168 91.1641 59.4072
c23.5947 33.7988 40.8701 71.6768 58.1689 108.93c6.44727 13.8838 37.1445 13.9648 28.5127 -4.70801c-31.5742 -68.3154 -70.4648 -162.221 -148.98 -187.488c-32.4863 -10.4521 -66.8242 -4.78125 -96.873 10.4531c-32.5879 16.5225 -54.5449 46.3467 -71.1924 78.1035
c-37.707 71.9287 -42.1162 155.366 -49.2695 234.65c-2.56543 28.4385 -6.04688 56.7686 -10.1768 85.0049c-2.44531 -6.52441 -4.88281 -13.0527 -7.28516 -19.5889c-22.9385 -62.4434 -44.2861 -125.469 -69.3018 -187.136
c-21.6191 -53.2949 -45.501 -111.67 -100.732 -137.706c-18.0752 -8.51953 -28.0693 11.9736 -10.0332 20.5703c29.626 14.1201 46.8477 42.1973 60.5957 70.8496c14.9746 31.2021 27.1074 63.9023 39.1553 96.3154c23.5088 63.2539 45.085 127.227 69.7471 190.05
c2.89941 7.38574 5.84961 14.7529 8.8457 22.1045c-6.78027 38.0293 -14.6475 75.8721 -23.3965 113.486c-8.47656 36.4453 -18.3271 72.79 -33.9961 106.911c-7.79395 16.9648 -15.9521 35.168 -28.252 49.4238c-10.208 11.834 -32.6465 24.7627 -35.1152 0.255859
c-1.2998 -12.8975 -32.416 -20.501 -31.3682 -5.1582c2.24316 32.8281 35.2695 50.5273 65.8896 48.7803c41.2783 -2.35645 71.6416 -41.2822 91.4873 -73.7148c22.5938 -36.9229 38.2158 -79.2178 50.0732 -122.584c7.02539 12.6689 14.334 25.1904 22.0967 37.4512
c33.6631 53.167 73.998 110.293 136.46 130.487z" />
    <glyph glyph-name="Y" unicode="Y" horiz-adv-x="496" 
d="M78.4746 566.562c7.83594 -72.6475 -5.05762 -145.721 -7.75488 -218.349c-1.23438 -33.3525 -4.16504 -72.0107 5.00684 -104.49c8.03809 -28.4736 32.3936 -59.625 64.7988 -45.4385c30.9648 13.5576 53.0303 47.0576 69.0869 75.3408
c17.9746 31.6641 32.1299 65.7227 45.1055 99.6846c24.5107 64.1543 42.8574 130.447 55.5957 197.901c-0.298828 0.841797 -0.570312 1.6875 -0.876953 2.52539c-7.44434 20.4395 28.8467 43.207 43.6543 26.7383c22.9697 -25.5469 33.1621 -57.1211 41.6309 -89.8721
c8.93848 -34.5713 15.3428 -70.1514 20.3145 -105.487c9.86621 -70.1162 13.7129 -140.722 8.35254 -211.4c-0.869141 -11.4961 -1.96387 -23.1357 -3.29492 -34.8457c2.63184 -0.287109 5.25977 -0.582031 7.88379 -0.923828
c42.5977 -5.57715 88.0283 -21.8906 108.444 -62.5439c6.94727 -13.8291 -22.2441 -28.0654 -29.2148 -14.248c-17.043 33.7793 -54.1055 46.7969 -90.501 51.707c-14.3535 -97.6113 -48.4004 -196.62 -128.251 -258.112
c-42.4893 -32.7197 -100.329 -53.9736 -154.361 -46.0127c-52.251 7.7041 -85.5059 52.1025 -82.8467 104.194c5.58496 109.52 121.33 183.738 215.747 211.866c25.0771 7.47168 50.9854 12.4092 77.126 14.7539c3.56738 37.1562 4.5459 74.3779 4.24707 110.098
c-0.442383 52.6387 -4.81641 104.788 -10.8828 157.051c-3.10938 26.7656 -6.06348 53.8535 -10.8223 80.5264c-13.6006 -55.1504 -31.0781 -109.271 -52.5771 -161.984c-24.5762 -60.2656 -55.3047 -128.507 -112.811 -164.343
c-54.207 -33.7832 -120.026 -14.5283 -147.425 43.1016c-31.3887 66.0254 -13.8604 148.842 -7.71582 218.543c3.29883 37.4199 5.82129 75.4805 3.43066 113.024c-1.1875 18.6572 -1.53711 38.8555 -6.28027 57.0283c-1.44727 5.54688 -3.69434 12.2578 -7.34668 16.748
c-0.764648 0.931641 -3.90039 3.22949 -4.86328 4.53711c-8.70215 -9.15625 -31.9629 -8.24023 -24.6855 8.36035c10.8945 24.8525 47.7363 32.5879 70.3027 20.8115c31.5205 -16.4492 38.3867 -64.9854 41.7832 -96.4902zM-9.06152 634.055
c-3.50879 5.62012 -2.98047 -2.70215 0.132812 -0.171875c-0.0390625 0.0546875 -0.101562 0.121094 -0.132812 0.171875zM-8.89453 633.906c0.225586 0.19043 0.461914 0.425781 0.717773 0.740234c-0.213867 -0.263672 -0.481445 -0.492188 -0.717773 -0.740234z
M297.611 -20.3291c23.4551 47.4062 36.5859 100.534 43.6152 154.543c-37.1914 -3.31836 -73.9287 -12.4395 -108.111 -27.2773c-41.3359 -17.9434 -80.8398 -43.3779 -108.824 -79.2451c-27.6582 -35.4443 -44.7246 -90.4814 -14.8379 -129.9
c26.7109 -35.2383 76.9199 -25.7832 110.393 -6.2334c34.6602 20.2412 60.1875 52.584 77.7656 88.1133z" />
    <glyph glyph-name="Y" unicode="&#x178;" horiz-adv-x="496" 
d="M78.4746 566.562c7.83594 -72.6475 -5.05762 -145.721 -7.75488 -218.349c-1.23438 -33.3525 -4.16504 -72.0107 5.00684 -104.49c8.03809 -28.4736 32.3936 -59.625 64.7988 -45.4385c30.9648 13.5576 53.0303 47.0576 69.0869 75.3408
c17.9746 31.6641 32.1299 65.7227 45.1055 99.6846c24.5107 64.1543 42.8574 130.447 55.5957 197.901c-0.298828 0.841797 -0.570312 1.6875 -0.876953 2.52539c-7.44434 20.4395 28.8467 43.207 43.6543 26.7383c22.9697 -25.5469 33.1621 -57.1211 41.6309 -89.8721
c8.93848 -34.5713 15.3428 -70.1514 20.3145 -105.487c9.86621 -70.1162 13.7129 -140.722 8.35254 -211.4c-0.869141 -11.4961 -1.96387 -23.1357 -3.29492 -34.8457c2.63184 -0.287109 5.25977 -0.582031 7.88379 -0.923828
c42.5977 -5.57715 88.0283 -21.8906 108.444 -62.5439c6.94727 -13.8291 -22.2441 -28.0654 -29.2148 -14.248c-17.043 33.7793 -54.1055 46.7969 -90.501 51.707c-14.3535 -97.6113 -48.4004 -196.62 -128.251 -258.112
c-42.4893 -32.7197 -100.329 -53.9736 -154.361 -46.0127c-52.251 7.7041 -85.5059 52.1025 -82.8467 104.194c5.58496 109.52 121.33 183.738 215.747 211.866c25.0771 7.47168 50.9854 12.4092 77.126 14.7539c3.56738 37.1562 4.5459 74.3779 4.24707 110.098
c-0.442383 52.6387 -4.81641 104.788 -10.8828 157.051c-3.10938 26.7656 -6.06348 53.8535 -10.8223 80.5264c-13.6006 -55.1504 -31.0781 -109.271 -52.5771 -161.984c-24.5762 -60.2656 -55.3047 -128.507 -112.811 -164.343
c-54.207 -33.7832 -120.026 -14.5283 -147.425 43.1016c-31.3887 66.0254 -13.8604 148.842 -7.71582 218.543c3.29883 37.4199 5.82129 75.4805 3.43066 113.024c-1.1875 18.6572 -1.53711 38.8555 -6.28027 57.0283c-1.44727 5.54688 -3.69434 12.2578 -7.34668 16.748
c-0.764648 0.931641 -3.90039 3.22949 -4.86328 4.53711c-8.70215 -9.15625 -31.9629 -8.24023 -24.6855 8.36035c10.8945 24.8525 47.7363 32.5879 70.3027 20.8115c31.5205 -16.4492 38.3867 -64.9854 41.7832 -96.4902zM-9.06152 634.055
c-3.50879 5.62012 -2.98047 -2.70215 0.132812 -0.171875c-0.0390625 0.0546875 -0.101562 0.121094 -0.132812 0.171875zM-8.89453 633.906c0.225586 0.19043 0.461914 0.425781 0.717773 0.740234c-0.213867 -0.263672 -0.481445 -0.492188 -0.717773 -0.740234z
M297.611 -20.3291c23.4551 47.4062 36.5859 100.534 43.6152 154.543c-37.1914 -3.31836 -73.9287 -12.4395 -108.111 -27.2773c-41.3359 -17.9434 -80.8398 -43.3779 -108.824 -79.2451c-27.6582 -35.4443 -44.7246 -90.4814 -14.8379 -129.9
c26.7109 -35.2383 76.9199 -25.7832 110.393 -6.2334c34.6602 20.2412 60.1875 52.584 77.7656 88.1133z" />
    <glyph glyph-name="Y" unicode="&#xdd;" horiz-adv-x="496" 
d="M78.4746 566.562c7.83594 -72.6475 -5.05762 -145.721 -7.75488 -218.349c-1.23438 -33.3525 -4.16504 -72.0107 5.00684 -104.49c8.03809 -28.4736 32.3936 -59.625 64.7988 -45.4385c30.9648 13.5576 53.0303 47.0576 69.0869 75.3408
c17.9746 31.6641 32.1299 65.7227 45.1055 99.6846c24.5107 64.1543 42.8574 130.447 55.5957 197.901c-0.298828 0.841797 -0.570312 1.6875 -0.876953 2.52539c-7.44434 20.4395 28.8467 43.207 43.6543 26.7383c22.9697 -25.5469 33.1621 -57.1211 41.6309 -89.8721
c8.93848 -34.5713 15.3428 -70.1514 20.3145 -105.487c9.86621 -70.1162 13.7129 -140.722 8.35254 -211.4c-0.869141 -11.4961 -1.96387 -23.1357 -3.29492 -34.8457c2.63184 -0.287109 5.25977 -0.582031 7.88379 -0.923828
c42.5977 -5.57715 88.0283 -21.8906 108.444 -62.5439c6.94727 -13.8291 -22.2441 -28.0654 -29.2148 -14.248c-17.043 33.7793 -54.1055 46.7969 -90.501 51.707c-14.3535 -97.6113 -48.4004 -196.62 -128.251 -258.112
c-42.4893 -32.7197 -100.329 -53.9736 -154.361 -46.0127c-52.251 7.7041 -85.5059 52.1025 -82.8467 104.194c5.58496 109.52 121.33 183.738 215.747 211.866c25.0771 7.47168 50.9854 12.4092 77.126 14.7539c3.56738 37.1562 4.5459 74.3779 4.24707 110.098
c-0.442383 52.6387 -4.81641 104.788 -10.8828 157.051c-3.10938 26.7656 -6.06348 53.8535 -10.8223 80.5264c-13.6006 -55.1504 -31.0781 -109.271 -52.5771 -161.984c-24.5762 -60.2656 -55.3047 -128.507 -112.811 -164.343
c-54.207 -33.7832 -120.026 -14.5283 -147.425 43.1016c-31.3887 66.0254 -13.8604 148.842 -7.71582 218.543c3.29883 37.4199 5.82129 75.4805 3.43066 113.024c-1.1875 18.6572 -1.53711 38.8555 -6.28027 57.0283c-1.44727 5.54688 -3.69434 12.2578 -7.34668 16.748
c-0.764648 0.931641 -3.90039 3.22949 -4.86328 4.53711c-8.70215 -9.15625 -31.9629 -8.24023 -24.6855 8.36035c10.8945 24.8525 47.7363 32.5879 70.3027 20.8115c31.5205 -16.4492 38.3867 -64.9854 41.7832 -96.4902zM-9.06152 634.055
c-3.50879 5.62012 -2.98047 -2.70215 0.132812 -0.171875c-0.0390625 0.0546875 -0.101562 0.121094 -0.132812 0.171875zM-8.89453 633.906c0.225586 0.19043 0.461914 0.425781 0.717773 0.740234c-0.213867 -0.263672 -0.481445 -0.492188 -0.717773 -0.740234z
M297.611 -20.3291c23.4551 47.4062 36.5859 100.534 43.6152 154.543c-37.1914 -3.31836 -73.9287 -12.4395 -108.111 -27.2773c-41.3359 -17.9434 -80.8398 -43.3779 -108.824 -79.2451c-27.6582 -35.4443 -44.7246 -90.4814 -14.8379 -129.9
c26.7109 -35.2383 76.9199 -25.7832 110.393 -6.2334c34.6602 20.2412 60.1875 52.584 77.7656 88.1133z" />
    <glyph glyph-name="Z" unicode="Z" horiz-adv-x="428" 
d="M71.0479 64.0488c38.6777 12.8818 78.2773 20.8613 118.337 26.3652c18.0869 47.7793 30.6934 97.8369 40.3887 148.015c-12.0205 -2.18945 -24.0176 -4.57227 -35.9834 -7.18066c-19.1074 -4.16504 -18.0322 18.1758 -1.82031 21.793
c13.9766 3.11719 28.0039 5.95801 42.0703 8.55078c9.9707 56.0273 17.8418 112.505 24.3701 169.032c6.39258 55.3672 12.3115 119.604 -8.41113 172.809c-24.623 63.2305 -108.875 24.332 -155.062 14.2715c-36.9463 -8.0498 -104.862 -25.8691 -133.774 8.66699
c-9.90137 11.8262 14.543 27.7207 23.3418 17.6367c22.2051 -25.4385 77.1104 -9.62207 104.994 -3.33789c35.1104 7.91016 69.5146 22.4229 105.891 23.459c30.5459 0.869141 61.0605 -8.79199 84.4375 -28.9053c25.3721 -21.8252 35.4482 -54.1992 41.6855 -86.0498
c13.3125 -67.9541 5.59277 -140.415 -1.00195 -208.723c-2.16602 -22.4424 -4.85938 -44.8496 -8.08887 -67.1787c13.1807 1.49805 26.3926 2.77148 39.6357 3.80762c20.1133 1.57227 9.45898 -22.7324 -5.70508 -23.8389
c-12.5518 -0.916016 -25.0693 -2.0498 -37.5596 -3.38867c-6.4082 -38.9102 -14.7256 -77.4863 -25.834 -115.364c-3.31055 -11.2871 -7.1377 -23.2227 -11.4766 -35.5264c62.0898 5.01074 124.521 8.08887 185.621 17.9902
c7.47168 1.21094 13.2783 -4.56836 12.2656 -11.7334c-1.17969 -8.34473 -11.2168 -12.4199 -18.3232 -13.5801c-62.2021 -10.165 -125.926 -12.9561 -189.176 -18.2852c-39.9463 -100.158 -112.989 -211.983 -225.68 -202.233
c-49.7275 4.30078 -101.772 43.6416 -89.3213 99.2607c12.0439 53.8027 78.1699 78.3447 124.18 93.668zM104.895 -47.1953c32.8008 29.1338 56.292 70.3945 73.8818 111.18c-35.7783 -5.4375 -71.1182 -13.1377 -105.635 -24.9795
c-37.1055 -12.7266 -129.14 -52.6885 -68.9326 -98.5615c32.0254 -24.4062 72.9111 -12.3086 100.686 12.3613z" />
    <glyph glyph-name="bracketleft" unicode="[" horiz-adv-x="338" 
d="M287.91 -137.434c1.84766 -19.0342 -17.9863 -31.8701 -33.4688 -37.1025c-40.7969 -13.8174 -87.8506 -1.87402 -119.228 27.0889c-30.0996 27.7822 -44.1074 66.5371 -54.0049 105.168c-20.6914 80.7666 -26.0166 164.588 -29.1602 247.598
c-3.27539 86.542 -2.8252 173.608 2.82617 260.046c2.81055 42.9707 6.24121 85.9453 10.9922 128.749c4.15723 37.4512 8.27539 77.8135 20.8857 113.525c10.6035 30.0303 32.5947 58.2012 65.5664 64.0547c24.1807 4.29297 49.1846 0.795898 64.0303 -20.2178
c7.85547 -11.124 -19.0146 -26.6338 -26.8896 -16.4727c-24.6152 31.749 -45.7178 -6.5166 -50.9961 -29.9756c-7.61133 -33.8105 -7.61133 -69.7207 -9.48633 -104.18c-7.53027 -138.358 -5.76074 -278.052 2.91406 -416.309
c4.12988 -65.7734 10.918 -131.729 27.0371 -195.768c6.73828 -26.7578 15.9482 -56.1475 33.3096 -78.0615c12.6377 -15.9521 35.6504 -34.4697 57.5957 -30.1035c14.5859 2.90332 36.2168 1.11816 38.0762 -18.04z" />
    <glyph glyph-name="backslash" unicode="\" horiz-adv-x="452" 
d="M400.836 -75.6348c11.5352 -35.2197 -52.9736 -68.7148 -71.1611 -34.707c-32.2969 60.3818 -55.0762 126.792 -79.1602 190.775c-23.7422 63.0791 -45.9551 126.698 -66.9219 190.752c-19.7871 60.46 -39.0967 121.071 -61.4688 180.642
c-10.5225 28.0156 -22.124 55.6006 -34.416 82.8828c-12.7002 28.1865 -30.3057 56.7109 -37.249 86.9268c-5.05371 22.0029 32.9248 33.8564 47.0957 22.9697c24.2852 -18.6572 41.6074 -51.2686 56.0654 -77.751c14.8691 -27.2393 27.5342 -55.627 39.4502 -84.2598
c23.9482 -57.5527 43.0215 -117.019 63.2314 -175.945c22.2402 -64.8418 45.7266 -129.276 70.3223 -193.26c24.2275 -63.0293 53.1943 -124.863 74.2119 -189.025z" />
    <glyph glyph-name="bracketright" unicode="]" horiz-adv-x="315" 
d="M261.059 225.34c5.46875 -77.2969 7.60742 -157.831 -6.62109 -234.352c-12.0713 -64.9814 -47.1777 -157.45 -128.17 -154.488c-16.3096 0.597656 -34.0469 8.34863 -29.5176 28.2402c4.49414 19.7324 25.791 30.3057 44.1074 32.6924
c-2.79102 -0.361328 -3.97852 -0.547852 -4.27344 -0.598633c0.512695 0.0888672 3.61816 0.663086 4.27832 1.4707c3.36914 4.12207 6.78516 7.86328 9.62598 12.3691c8.07715 12.8086 13.0527 27.4912 17.2715 41.9219c8.9502 30.6279 13.6465 62.5205 15.8086 94.3125
c4.44043 65.3691 1.61523 131.131 -2.17285 196.462c-3.6875 63.6387 -7.32031 127.374 -12.3506 190.923c-4.94141 62.4082 -12.4287 124.439 -23.0557 186.134c-5.02246 29.1484 -10.1768 59.0811 -18.4248 87.5117c-3.97852 13.7207 -9.03613 29.1953 -22.4971 36.2676
c-9.38086 4.92969 -21.0986 5.74512 -27.918 -3.05762c-10.0137 -12.9287 -36.5967 -6.28809 -23.6797 10.8096c16.4883 21.8252 48.1172 27.3096 72.4258 15.8213c32.5059 -15.3662 48.2988 -50.4922 60.125 -82.1719c27.0137 -72.3672 41.0293 -149.307 51.2646 -225.609
c10.4482 -77.8867 18.2266 -156.274 23.7734 -234.658z" />
    <glyph glyph-name="asciicircum" unicode="^" horiz-adv-x="249" 
d="M178.63 516.638c9.0625 -30.8877 21.1982 -65.7646 20.1855 -98.2012c-0.442383 -14.3916 -11.0381 -24.3975 -23.8584 -29.3271c-9.50195 -3.65625 -29.4795 -5.1543 -33.9199 7.70801c-7.33594 21.2422 -9.34668 44.0332 -14.082 65.9473
c-1.79688 8.31348 -3.80371 16.585 -5.94629 24.8174c-0.0195312 -0.0351562 -0.046875 -0.0820312 -0.0664062 -0.117188c-4.96777 -10.2002 -9.39648 -20.5166 -13.7246 -31c-8.05371 -19.5039 -17.1084 -37.9092 -26.4004 -56.7412
c-4.21484 -8.54688 -31.1436 -18.1963 -30.8135 -1.91016c0.621094 30.2861 3.67969 57.2031 14.1318 86.1191c9.96387 27.5654 24.9424 61.5967 53.3037 74.2656c13.623 6.08203 32.1875 6.90527 44.1113 -3.53125c10.5693 -9.25293 13.3604 -25.3486 17.0791 -38.0293z
" />
    <glyph glyph-name="underscore" unicode="_" horiz-adv-x="408" 
d="M332.183 4.72852c14.2217 0.489258 28.4482 -7.83398 25.0254 -23.9414c-3.43848 -16.1699 -22.0801 -26.5723 -37.3955 -27.7168c-82.6064 -6.17871 -165.908 -9.48145 -248.736 -9.13184c-11.6436 0.046875 -23.5322 6.10547 -20.6367 19.7402
c2.89941 13.6504 18.1807 21.4404 30.834 22.8574c83.2002 9.31543 167.228 15.3164 250.909 18.1924z" />
    <glyph glyph-name="grave" unicode="`" horiz-adv-x="184" 
d="M133.407 459.415c1.62207 -9.16797 -11.4434 -17.3096 -19.0547 -17.2246c-60.8047 0.698242 -64.7012 93.0469 -64.332 136.246c0.232422 27.4297 57.4863 47.5625 58.8447 15.6885c1.05176 -24.666 1.23438 -49.7549 5.41895 -74.1455
c3.63672 -21.2119 15.4707 -39.9395 19.123 -60.5645z" />
    <glyph glyph-name="a" unicode="a" horiz-adv-x="374" 
d="M373.096 124.01c2.84473 13.2939 31.9824 18.6182 28.5557 1.73438c-8.83008 -43.3623 -27.4414 -91.5068 -61.2676 -121.622c-32.1875 -28.6562 -79.3066 -38.1035 -114.169 -8.25977c-35.5264 30.4141 -43.8516 88.0088 -47.5967 131.845
c-0.411133 4.78223 -0.663086 9.58301 -0.930664 14.3799c-0.255859 -0.827148 -0.492188 -1.66211 -0.748047 -2.48926c-11.5898 -37.2998 -24.7207 -75.2129 -46.7354 -107.801c-15.8164 -23.4121 -38.9062 -41.5693 -68.8115 -37.54
c-32.3428 4.3584 -56.0928 31.6709 -67.0264 61.0254c-23.7344 63.7236 -21.4014 146.602 17.0586 204.402c27.6006 41.4795 77.375 61.7598 126.338 54.0205c17.9082 -2.83301 34.582 -11.0576 48.0195 -23.1787c5.11133 27.2197 71.0479 44.9033 69.4414 10.4521
c-3.62891 -77.7314 -12.4941 -156.029 6.04297 -232.74c6.1748 -25.5703 28.6826 -76.4043 61.6504 -47.9658c28.2139 24.3359 42.6641 68.665 50.1787 103.737zM118.136 59.6719c27.6738 52.4326 43.7324 112.974 55.1592 172.105
c-16.0762 24.3672 -38.8135 46.0947 -64.7529 41.5693c-5.20898 -0.908203 -10.7402 -2.29004 -15.7705 -4.22266c2.39844 0.625 -8.52344 -5.65527 -10.0254 -6.9668c-4.7627 -4.15332 -8.96973 -9.21094 -12.4941 -14.4512
c-16.8799 -25.0928 -23.7539 -57.9404 -25.0117 -87.6904c-1.32715 -31.4424 2.12305 -64.8838 12.6025 -94.6924c3.76855 -10.7207 11.6553 -36.2441 22.9385 -41.6973c17.1904 -8.30957 31.8232 25.5703 37.3545 36.0459z" />
    <glyph glyph-name="a" unicode="&#xe5;" horiz-adv-x="374" 
d="M373.096 124.01c2.84473 13.2939 31.9824 18.6182 28.5557 1.73438c-8.83008 -43.3623 -27.4414 -91.5068 -61.2676 -121.622c-32.1875 -28.6562 -79.3066 -38.1035 -114.169 -8.25977c-35.5264 30.4141 -43.8516 88.0088 -47.5967 131.845
c-0.411133 4.78223 -0.663086 9.58301 -0.930664 14.3799c-0.255859 -0.827148 -0.492188 -1.66211 -0.748047 -2.48926c-11.5898 -37.2998 -24.7207 -75.2129 -46.7354 -107.801c-15.8164 -23.4121 -38.9062 -41.5693 -68.8115 -37.54
c-32.3428 4.3584 -56.0928 31.6709 -67.0264 61.0254c-23.7344 63.7236 -21.4014 146.602 17.0586 204.402c27.6006 41.4795 77.375 61.7598 126.338 54.0205c17.9082 -2.83301 34.582 -11.0576 48.0195 -23.1787c5.11133 27.2197 71.0479 44.9033 69.4414 10.4521
c-3.62891 -77.7314 -12.4941 -156.029 6.04297 -232.74c6.1748 -25.5703 28.6826 -76.4043 61.6504 -47.9658c28.2139 24.3359 42.6641 68.665 50.1787 103.737zM118.136 59.6719c27.6738 52.4326 43.7324 112.974 55.1592 172.105
c-16.0762 24.3672 -38.8135 46.0947 -64.7529 41.5693c-5.20898 -0.908203 -10.7402 -2.29004 -15.7705 -4.22266c2.39844 0.625 -8.52344 -5.65527 -10.0254 -6.9668c-4.7627 -4.15332 -8.96973 -9.21094 -12.4941 -14.4512
c-16.8799 -25.0928 -23.7539 -57.9404 -25.0117 -87.6904c-1.32715 -31.4424 2.12305 -64.8838 12.6025 -94.6924c3.76855 -10.7207 11.6553 -36.2441 22.9385 -41.6973c17.1904 -8.30957 31.8232 25.5703 37.3545 36.0459z" />
    <glyph glyph-name="a" unicode="&#xe4;" horiz-adv-x="374" 
d="M373.096 124.01c2.84473 13.2939 31.9824 18.6182 28.5557 1.73438c-8.83008 -43.3623 -27.4414 -91.5068 -61.2676 -121.622c-32.1875 -28.6562 -79.3066 -38.1035 -114.169 -8.25977c-35.5264 30.4141 -43.8516 88.0088 -47.5967 131.845
c-0.411133 4.78223 -0.663086 9.58301 -0.930664 14.3799c-0.255859 -0.827148 -0.492188 -1.66211 -0.748047 -2.48926c-11.5898 -37.2998 -24.7207 -75.2129 -46.7354 -107.801c-15.8164 -23.4121 -38.9062 -41.5693 -68.8115 -37.54
c-32.3428 4.3584 -56.0928 31.6709 -67.0264 61.0254c-23.7344 63.7236 -21.4014 146.602 17.0586 204.402c27.6006 41.4795 77.375 61.7598 126.338 54.0205c17.9082 -2.83301 34.582 -11.0576 48.0195 -23.1787c5.11133 27.2197 71.0479 44.9033 69.4414 10.4521
c-3.62891 -77.7314 -12.4941 -156.029 6.04297 -232.74c6.1748 -25.5703 28.6826 -76.4043 61.6504 -47.9658c28.2139 24.3359 42.6641 68.665 50.1787 103.737zM118.136 59.6719c27.6738 52.4326 43.7324 112.974 55.1592 172.105
c-16.0762 24.3672 -38.8135 46.0947 -64.7529 41.5693c-5.20898 -0.908203 -10.7402 -2.29004 -15.7705 -4.22266c2.39844 0.625 -8.52344 -5.65527 -10.0254 -6.9668c-4.7627 -4.15332 -8.96973 -9.21094 -12.4941 -14.4512
c-16.8799 -25.0928 -23.7539 -57.9404 -25.0117 -87.6904c-1.32715 -31.4424 2.12305 -64.8838 12.6025 -94.6924c3.76855 -10.7207 11.6553 -36.2441 22.9385 -41.6973c17.1904 -8.30957 31.8232 25.5703 37.3545 36.0459z" />
    <glyph glyph-name="a" unicode="&#xe3;" horiz-adv-x="374" 
d="M373.096 124.01c2.84473 13.2939 31.9824 18.6182 28.5557 1.73438c-8.83008 -43.3623 -27.4414 -91.5068 -61.2676 -121.622c-32.1875 -28.6562 -79.3066 -38.1035 -114.169 -8.25977c-35.5264 30.4141 -43.8516 88.0088 -47.5967 131.845
c-0.411133 4.78223 -0.663086 9.58301 -0.930664 14.3799c-0.255859 -0.827148 -0.492188 -1.66211 -0.748047 -2.48926c-11.5898 -37.2998 -24.7207 -75.2129 -46.7354 -107.801c-15.8164 -23.4121 -38.9062 -41.5693 -68.8115 -37.54
c-32.3428 4.3584 -56.0928 31.6709 -67.0264 61.0254c-23.7344 63.7236 -21.4014 146.602 17.0586 204.402c27.6006 41.4795 77.375 61.7598 126.338 54.0205c17.9082 -2.83301 34.582 -11.0576 48.0195 -23.1787c5.11133 27.2197 71.0479 44.9033 69.4414 10.4521
c-3.62891 -77.7314 -12.4941 -156.029 6.04297 -232.74c6.1748 -25.5703 28.6826 -76.4043 61.6504 -47.9658c28.2139 24.3359 42.6641 68.665 50.1787 103.737zM118.136 59.6719c27.6738 52.4326 43.7324 112.974 55.1592 172.105
c-16.0762 24.3672 -38.8135 46.0947 -64.7529 41.5693c-5.20898 -0.908203 -10.7402 -2.29004 -15.7705 -4.22266c2.39844 0.625 -8.52344 -5.65527 -10.0254 -6.9668c-4.7627 -4.15332 -8.96973 -9.21094 -12.4941 -14.4512
c-16.8799 -25.0928 -23.7539 -57.9404 -25.0117 -87.6904c-1.32715 -31.4424 2.12305 -64.8838 12.6025 -94.6924c3.76855 -10.7207 11.6553 -36.2441 22.9385 -41.6973c17.1904 -8.30957 31.8232 25.5703 37.3545 36.0459z" />
    <glyph glyph-name="a" unicode="&#xe2;" horiz-adv-x="374" 
d="M373.096 124.01c2.84473 13.2939 31.9824 18.6182 28.5557 1.73438c-8.83008 -43.3623 -27.4414 -91.5068 -61.2676 -121.622c-32.1875 -28.6562 -79.3066 -38.1035 -114.169 -8.25977c-35.5264 30.4141 -43.8516 88.0088 -47.5967 131.845
c-0.411133 4.78223 -0.663086 9.58301 -0.930664 14.3799c-0.255859 -0.827148 -0.492188 -1.66211 -0.748047 -2.48926c-11.5898 -37.2998 -24.7207 -75.2129 -46.7354 -107.801c-15.8164 -23.4121 -38.9062 -41.5693 -68.8115 -37.54
c-32.3428 4.3584 -56.0928 31.6709 -67.0264 61.0254c-23.7344 63.7236 -21.4014 146.602 17.0586 204.402c27.6006 41.4795 77.375 61.7598 126.338 54.0205c17.9082 -2.83301 34.582 -11.0576 48.0195 -23.1787c5.11133 27.2197 71.0479 44.9033 69.4414 10.4521
c-3.62891 -77.7314 -12.4941 -156.029 6.04297 -232.74c6.1748 -25.5703 28.6826 -76.4043 61.6504 -47.9658c28.2139 24.3359 42.6641 68.665 50.1787 103.737zM118.136 59.6719c27.6738 52.4326 43.7324 112.974 55.1592 172.105
c-16.0762 24.3672 -38.8135 46.0947 -64.7529 41.5693c-5.20898 -0.908203 -10.7402 -2.29004 -15.7705 -4.22266c2.39844 0.625 -8.52344 -5.65527 -10.0254 -6.9668c-4.7627 -4.15332 -8.96973 -9.21094 -12.4941 -14.4512
c-16.8799 -25.0928 -23.7539 -57.9404 -25.0117 -87.6904c-1.32715 -31.4424 2.12305 -64.8838 12.6025 -94.6924c3.76855 -10.7207 11.6553 -36.2441 22.9385 -41.6973c17.1904 -8.30957 31.8232 25.5703 37.3545 36.0459z" />
    <glyph glyph-name="a" unicode="&#xe1;" horiz-adv-x="374" 
d="M373.096 124.01c2.84473 13.2939 31.9824 18.6182 28.5557 1.73438c-8.83008 -43.3623 -27.4414 -91.5068 -61.2676 -121.622c-32.1875 -28.6562 -79.3066 -38.1035 -114.169 -8.25977c-35.5264 30.4141 -43.8516 88.0088 -47.5967 131.845
c-0.411133 4.78223 -0.663086 9.58301 -0.930664 14.3799c-0.255859 -0.827148 -0.492188 -1.66211 -0.748047 -2.48926c-11.5898 -37.2998 -24.7207 -75.2129 -46.7354 -107.801c-15.8164 -23.4121 -38.9062 -41.5693 -68.8115 -37.54
c-32.3428 4.3584 -56.0928 31.6709 -67.0264 61.0254c-23.7344 63.7236 -21.4014 146.602 17.0586 204.402c27.6006 41.4795 77.375 61.7598 126.338 54.0205c17.9082 -2.83301 34.582 -11.0576 48.0195 -23.1787c5.11133 27.2197 71.0479 44.9033 69.4414 10.4521
c-3.62891 -77.7314 -12.4941 -156.029 6.04297 -232.74c6.1748 -25.5703 28.6826 -76.4043 61.6504 -47.9658c28.2139 24.3359 42.6641 68.665 50.1787 103.737zM118.136 59.6719c27.6738 52.4326 43.7324 112.974 55.1592 172.105
c-16.0762 24.3672 -38.8135 46.0947 -64.7529 41.5693c-5.20898 -0.908203 -10.7402 -2.29004 -15.7705 -4.22266c2.39844 0.625 -8.52344 -5.65527 -10.0254 -6.9668c-4.7627 -4.15332 -8.96973 -9.21094 -12.4941 -14.4512
c-16.8799 -25.0928 -23.7539 -57.9404 -25.0117 -87.6904c-1.32715 -31.4424 2.12305 -64.8838 12.6025 -94.6924c3.76855 -10.7207 11.6553 -36.2441 22.9385 -41.6973c17.1904 -8.30957 31.8232 25.5703 37.3545 36.0459z" />
    <glyph glyph-name="b" unicode="b" horiz-adv-x="440" 
d="M469.106 122.741c6.81934 -12.3232 -19.8584 -25.4912 -26.7598 -13.0557c-16.5039 29.7471 -43.9062 37.7812 -73.1094 36.7803c4.57227 -104.827 -50.376 -248.588 -171.446 -250.73c-54.2998 -0.958984 -90.334 46.6494 -84.1357 98.6201
c5.82617 48.8779 45.3535 86.8486 84.3652 112.586c32.2305 21.2656 67.3291 37.8271 104.163 48.9121c-0.962891 20.0625 -3.43164 39.6514 -7.06836 57.9482c-6.64844 33.4375 -30.0059 105.58 -77.7461 84.5977c-37.2529 -16.375 -61.2744 -59.6982 -77.8398 -94.6572
c-29.1641 -61.5459 -45.1514 -137.115 -45.8154 -205.047c-0.0078125 -0.554688 -0.12793 -1.08691 -0.224609 -1.62207c1.17969 -3.26074 2.46094 -6.4668 3.98633 -9.54883c11.3994 -23.04 -33.9893 -48.5098 -49.8525 -30.5352
c-21.8438 24.751 -30.0137 51.8428 -37.5049 83.3359c-7.41699 31.1787 -12.8896 62.7266 -17.2363 94.4717c-9.04004 66.0098 -12.3936 132.548 -10.2549 199.136c3.53613 110.117 23.2568 223.153 98.5781 308.294c32.5527 36.7988 75.7949 67.5078 124.878 76.707
c44.7168 8.38379 85.8818 -11.2949 100.817 -55.7285c16.0225 -47.6709 1.97559 -100.077 -16.6895 -144.771c-20.2295 -48.4395 -50.3916 -90.0127 -82.5488 -131.14c-58.0303 -74.2227 -113.976 -158.72 -139.088 -251.104
c0.0117188 -0.0703125 0.0195312 -0.136719 0.0273438 -0.207031c2.24707 -16.4844 4.8125 -32.9492 7.56445 -49.375c4.49023 22.1045 10.1377 43.9521 16.5303 65.2764c14.6904 48.998 37.6016 98.9551 74.292 135.42c36.2129 35.9912 84.5273 51.2725 130.518 22.4346
c44.5537 -27.9375 63.3896 -90.1475 69.7354 -140.582c40.9678 3.49707 80.3125 -7.46777 101.865 -46.417zM61.3164 202.927c26.9014 62.9824 65.3604 122.276 105.928 174.636c28.4502 36.7217 58.6162 72.6592 79.832 114.26
c21.79 42.7295 41.9346 94.3633 32.1191 143.09c-4.35449 21.623 -15.7148 44.3682 -37.7412 52.1934c-20.3848 7.24219 -42.543 -0.923828 -59.2832 -12.9404c-33.0342 -23.7148 -59.1631 -57.0752 -77.4912 -93.082c-44.958 -88.3203 -49.8174 -192.888 -47.8965 -290.15
c0.582031 -29.3545 2.0918 -58.7207 4.5332 -88.0059zM247.81 -30.1445c39.1436 42.5127 54.1904 103.953 54.7998 163.78c-41.7246 -12.7852 -82.0752 -33.3564 -114.876 -61.958c-31.5283 -27.4912 -56.291 -70.4072 -34.3105 -111.825
c20.9707 -39.5117 71.3857 -14.9775 94.3867 10.0029z" />
    <glyph glyph-name="c" unicode="c" horiz-adv-x="244" 
d="M244.143 113.355c4.40527 12.4746 33.7256 17.4805 28.2959 1.71484c-22.4453 -65.1797 -65.8076 -131.244 -134.709 -153.084c-62.7383 -19.8877 -118.055 16.29 -141.567 74.5762c-23.4512 58.127 -22.3105 123.423 -0.00488281 181.658
c21.3477 55.7363 72.2246 123.45 140.105 113.739c70.7842 -10.126 59.9043 -97.5957 47.915 -148.329c-3.32227 -14.0508 -34.043 -20.4746 -30.8447 -1.86719c4.94141 28.7412 11.6406 71.7617 -12.1865 94.4717c-18.4365 17.5713 -36.376 6.91699 -49.4756 -10.3936
c-30.833 -40.7422 -42.9424 -93.7109 -39.709 -143.994c2.79883 -43.5332 19.4111 -104.637 63.002 -124.963c62.6445 -29.2109 113.219 71.2881 129.179 116.471z" />
    <glyph glyph-name="d" unicode="d" horiz-adv-x="466" 
d="M464.339 132.782c3.36914 13.5068 33.4307 18.8936 29.3164 1.77734c-15.875 -65.9941 -41.0996 -133.347 -91.541 -180.959c-24.5918 -23.2139 -54.5752 -38.332 -89.1191 -32.9443c-36.0186 5.61621 -62.8809 32.1533 -82.4004 61.1279
c-33.9111 50.3291 -44.876 114.573 -49.5566 174.823c-1.64941 -5.68262 -3.3418 -11.3496 -5.09961 -17.0049c-11.5898 -37.2998 -24.7207 -75.2129 -46.7354 -107.801c-15.8164 -23.4121 -38.9062 -41.5693 -68.8115 -37.54
c-32.3428 4.3584 -56.0928 31.6709 -67.0264 61.0254c-23.7344 63.7236 -21.4014 146.602 17.0586 204.402c27.6006 41.4795 77.375 61.7598 126.338 54.0205c15.8828 -2.51074 30.791 -9.26855 43.3428 -19.209c2.05664 29.4365 5.6543 58.752 11.0146 87.7568
c12.2188 66.1074 33.4414 131.97 66.5342 190.683c30.9766 54.96 81.7832 116.968 147.657 128.491c26.0869 4.56445 55.127 -1.23047 72.0811 -23.1133c16.3369 -21.083 17.8389 -49.8398 15.4365 -75.3252c-6.36133 -67.4697 -40.9053 -133.018 -71.9639 -192.104
c-32.5684 -61.9502 -69.3203 -121.56 -104.055 -182.291c-17.3574 -30.3486 -34.416 -60.9492 -49.8486 -92.3301c-2.22363 -4.51758 -4.10254 -9.04297 -5.75977 -13.5762c4.4248 -31.5283 11.4932 -62.6025 23.4512 -92.1045
c9.64941 -23.8086 20.5518 -51.9092 42.1748 -67.4971c30.0459 -21.6543 52.8525 0.208984 72.3096 23.8926c34.2686 41.7129 52.3125 94.1152 65.2021 145.799zM117.135 59.6729c27.6699 52.4326 43.7324 112.974 55.1592 172.105
c-16.0762 24.3672 -38.8135 46.0947 -64.7529 41.5693c-5.21289 -0.908203 -10.7402 -2.29004 -15.7705 -4.22266c2.39844 0.625 -8.52344 -5.65527 -10.0254 -6.9668c-4.7627 -4.15332 -8.96973 -9.21094 -12.4941 -14.4512
c-16.8799 -25.0928 -23.7539 -57.9404 -25.0117 -87.6904c-1.32715 -31.4424 2.12305 -64.8838 12.6025 -94.6924c3.76855 -10.7207 11.6553 -36.2441 22.9385 -41.6973c17.1904 -8.30957 31.8232 25.5703 37.3545 36.0459zM254.625 196.067
c0.361328 -6.77246 0.766602 -13.5703 1.24023 -20.374c7.24219 13.2549 14.7607 26.3506 22.0654 39.3457c32.0098 56.9473 66.29 112.598 97.8379 169.809c28.8887 52.3906 58.6973 107.323 75.418 165.027c7.6582 26.4355 13.3945 56.1855 7.58789 83.5684
c-6.02734 28.4189 -31.9736 45.043 -58.8789 29.502c-21.5566 -12.4551 -38.2969 -35.374 -51.9746 -55.666c-15.8555 -23.5244 -28.501 -49.3857 -39.8965 -75.2939c-22.7295 -51.6836 -37.5215 -106.353 -45.9248 -162.146
c-8.65527 -57.4629 -10.584 -115.78 -7.47461 -173.771z" />
    <glyph glyph-name="e" unicode="e" horiz-adv-x="267" 
d="M265.77 120.734c4.77832 12.8164 35.4121 18.2549 29.5703 1.79395c-27.4062 -77.2188 -76.5869 -164.056 -161.126 -187.391c-36.1465 -9.97852 -73.5781 -1.3584 -102.017 22.8691c-31.6211 26.9365 -44.1426 66.6895 -49.9141 106.492
c-11.4307 78.791 6.69531 175.063 58.7207 237.382c25.7217 30.8096 66.002 57.5205 107.766 53.6318c30.666 -2.85645 58.7363 -29.1836 55.6006 -61.3789c-3.07031 -31.5244 -29.5215 -58.5234 -55.957 -73.1602c-25.3721 -14.0508 -53.8105 -18.4678 -82.1172 -16.415
c-6.87402 -23.9863 -10.9766 -49.0479 -11.8223 -73.5469c-1.79688 -52.0527 4.52148 -158.362 75.1387 -165.441c35.3398 -3.54004 62.9092 28.6016 82.0244 54.2881c22.791 30.6279 40.8125 65.1562 54.1328 100.876zM76.7188 234.99
c-0.554688 -1.3623 -1.04297 -2.77246 -1.58203 -4.1543c29.9482 -2.44141 61.0068 3.3418 80.7354 28.167c9.45117 11.8848 16.8447 28.9277 5.39844 41.9072c-9.43555 10.7012 -24.1807 10.4141 -35.4756 3.43555c-23.0479 -14.2363 -39.1514 -45.0234 -49.0762 -69.3555z
" />
    <glyph glyph-name="e" unicode="&#xeb;" horiz-adv-x="267" 
d="M265.77 120.734c4.77832 12.8164 35.4121 18.2549 29.5703 1.79395c-27.4062 -77.2188 -76.5869 -164.056 -161.126 -187.391c-36.1465 -9.97852 -73.5781 -1.3584 -102.017 22.8691c-31.6211 26.9365 -44.1426 66.6895 -49.9141 106.492
c-11.4307 78.791 6.69531 175.063 58.7207 237.382c25.7217 30.8096 66.002 57.5205 107.766 53.6318c30.666 -2.85645 58.7363 -29.1836 55.6006 -61.3789c-3.07031 -31.5244 -29.5215 -58.5234 -55.957 -73.1602c-25.3721 -14.0508 -53.8105 -18.4678 -82.1172 -16.415
c-6.87402 -23.9863 -10.9766 -49.0479 -11.8223 -73.5469c-1.79688 -52.0527 4.52148 -158.362 75.1387 -165.441c35.3398 -3.54004 62.9092 28.6016 82.0244 54.2881c22.791 30.6279 40.8125 65.1562 54.1328 100.876zM76.7188 234.99
c-0.554688 -1.3623 -1.04297 -2.77246 -1.58203 -4.1543c29.9482 -2.44141 61.0068 3.3418 80.7354 28.167c9.45117 11.8848 16.8447 28.9277 5.39844 41.9072c-9.43555 10.7012 -24.1807 10.4141 -35.4756 3.43555c-23.0479 -14.2363 -39.1514 -45.0234 -49.0762 -69.3555z
" />
    <glyph glyph-name="e" unicode="&#xea;" horiz-adv-x="267" 
d="M265.77 120.734c4.77832 12.8164 35.4121 18.2549 29.5703 1.79395c-27.4062 -77.2188 -76.5869 -164.056 -161.126 -187.391c-36.1465 -9.97852 -73.5781 -1.3584 -102.017 22.8691c-31.6211 26.9365 -44.1426 66.6895 -49.9141 106.492
c-11.4307 78.791 6.69531 175.063 58.7207 237.382c25.7217 30.8096 66.002 57.5205 107.766 53.6318c30.666 -2.85645 58.7363 -29.1836 55.6006 -61.3789c-3.07031 -31.5244 -29.5215 -58.5234 -55.957 -73.1602c-25.3721 -14.0508 -53.8105 -18.4678 -82.1172 -16.415
c-6.87402 -23.9863 -10.9766 -49.0479 -11.8223 -73.5469c-1.79688 -52.0527 4.52148 -158.362 75.1387 -165.441c35.3398 -3.54004 62.9092 28.6016 82.0244 54.2881c22.791 30.6279 40.8125 65.1562 54.1328 100.876zM76.7188 234.99
c-0.554688 -1.3623 -1.04297 -2.77246 -1.58203 -4.1543c29.9482 -2.44141 61.0068 3.3418 80.7354 28.167c9.45117 11.8848 16.8447 28.9277 5.39844 41.9072c-9.43555 10.7012 -24.1807 10.4141 -35.4756 3.43555c-23.0479 -14.2363 -39.1514 -45.0234 -49.0762 -69.3555z
" />
    <glyph glyph-name="e" unicode="&#xe9;" horiz-adv-x="267" 
d="M265.77 120.734c4.77832 12.8164 35.4121 18.2549 29.5703 1.79395c-27.4062 -77.2188 -76.5869 -164.056 -161.126 -187.391c-36.1465 -9.97852 -73.5781 -1.3584 -102.017 22.8691c-31.6211 26.9365 -44.1426 66.6895 -49.9141 106.492
c-11.4307 78.791 6.69531 175.063 58.7207 237.382c25.7217 30.8096 66.002 57.5205 107.766 53.6318c30.666 -2.85645 58.7363 -29.1836 55.6006 -61.3789c-3.07031 -31.5244 -29.5215 -58.5234 -55.957 -73.1602c-25.3721 -14.0508 -53.8105 -18.4678 -82.1172 -16.415
c-6.87402 -23.9863 -10.9766 -49.0479 -11.8223 -73.5469c-1.79688 -52.0527 4.52148 -158.362 75.1387 -165.441c35.3398 -3.54004 62.9092 28.6016 82.0244 54.2881c22.791 30.6279 40.8125 65.1562 54.1328 100.876zM76.7188 234.99
c-0.554688 -1.3623 -1.04297 -2.77246 -1.58203 -4.1543c29.9482 -2.44141 61.0068 3.3418 80.7354 28.167c9.45117 11.8848 16.8447 28.9277 5.39844 41.9072c-9.43555 10.7012 -24.1807 10.4141 -35.4756 3.43555c-23.0479 -14.2363 -39.1514 -45.0234 -49.0762 -69.3555z
" />
    <glyph glyph-name="f" unicode="f" horiz-adv-x="333" 
d="M358.918 145.055c15.8125 -9.48242 -7.67285 -30.1006 -20.124 -22.7842c-42.6943 25.1123 -100.243 19.4219 -147.227 11.5508c-24.4873 -4.10254 -48.6719 -10.4404 -72.0527 -18.793c-10.1113 -3.60938 -26.2695 -7.36621 -34.4395 -14.2979
c-6.80371 -0.713867 -8.08105 -2.89941 -3.83496 -6.55176c1.86719 -0.675781 3.73828 -1.35547 5.60547 -2.03125c4.97949 -2.41406 12.1289 -2.8877 17.5625 -4.22266c81.5391 -20.0547 178.072 -55.3242 204.655 -144.583
c20.5479 -68.999 -14.2441 -145.822 -88.0244 -161.798c-79.9209 -17.3027 -148.205 53.3027 -181.406 117.981c-39.6289 77.2002 -52.8369 169.386 -54.4512 255.237c-1.58789 84.3223 7.0752 171.389 36.6934 250.797c27.1543 72.7988 75.2676 155.437 147.907 190.784
c33.9268 16.5068 75.0342 22.1348 103.671 -6.54785c27.627 -27.6777 31.6211 -65.0352 26.0557 -102.351c-21.3047 -142.821 -133.879 -243.107 -211.696 -359.226c0.916016 0.373047 1.8125 0.742188 2.68555 1.10742c17.4346 7.3125 35.3154 13.6855 53.5029 18.8477
c36.9971 10.5029 75.6162 16.4062 114.072 17.0703c34.6875 0.601562 70.4541 -1.96777 100.845 -20.1904zM97.3633 60.418c-6.35742 1.61035 -16.0332 3.49609 -25.3721 6.45801c1.64551 -10.4717 3.49707 -20.8857 5.58496 -31.2178
c13.9072 -68.7617 37.1758 -142.212 92.209 -189.277c24.5029 -20.9551 55.3906 -33.2393 83.3672 -11.4414c30.4141 23.6953 34.9902 64.5312 23.4277 99.2812c-25.3877 76.3027 -108.099 108.195 -179.217 126.197zM64.0186 141.657
c32.708 48.1133 70.3525 92.9365 105.133 139.648c48.1055 64.6084 104.304 149.501 98.583 234.095c-2.7207 40.2451 -34.1514 71.9209 -73.1279 47.7363c-29.5332 -18.3242 -49.9883 -49.0996 -66.4062 -78.9473c-34.8662 -63.3818 -52.5537 -135.715 -60.541 -207.213
c-4.97168 -44.4922 -6.24512 -90.0625 -3.64062 -135.319z" />
    <glyph glyph-name="g" unicode="g" horiz-adv-x="385" 
d="M385.929 112.075c4.33887 12.3154 33.1689 17.0703 27.7852 1.68457c-25.9814 -74.2031 -87.4814 -133.211 -157.819 -169.443c-0.849609 -11.6943 -1.74609 -23.3613 -2.73926 -34.9785c-8.7832 -102.681 -19.9805 -234.503 -128.806 -280.214
c-92.3525 -38.79 -203.72 39.1826 -205.334 137.68c-0.772461 47.2129 21.6309 92.2324 60.4717 119.266c44.7988 31.1826 99.5176 37.4121 152.168 44.3555c17.7529 2.34082 35.6455 6.05566 53.3252 11.0664c0.361328 9.86621 0.71875 19.7324 0.947266 29.5947
c1.44727 62.6953 -0.516602 124.844 -3.95117 187.007c-1.77734 -6.17871 -3.60547 -12.3457 -5.51465 -18.4941c-11.5898 -37.2998 -24.7207 -75.2129 -46.7354 -107.801c-15.8164 -23.4121 -38.9062 -41.5693 -68.8115 -37.54
c-32.3428 4.3584 -56.0928 31.6709 -67.0264 61.0254c-23.7344 63.7236 -21.4014 146.602 17.0586 204.402c27.6006 41.4795 77.375 61.7598 126.338 54.0205c14.0547 -2.21973 27.3643 -7.75098 38.9424 -15.8789c12.8125 27.3633 67.2988 41.5996 72.2627 6.50098
c15.4629 -109.321 16.0449 -222.757 9.17871 -333.658c57.7354 30.958 106.023 78.3027 128.26 141.405zM117.662 59.6689c27.6699 52.4326 43.7324 112.974 55.1592 172.105c-16.0762 24.3672 -38.8135 46.0947 -64.7529 41.5693
c-5.21289 -0.908203 -10.7402 -2.29004 -15.7705 -4.22266c2.39844 0.625 -8.52344 -5.65527 -10.0254 -6.9668c-4.7627 -4.15332 -8.96973 -9.21094 -12.4941 -14.4512c-16.8799 -25.0928 -23.7539 -57.9404 -25.0117 -87.6904
c-1.32715 -31.4424 2.12305 -64.8838 12.6025 -94.6924c3.76855 -10.7207 11.6553 -36.2441 22.9385 -41.6973c17.1904 -8.30957 31.8232 25.5703 37.3545 36.0459zM176.715 -186.489c3.20215 34.1289 5.54688 68.4004 7.18457 102.688
c-85.9756 -22.1201 -219.638 -11.6328 -231.682 -126.605c-4.82031 -46.0059 18.2773 -90.3115 54.708 -117.582c40.001 -29.9443 105.021 -41.7861 136.771 5.35254c26.1289 38.7979 28.7881 91.0488 33.0186 136.146z" />
    <glyph glyph-name="h" unicode="h" horiz-adv-x="426" 
d="M424.742 109.432c5.05371 13.2432 36.5996 18.3643 30.335 1.83789c-24.3438 -64.2168 -39.458 -135.062 -78.877 -192.394c-16.5459 -24.0645 -38.0752 -46.0254 -67.9229 -51.374c-33.7246 -6.04297 -65.8506 7.06055 -80.1533 39.7803
c-15.04 34.4082 -8.57031 76.1211 -5.37988 112.218c3.74512 42.376 9.42383 84.5781 12.6494 126.989c1.61426 21.1885 2.15332 42.5664 2.26172 63.8086c0.0927734 18.4639 3.82617 39.7021 -2.0459 57.6025c-9.02441 27.499 -34.6914 23.1602 -50.5039 4.45215
c-11.6826 -13.8252 -20.1055 -30.3438 -27.3359 -46.8359c-32.7041 -74.5684 -49.9688 -157.222 -60.4443 -237.646c0.0546875 -0.112305 0.09375 -0.228516 0.148438 -0.34082c11.3994 -23.04 -33.9893 -48.5098 -49.8525 -30.5352
c-21.8438 24.751 -30.0137 51.8428 -37.5049 83.3359c-7.41699 31.1787 -12.8896 62.7266 -17.2363 94.4717c-9.04004 66.0098 -12.3936 132.548 -10.2549 199.136c3.53613 110.117 23.2568 223.153 98.5781 308.294c32.5527 36.7988 75.7949 67.5078 124.878 76.707
c44.7168 8.38379 85.8818 -11.2949 100.817 -55.7285c16.0225 -47.6709 1.97559 -100.077 -16.6895 -144.771c-20.2295 -48.4395 -50.3916 -90.0127 -82.5488 -131.14c-58.0342 -74.2266 -113.976 -158.724 -139.088 -251.107
c0.0117188 -0.0703125 0.0195312 -0.136719 0.0273438 -0.207031c3.41211 -25.0498 7.52637 -50.0576 12.002 -74.9521c11.5039 64.6631 29.0049 129.656 58.623 186.557c13.8135 26.5371 34.3457 56.1631 65.043 64.1318
c29.8516 7.74707 52.7549 -10.9414 67.9619 -35.1182c42.8574 -68.1328 27.8291 -162.092 23.0166 -237.867c-1.38574 -21.8252 -2.51562 -43.7197 -2.99316 -65.583c-0.353516 -16.1426 -1.19141 -33.748 4.0752 -49.2852
c3.4502 -10.1768 12.4668 -29.9287 24.9648 -25.4531c13.6582 4.89062 24.8633 21.9492 32.2842 33.6475c34.2451 53.9658 48.5986 118.237 71.165 177.369zM61.3115 202.924c26.9014 62.9824 65.3643 122.276 105.932 174.636
c28.4502 36.7217 58.6162 72.6592 79.832 114.26c21.79 42.7295 41.9346 94.3633 32.1191 143.09c-4.35449 21.623 -15.7148 44.3682 -37.7412 52.1934c-20.3848 7.24219 -42.543 -0.923828 -59.2832 -12.9404c-33.0342 -23.7148 -59.1631 -57.0752 -77.4912 -93.082
c-44.958 -88.3203 -49.8174 -192.888 -47.8965 -290.15c0.578125 -29.3545 2.08789 -58.7207 4.5293 -88.0059z" />
    <glyph glyph-name="i" unicode="i" horiz-adv-x="181" 
d="M179.232 124.01c2.84863 13.2939 31.9893 18.6152 28.5508 1.72754c-8.83008 -43.3623 -27.4414 -91.5068 -61.2676 -121.622c-32.1875 -28.6562 -79.3066 -38.1035 -114.169 -8.25977c-35.5264 30.4141 -43.8516 88.0088 -47.5967 131.845
c-4.5918 53.7451 -0.03125 108.507 6.96289 161.829c3.64453 27.7861 71.2734 46.3232 69.6475 11.4492c-3.62891 -77.7314 -12.4941 -156.029 6.04297 -232.74c6.1748 -25.5703 28.6826 -76.4043 61.6504 -47.9658c28.2139 24.3359 42.6641 68.665 50.1787 103.737z
M28.501 378.187c-7.24219 -12.1406 -32.5215 -15.8545 -34.8193 -3.66699c-20.0977 21.2461 -54.6807 64.5654 -27.9111 90.8496c23.4668 23.0439 36.7568 0.408203 45.6797 -24.1377c9.49805 17.9668 21.6074 34.4355 37.7383 44.3135
c8.14648 4.9873 22.6553 8.46875 25.5195 -4.21191c3.31836 -14.6797 -11.7139 -32.9297 -18.1143 -45.3652c-9.75781 -18.9521 -17.1943 -39.5156 -28.0928 -57.7812z" />
    <glyph glyph-name="i" unicode="&#xef;" horiz-adv-x="181" 
d="M179.232 124.01c2.84863 13.2939 31.9893 18.6152 28.5508 1.72754c-8.83008 -43.3623 -27.4414 -91.5068 -61.2676 -121.622c-32.1875 -28.6562 -79.3066 -38.1035 -114.169 -8.25977c-35.5264 30.4141 -43.8516 88.0088 -47.5967 131.845
c-4.5918 53.7451 -0.03125 108.507 6.96289 161.829c3.64453 27.7861 71.2734 46.3232 69.6475 11.4492c-3.62891 -77.7314 -12.4941 -156.029 6.04297 -232.74c6.1748 -25.5703 28.6826 -76.4043 61.6504 -47.9658c28.2139 24.3359 42.6641 68.665 50.1787 103.737z
M28.501 378.187c-7.24219 -12.1406 -32.5215 -15.8545 -34.8193 -3.66699c-20.0977 21.2461 -54.6807 64.5654 -27.9111 90.8496c23.4668 23.0439 36.7568 0.408203 45.6797 -24.1377c9.49805 17.9668 21.6074 34.4355 37.7383 44.3135
c8.14648 4.9873 22.6553 8.46875 25.5195 -4.21191c3.31836 -14.6797 -11.7139 -32.9297 -18.1143 -45.3652c-9.75781 -18.9521 -17.1943 -39.5156 -28.0928 -57.7812z" />
    <glyph glyph-name="i" unicode="&#xee;" horiz-adv-x="181" 
d="M179.232 124.01c2.84863 13.2939 31.9893 18.6152 28.5508 1.72754c-8.83008 -43.3623 -27.4414 -91.5068 -61.2676 -121.622c-32.1875 -28.6562 -79.3066 -38.1035 -114.169 -8.25977c-35.5264 30.4141 -43.8516 88.0088 -47.5967 131.845
c-4.5918 53.7451 -0.03125 108.507 6.96289 161.829c3.64453 27.7861 71.2734 46.3232 69.6475 11.4492c-3.62891 -77.7314 -12.4941 -156.029 6.04297 -232.74c6.1748 -25.5703 28.6826 -76.4043 61.6504 -47.9658c28.2139 24.3359 42.6641 68.665 50.1787 103.737z
M28.501 378.187c-7.24219 -12.1406 -32.5215 -15.8545 -34.8193 -3.66699c-20.0977 21.2461 -54.6807 64.5654 -27.9111 90.8496c23.4668 23.0439 36.7568 0.408203 45.6797 -24.1377c9.49805 17.9668 21.6074 34.4355 37.7383 44.3135
c8.14648 4.9873 22.6553 8.46875 25.5195 -4.21191c3.31836 -14.6797 -11.7139 -32.9297 -18.1143 -45.3652c-9.75781 -18.9521 -17.1943 -39.5156 -28.0928 -57.7812z" />
    <glyph glyph-name="i" unicode="&#xed;" horiz-adv-x="181" 
d="M179.232 124.01c2.84863 13.2939 31.9893 18.6152 28.5508 1.72754c-8.83008 -43.3623 -27.4414 -91.5068 -61.2676 -121.622c-32.1875 -28.6562 -79.3066 -38.1035 -114.169 -8.25977c-35.5264 30.4141 -43.8516 88.0088 -47.5967 131.845
c-4.5918 53.7451 -0.03125 108.507 6.96289 161.829c3.64453 27.7861 71.2734 46.3232 69.6475 11.4492c-3.62891 -77.7314 -12.4941 -156.029 6.04297 -232.74c6.1748 -25.5703 28.6826 -76.4043 61.6504 -47.9658c28.2139 24.3359 42.6641 68.665 50.1787 103.737z
M28.501 378.187c-7.24219 -12.1406 -32.5215 -15.8545 -34.8193 -3.66699c-20.0977 21.2461 -54.6807 64.5654 -27.9111 90.8496c23.4668 23.0439 36.7568 0.408203 45.6797 -24.1377c9.49805 17.9668 21.6074 34.4355 37.7383 44.3135
c8.14648 4.9873 22.6553 8.46875 25.5195 -4.21191c3.31836 -14.6797 -11.7139 -32.9297 -18.1143 -45.3652c-9.75781 -18.9521 -17.1943 -39.5156 -28.0928 -57.7812z" />
    <glyph glyph-name="j" unicode="j" horiz-adv-x="194" 
d="M194.929 112.075c4.33887 12.3154 33.1758 17.0703 27.7842 1.68066c-25.9814 -74.2031 -87.4814 -133.211 -157.819 -169.443c-0.845703 -11.6943 -1.74219 -23.3613 -2.73535 -34.9785c-8.7832 -102.681 -19.9805 -234.503 -128.806 -280.214
c-92.3525 -38.79 -203.72 39.1826 -205.334 137.68c-0.772461 47.2129 21.6309 92.2324 60.4717 119.266c44.7988 31.1826 99.5137 37.4121 152.168 44.3555c17.7529 2.34082 35.6455 6.05566 53.3252 11.0664c0.361328 9.86621 0.722656 19.7324 0.948242 29.5947
c2.42578 105.083 -4.69238 208.625 -12.3506 313.281c-2.58105 35.2695 69.1768 60.4824 74.9092 19.9648c15.4629 -109.321 16.0449 -222.757 9.17871 -333.658c57.7354 30.958 106.023 78.3027 128.26 141.405zM-14.2842 -186.489
c3.20215 34.1289 5.55078 68.4004 7.18457 102.688c-85.9756 -22.1201 -219.638 -11.6328 -231.682 -126.605c-4.82031 -46.0059 18.2773 -90.3115 54.708 -117.582c40.001 -29.9443 105.021 -41.7861 136.771 5.35254c26.1328 38.7979 28.7881 91.0488 33.0186 136.146z
M-8.35352 367.074c-20.3145 18.3467 -75.9053 68.3291 -40.4062 96.1895c22.0537 17.3105 38.7158 1.80859 50.6934 -18.9639c1.03223 2.16992 2.11523 4.32812 3.29492 6.45508c7.63867 13.7676 19.7793 32.9922 38.1611 31.0791
c35.9141 -3.7373 -11.4619 -85.4824 -19.749 -99.708c-1.25781 -2.1582 -3.16016 -3.94727 -5.40332 -5.37207c-2.41016 -9.19141 -18.7852 -16.7285 -26.5908 -9.67969z" />
    <glyph glyph-name="k" unicode="k" horiz-adv-x="334" 
d="M333.783 105.612c7.43652 12.9834 38.2832 13.0312 28.2773 -4.66797c-17.2256 -30.4766 -38.1191 -58.8027 -62.6533 -83.8145c-22.7676 -23.21 -46.6729 -42.1777 -80.083 -45.333c-37.2451 -3.5166 -66.999 15.2998 -83.8945 47.8096
c-7.99512 15.3857 -12.8584 32.6191 -16.918 49.4062c-0.876953 3.62891 -1.66113 7.61133 -2.49609 11.6904c-7.99121 -29.5488 -14.3057 -59.5479 -20.0928 -89.6045c0.520508 -1.1875 0.978516 -2.41406 1.55273 -3.57422
c11.3994 -23.04 -33.9854 -48.5098 -49.8525 -30.5352c-21.8438 24.751 -30.0137 51.8428 -37.5049 83.3359c-7.41699 31.1787 -12.8896 62.7266 -17.2363 94.4717c-9.04004 66.0098 -12.3936 132.548 -10.2549 199.136c3.53613 110.117 23.2568 223.153 98.5781 308.294
c32.5527 36.7988 75.7949 67.5078 124.878 76.707c44.7168 8.38379 85.8818 -11.2949 100.817 -55.7285c16.0225 -47.6709 1.97559 -100.077 -16.6895 -144.771c-20.2295 -48.4395 -50.3916 -90.0127 -82.5488 -131.14
c-58.0303 -74.2227 -113.976 -158.72 -139.088 -251.104c0.0117188 -0.0703125 0.0195312 -0.136719 0.0273438 -0.207031c3.46191 -25.4463 7.64941 -50.8457 12.2061 -76.125c10.0332 41.2002 22.7676 81.6865 41.0918 120.038
c11.2207 23.4824 25.6475 47.2754 48.0781 61.6094c19.127 12.2227 54.5283 17.7188 63.2842 -10.0518c7.87891 -24.9805 -41.2588 -40.3389 -43.1533 -16.1426c-1.30762 16.6816 -16.2588 -1.59961 -20.5283 -6.84375
c-6.83496 -8.39551 -12.0752 -18.1221 -16.915 -27.7598c-8.39551 -16.7207 -15.4678 -34.0977 -21.7051 -51.7383c24.9727 -4.35059 37.1484 -21.5996 47.6826 -44.4375c10.9648 -23.7734 20.3613 -46.4014 38.4326 -65.8818
c9.8623 -10.6309 19.4922 -19.0498 33.9541 -10.3516c12.2998 7.40137 23.0391 19.208 32.8203 29.4707c19.5039 20.4658 35.8945 43.3389 49.9336 67.8418zM61.3115 202.926c26.9014 62.9824 65.3643 122.276 105.928 174.636
c28.4463 36.7217 58.6123 72.6592 79.832 114.26c21.79 42.7295 41.9346 94.3633 32.1191 143.09c-4.35449 21.623 -15.7148 44.3682 -37.7412 52.1934c-20.3848 7.24219 -42.543 -0.923828 -59.2832 -12.9404c-33.0342 -23.7148 -59.1631 -57.0752 -77.4912 -93.082
c-44.958 -88.3203 -49.8174 -192.888 -47.8965 -290.15c0.582031 -29.3545 2.0918 -58.7207 4.5332 -88.0059z" />
    <glyph glyph-name="l" unicode="l" horiz-adv-x="272" 
d="M270.365 132.782c3.36914 13.5068 33.4326 18.8916 29.3105 1.77441c-15.875 -65.9941 -41.0996 -133.347 -91.541 -180.959c-24.5918 -23.2139 -54.5752 -38.332 -89.1191 -32.9443c-36.0186 5.61621 -62.8809 32.1533 -82.4004 61.1279
c-37.5947 55.7979 -47.0186 128.717 -50.9033 194.312c-4.0752 68.7969 -1.10645 138.331 11.4307 206.165c12.2188 66.1074 33.4414 131.97 66.5332 190.683c30.9766 54.96 81.7832 116.968 147.657 128.491c26.0869 4.56445 55.127 -1.23047 72.0811 -23.1133
c16.3369 -21.083 17.8389 -49.8398 15.4365 -75.3252c-6.35742 -67.4697 -40.9053 -133.018 -71.9639 -192.104c-32.5645 -61.9502 -69.3164 -121.56 -104.051 -182.291c-17.3574 -30.3486 -34.4199 -60.9492 -49.8486 -92.3301
c-2.22363 -4.51758 -4.10254 -9.04297 -5.75977 -13.5762c4.4248 -31.5244 11.4932 -62.6025 23.4512 -92.1045c9.64941 -23.8086 20.5518 -51.9092 42.1748 -67.4971c30.0459 -21.6543 52.8525 0.208984 72.3096 23.8926c34.2686 41.7129 52.3125 94.1152 65.2021 145.799z
M60.6475 196.064c0.365234 -6.77246 0.770508 -13.5703 1.24023 -20.374c7.24219 13.2549 14.7607 26.3506 22.0654 39.3457c32.0098 56.9473 66.29 112.598 97.8379 169.809c28.8887 52.3906 58.6973 107.323 75.418 165.027
c7.6582 26.4355 13.3945 56.1855 7.58789 83.5684c-6.03125 28.4189 -31.9736 45.043 -58.8789 29.502c-21.5566 -12.4551 -38.2969 -35.374 -51.9746 -55.666c-15.8555 -23.5244 -28.501 -49.3857 -39.8965 -75.2939
c-22.7295 -51.6836 -37.5215 -106.353 -45.9248 -162.146c-8.65527 -57.4629 -10.584 -115.78 -7.47461 -173.771z" />
    <glyph glyph-name="m" unicode="m" horiz-adv-x="512" 
d="M510.05 102.115c4.62695 13.3711 35.8281 18.541 30.0762 1.82031c-11.1436 -32.4404 -26.0986 -62.9287 -45.8545 -91.0176c-16.2744 -23.1406 -35.002 -46.5332 -63.2041 -55.1846c-23.8779 -7.32422 -59.4932 -2.33691 -77.5254 15.9951
c-25.7139 26.1406 -28.2754 65.0352 -32.3193 99.3574c-4.61914 39.1475 -7.95312 78.3184 -8.14355 117.749c-0.0849609 17.4932 0.625 34.9746 0.275391 52.4639c-0.194336 9.72656 1.31934 61.7988 -17.6602 41.2236c-23.1797 -25.124 -35.1807 -62.626 -46.0566 -94.375
c-12.1641 -35.5029 -21.6465 -71.999 -28.6211 -108.864c-0.178711 -0.939453 -0.524414 -1.82812 -0.947266 -2.68164c-0.0507812 -4.14551 -0.109375 -8.2793 -0.175781 -12.3936c-0.500977 -31.9082 -67.1123 -55.9453 -68.9521 -18.3779
c-2.13086 43.5215 -0.876953 87.3691 0.101562 130.922c0.481445 21.4561 1.42871 43.2344 0.294922 64.6709c-0.473633 8.9502 -0.772461 19.2549 -3.60156 27.833c-2.24316 6.7998 -2.40234 9.50488 -9.27246 7.29297
c-5.40234 -1.73926 -8.03027 -6.39648 -11.1396 -10.7588c-23.4121 -32.8477 -33.2207 -76.5127 -43.7158 -114.837c-8.72168 -31.8389 -16.5586 -63.9102 -24.9619 -95.834c0.349609 -15.8828 0.12793 -31.7266 -4.41309 -47.1123
c-5.69434 -19.29 -38.0029 -33.6396 -51.1494 -13.8135c-12.5059 18.8555 -14.4619 43.96 -16.7324 66.0293c-2.1582 20.9785 -2.86816 42.1943 -3.22168 63.2734c-0.75293 44.9033 1.91699 90.3809 9.25293 134.687c2.82129 17.0312 22.8447 28.4072 38.168 31.0117
c11.5898 1.96777 35.3672 -2.21289 34.0479 -19.1436c-2.92676 -37.54 -5.76758 -74.9561 -6.88574 -112.559c2.7793 10.0254 5.63965 20.0312 8.69043 29.9834c11.3408 36.9736 26.2803 95.4033 65.7227 112.442c44.29 19.1348 67.958 -36.0303 75.9453 -69.0176
c3.85449 -15.9131 6.5166 -32.207 8.36426 -48.6797c10.2773 33.2168 23.7607 65.2646 41.8125 92.9619c13.0684 20.0469 35.957 47.042 63.2432 40.5137c28.582 -6.83887 41.0098 -42.3027 47.2783 -67.0459c18.0791 -71.335 22.6084 -145.977 33.8252 -218.554
c1.97949 -12.8047 5.79492 -32.8281 14.5664 -43.1992c12.2344 -14.458 29.2461 4.4248 37.6338 13.9531c24.9844 28.3799 42.959 63.7354 55.2549 99.2646z" />
    <glyph glyph-name="n" unicode="n" horiz-adv-x="359" 
d="M358.533 104.153c6.18262 13.4492 35.7988 13.582 27.5625 -4.55176c-25.7949 -56.9004 -40.5557 -129.381 -107.151 -152.568c-23.0742 -8.03418 -54.1836 -11.2441 -77.2422 -1.82812c-28.7686 11.749 -39.7412 40.0166 -48.0088 67.8535
c-19.0498 64.1504 -16.0342 133.751 -17.6221 199.975c-0.40332 16.9189 -1.69922 33.6943 -2.98438 50.5547c-0.566406 7.4209 -0.589844 14.9395 -1.25 22.3447c-0.458008 5.13867 0.741211 10.6035 -3.05469 9.78809
c-5.11914 -1.10254 -12.5361 -18.8672 -14.6592 -23.249c-3.16699 -6.53223 -5.78711 -13.3086 -8.10059 -20.1826c-5.11523 -15.1797 -8.76758 -30.9229 -12.125 -46.5684c-12.0596 -56.2285 -19.4766 -113.622 -27.123 -170.729
c1.45898 -18.1299 2.28223 -36.2285 1.44043 -54.2227c-1.02441 -21.9727 -37.1865 -41.1113 -51.2217 -19.1621c-27.4912 42.9854 -30.1885 102.754 -32.0088 152.385c-1.94824 53.1436 -1.39746 107.315 5.2168 160.129c3.46191 27.6543 69.3438 47.4766 70.1592 11.5352
c0.749023 -32.9023 -0.900391 -65.7812 -1.75391 -98.6797c2.84473 14.1006 6.01172 28.1201 9.61328 42.0156c9.71484 37.4941 40.7695 122.601 92.9307 86.0576c23.3613 -16.3633 29.2148 -48.7451 35.6035 -74.8701c7.89844 -32.3086 11.5078 -65.168 14.3838 -98.2412
c2.7832 -31.9824 6.95215 -63.6777 12.2734 -95.334c3.7959 -22.5625 7.31641 -60.5449 30.209 -73.252c27.7207 -15.3857 56.9707 23.6562 68.083 43.8623c15.1875 27.6123 23.6953 58.3643 36.8301 86.9385z" />
    <glyph glyph-name="o" unicode="o" horiz-adv-x="287" 
d="M298.864 135.033c17.5742 10.0801 26.8711 -10.5605 10.0342 -20.5703c-26.8008 -15.9287 -56.1514 -23.6064 -86.3057 -26.5215c-6.83105 -67.4072 -35.7939 -133.087 -107.684 -144.071c-107.226 -16.3828 -121.074 113.926 -102.897 196.812
c-59.8232 60.3203 -41.5225 172.863 43.7656 198.67c40.1406 12.1445 82.1289 -0.858398 110.858 -30.8496c33.1582 -34.6143 45.415 -83.5342 53.0186 -129.474c3.29102 -19.8994 5.06055 -42.6172 4.49414 -65.9131c26.1172 2.2627 51.4238 8.55859 74.7158 21.918z
M140.841 -5.25781c25.6133 20.3037 33.7793 61.1895 39.5312 91.875c-6.93945 0.182617 -13.875 0.516602 -20.7959 0.990234c-26.8438 1.83594 -54.7314 5.6084 -80.7754 13.9961c-1.08691 -16.4922 -0.717773 -33.1006 1.58398 -49.8135
c3.49316 -25.3643 26.1719 -84.2285 60.4561 -57.0479zM184.451 112.327c3.81543 30.8486 3.5459 62.1895 -3.56055 92.6152c-8.16602 34.9863 -23.249 71.1445 -51.9707 94.1377c-27.7129 22.1816 -67.6514 26.8506 -95.2637 1.73828
c-26.4004 -24.0098 -30.9766 -67.0771 -20.4502 -99.6572c2.67773 -8.29395 6.39258 -15.9824 10.9414 -23.0615c7.98438 14.5859 22.3682 24.5498 39.8418 25.501c15.2773 0.831055 33.7139 -9.53613 28.6025 -27.3594
c-4.26172 -14.8613 -7.80566 -29.8477 -10.3135 -44.9424c0.341797 -0.143555 0.675781 -0.306641 1.02148 -0.450195c31.3379 -13.0566 67.042 -17.4893 101.151 -18.5215z" />
    <glyph glyph-name="o" unicode="&#xf6;" horiz-adv-x="287" 
d="M298.864 135.033c17.5742 10.0801 26.8711 -10.5605 10.0342 -20.5703c-26.8008 -15.9287 -56.1514 -23.6064 -86.3057 -26.5215c-6.83105 -67.4072 -35.7939 -133.087 -107.684 -144.071c-107.226 -16.3828 -121.074 113.926 -102.897 196.812
c-59.8232 60.3203 -41.5225 172.863 43.7656 198.67c40.1406 12.1445 82.1289 -0.858398 110.858 -30.8496c33.1582 -34.6143 45.415 -83.5342 53.0186 -129.474c3.29102 -19.8994 5.06055 -42.6172 4.49414 -65.9131c26.1172 2.2627 51.4238 8.55859 74.7158 21.918z
M140.841 -5.25781c25.6133 20.3037 33.7793 61.1895 39.5312 91.875c-6.93945 0.182617 -13.875 0.516602 -20.7959 0.990234c-26.8438 1.83594 -54.7314 5.6084 -80.7754 13.9961c-1.08691 -16.4922 -0.717773 -33.1006 1.58398 -49.8135
c3.49316 -25.3643 26.1719 -84.2285 60.4561 -57.0479zM184.451 112.327c3.81543 30.8486 3.5459 62.1895 -3.56055 92.6152c-8.16602 34.9863 -23.249 71.1445 -51.9707 94.1377c-27.7129 22.1816 -67.6514 26.8506 -95.2637 1.73828
c-26.4004 -24.0098 -30.9766 -67.0771 -20.4502 -99.6572c2.67773 -8.29395 6.39258 -15.9824 10.9414 -23.0615c7.98438 14.5859 22.3682 24.5498 39.8418 25.501c15.2773 0.831055 33.7139 -9.53613 28.6025 -27.3594
c-4.26172 -14.8613 -7.80566 -29.8477 -10.3135 -44.9424c0.341797 -0.143555 0.675781 -0.306641 1.02148 -0.450195c31.3379 -13.0566 67.042 -17.4893 101.151 -18.5215z" />
    <glyph glyph-name="o" unicode="&#xf5;" horiz-adv-x="287" 
d="M298.864 135.033c17.5742 10.0801 26.8711 -10.5605 10.0342 -20.5703c-26.8008 -15.9287 -56.1514 -23.6064 -86.3057 -26.5215c-6.83105 -67.4072 -35.7939 -133.087 -107.684 -144.071c-107.226 -16.3828 -121.074 113.926 -102.897 196.812
c-59.8232 60.3203 -41.5225 172.863 43.7656 198.67c40.1406 12.1445 82.1289 -0.858398 110.858 -30.8496c33.1582 -34.6143 45.415 -83.5342 53.0186 -129.474c3.29102 -19.8994 5.06055 -42.6172 4.49414 -65.9131c26.1172 2.2627 51.4238 8.55859 74.7158 21.918z
M140.841 -5.25781c25.6133 20.3037 33.7793 61.1895 39.5312 91.875c-6.93945 0.182617 -13.875 0.516602 -20.7959 0.990234c-26.8438 1.83594 -54.7314 5.6084 -80.7754 13.9961c-1.08691 -16.4922 -0.717773 -33.1006 1.58398 -49.8135
c3.49316 -25.3643 26.1719 -84.2285 60.4561 -57.0479zM184.451 112.327c3.81543 30.8486 3.5459 62.1895 -3.56055 92.6152c-8.16602 34.9863 -23.249 71.1445 -51.9707 94.1377c-27.7129 22.1816 -67.6514 26.8506 -95.2637 1.73828
c-26.4004 -24.0098 -30.9766 -67.0771 -20.4502 -99.6572c2.67773 -8.29395 6.39258 -15.9824 10.9414 -23.0615c7.98438 14.5859 22.3682 24.5498 39.8418 25.501c15.2773 0.831055 33.7139 -9.53613 28.6025 -27.3594
c-4.26172 -14.8613 -7.80566 -29.8477 -10.3135 -44.9424c0.341797 -0.143555 0.675781 -0.306641 1.02148 -0.450195c31.3379 -13.0566 67.042 -17.4893 101.151 -18.5215z" />
    <glyph glyph-name="o" unicode="&#xf4;" horiz-adv-x="287" 
d="M298.864 135.033c17.5742 10.0801 26.8711 -10.5605 10.0342 -20.5703c-26.8008 -15.9287 -56.1514 -23.6064 -86.3057 -26.5215c-6.83105 -67.4072 -35.7939 -133.087 -107.684 -144.071c-107.226 -16.3828 -121.074 113.926 -102.897 196.812
c-59.8232 60.3203 -41.5225 172.863 43.7656 198.67c40.1406 12.1445 82.1289 -0.858398 110.858 -30.8496c33.1582 -34.6143 45.415 -83.5342 53.0186 -129.474c3.29102 -19.8994 5.06055 -42.6172 4.49414 -65.9131c26.1172 2.2627 51.4238 8.55859 74.7158 21.918z
M140.841 -5.25781c25.6133 20.3037 33.7793 61.1895 39.5312 91.875c-6.93945 0.182617 -13.875 0.516602 -20.7959 0.990234c-26.8438 1.83594 -54.7314 5.6084 -80.7754 13.9961c-1.08691 -16.4922 -0.717773 -33.1006 1.58398 -49.8135
c3.49316 -25.3643 26.1719 -84.2285 60.4561 -57.0479zM184.451 112.327c3.81543 30.8486 3.5459 62.1895 -3.56055 92.6152c-8.16602 34.9863 -23.249 71.1445 -51.9707 94.1377c-27.7129 22.1816 -67.6514 26.8506 -95.2637 1.73828
c-26.4004 -24.0098 -30.9766 -67.0771 -20.4502 -99.6572c2.67773 -8.29395 6.39258 -15.9824 10.9414 -23.0615c7.98438 14.5859 22.3682 24.5498 39.8418 25.501c15.2773 0.831055 33.7139 -9.53613 28.6025 -27.3594
c-4.26172 -14.8613 -7.80566 -29.8477 -10.3135 -44.9424c0.341797 -0.143555 0.675781 -0.306641 1.02148 -0.450195c31.3379 -13.0566 67.042 -17.4893 101.151 -18.5215z" />
    <glyph glyph-name="o" unicode="&#xf3;" horiz-adv-x="287" 
d="M298.864 135.033c17.5742 10.0801 26.8711 -10.5605 10.0342 -20.5703c-26.8008 -15.9287 -56.1514 -23.6064 -86.3057 -26.5215c-6.83105 -67.4072 -35.7939 -133.087 -107.684 -144.071c-107.226 -16.3828 -121.074 113.926 -102.897 196.812
c-59.8232 60.3203 -41.5225 172.863 43.7656 198.67c40.1406 12.1445 82.1289 -0.858398 110.858 -30.8496c33.1582 -34.6143 45.415 -83.5342 53.0186 -129.474c3.29102 -19.8994 5.06055 -42.6172 4.49414 -65.9131c26.1172 2.2627 51.4238 8.55859 74.7158 21.918z
M140.841 -5.25781c25.6133 20.3037 33.7793 61.1895 39.5312 91.875c-6.93945 0.182617 -13.875 0.516602 -20.7959 0.990234c-26.8438 1.83594 -54.7314 5.6084 -80.7754 13.9961c-1.08691 -16.4922 -0.717773 -33.1006 1.58398 -49.8135
c3.49316 -25.3643 26.1719 -84.2285 60.4561 -57.0479zM184.451 112.327c3.81543 30.8486 3.5459 62.1895 -3.56055 92.6152c-8.16602 34.9863 -23.249 71.1445 -51.9707 94.1377c-27.7129 22.1816 -67.6514 26.8506 -95.2637 1.73828
c-26.4004 -24.0098 -30.9766 -67.0771 -20.4502 -99.6572c2.67773 -8.29395 6.39258 -15.9824 10.9414 -23.0615c7.98438 14.5859 22.3682 24.5498 39.8418 25.501c15.2773 0.831055 33.7139 -9.53613 28.6025 -27.3594
c-4.26172 -14.8613 -7.80566 -29.8477 -10.3135 -44.9424c0.341797 -0.143555 0.675781 -0.306641 1.02148 -0.450195c31.3379 -13.0566 67.042 -17.4893 101.151 -18.5215z" />
    <glyph glyph-name="p" unicode="p" horiz-adv-x="335" 
d="M336.359 125.047c11.0615 11.582 38.4404 4.76465 23.6797 -10.8154c-24.0684 -25.3994 -58.2012 -33.1113 -92.1514 -28.3291c-8.40723 1.18359 -17.167 3.49316 -26.1289 6.2334c-2.73242 -7.78223 -5.86426 -15.46 -9.4082 -23.0049
c-18.4756 -39.3564 -60.499 -81.7832 -108.414 -66.5723c-13.084 4.15332 -23.4277 12.3154 -30.6621 22.5508c-2.02637 -14.8457 -3.90137 -29.6875 -5.69043 -44.4795c-7.68457 -63.4912 -12.2451 -127.281 -13.9766 -191.18
c0.644531 -7.23438 1.28125 -14.4688 1.93359 -21.7031c2.12695 -23.5674 7.51465 -47.6787 6.86621 -71.3047c-0.605469 -22.0889 -40.2764 -44.0762 -53.4922 -20.0117c-11.4658 20.8779 -14.707 46.9492 -19.0459 70.167
c-4.51367 24.1533 -7.63086 48.6719 -10.585 73.0625c-5.97754 49.3516 -9.21875 99.1797 -11.5781 148.822c-4.84375 101.904 -3.56641 204.888 6.95215 306.393c2.96582 28.6328 72.0928 46.4639 70.416 11.5781c-4.50195 -93.7656 -7.56445 -187.182 -5.19727 -281.005
c3.41211 25.9814 7.29688 51.9014 11.7412 77.7197c8.65527 50.3018 19.0996 101.594 37.6172 149.314c11.5742 29.832 36.6123 77.3857 76.5479 66.5254c16.4453 -4.47168 33.2207 -21.8877 42.8848 -35.0957c12.8662 -17.5898 19.127 -40.7148 22.8184 -61.9111
c4.94824 -28.3955 3.88867 -56.8223 -2.34082 -84.2979c31.9941 -9.76562 64.9854 -15.9365 87.2139 7.34375zM178.184 84.4775c3.52051 7.71582 6.37695 15.6934 8.81055 23.8057c-15.3428 2.9541 -30.4414 3.3457 -44.6084 -2.02246
c-16.1699 -6.12891 -30.2666 -24.2783 -21.8906 -42.1445c5.18164 -11.0459 21.293 -20.9629 33.127 -15.083c11.7842 5.85352 19.5078 24.3828 24.5615 35.4443zM193.507 134.346c7.29688 34.377 6.45801 70.585 -2.70996 104.523
c-4.12598 15.2656 -16.3906 49.4678 -34.4307 25.1631c-10.6035 -14.2871 -16.9844 -31.7031 -22.4766 -48.459c-10.7979 -32.9561 -19.1543 -66.7666 -25.9385 -100.949c22.5117 18.1768 54.3467 23.4316 82.8779 19.6514
c0.841797 -0.108398 1.71094 -0.259766 2.57227 -0.399414c0.0351562 0.155273 0.0703125 0.310547 0.105469 0.469727z" />
    <glyph glyph-name="q" unicode="q" horiz-adv-x="368" 
d="M407.144 -116.307c26.4004 -64.0107 4.33398 -153.627 -60.5156 -185.004c-33.8027 -16.3555 -72.0498 -14.2754 -102.643 8.4502c-32.8125 24.3711 -47.8682 67.7764 -58.6113 105.515c-23.0127 80.8408 -24.7441 166.894 -22.4971 250.404
c0.365234 13.5537 0.764648 27.2354 1.25781 40.9834c-9.07812 -25.2988 -19.915 -50.0195 -34.9316 -72.248c-15.8164 -23.4121 -38.9102 -41.5693 -68.8115 -37.54c-32.3428 4.3584 -56.0928 31.6709 -67.0264 61.0254c-23.7344 63.7236 -21.4014 146.602 17.0586 204.402
c27.6006 41.4795 77.375 61.7598 126.338 54.0205c17.5596 -2.77539 33.9307 -10.7402 47.2324 -22.4736c0.955078 4.37402 1.94141 8.73633 2.99316 13.0723c8.00684 33.0068 77.8008 49.126 72.8633 4.40527c-8.06543 -73.0781 -18.2812 -145.17 -20.8896 -218.807
c-0.888672 -25.1855 -1.43945 -50.5498 -1.33105 -75.9414c9.85449 8.53125 19.709 17.0664 29.5635 25.6016c36.1855 31.3379 72.4375 62.5986 108.786 93.75c12.9482 11.1006 31.1289 -1.99512 16.3447 -15.126c-31.877 -28.3145 -63.8164 -56.5547 -95.8418 -84.7061
c-16.5039 -14.5049 -33.0039 -29.0098 -49.5078 -43.5146c-2.80273 -2.46484 -5.79102 -4.91797 -8.81445 -7.39062c0.178711 -6.19824 0.388672 -12.3965 0.664062 -18.5869c12.0596 0.81543 24.1504 2.03027 36.2256 1.40918
c17.7451 -0.912109 35.1416 -4.23047 51.9287 -10.0947c34.8193 -12.1641 65.874 -36.958 80.165 -71.6064zM117.141 59.6689c27.6738 52.4326 43.7324 112.974 55.1592 172.105c-16.0762 24.3672 -38.8135 46.0947 -64.7529 41.5693
c-5.21289 -0.908203 -10.7402 -2.29004 -15.7705 -4.22266c2.39844 0.625 -8.52344 -5.65527 -10.0254 -6.9668c-4.7627 -4.15332 -8.96973 -9.21094 -12.4941 -14.4512c-16.8799 -25.0928 -23.7539 -57.9404 -25.0117 -87.6904
c-1.32715 -31.4424 2.12305 -64.8838 12.6025 -94.6924c3.76855 -10.7207 11.6553 -36.2441 22.9385 -41.6973c17.1904 -8.30957 31.8232 25.5703 37.3545 36.0459zM384.012 -196.81c3.99805 33.9736 -2.98926 70.3271 -26.8594 95.9561
c-19.4453 20.8857 -46.5566 33.2559 -74.4209 37.9795c-14.1279 2.39453 -28.2832 1.78516 -42.4189 0.961914c1.26172 -17.9238 3.00098 -35.7861 5.3916 -53.5195c4.80078 -35.584 10.8828 -71.5645 23.5088 -105.336c9.91309 -26.5176 30.042 -68.2422 65.3389 -58.5469
c33.0615 9.08203 45.9434 52.6074 49.46 82.5049z" />
    <glyph glyph-name="r" unicode="r" horiz-adv-x="276" 
d="M275.48 120.858c4.17285 12.4941 33.3408 17.8203 28.2988 1.7168c-13.6309 -43.541 -26.9443 -87.6719 -45.6523 -129.373c-15.3857 -34.2881 -38.918 -64.376 -77.8672 -71.5762c-45.8428 -8.47266 -69.3018 33.9385 -76.8896 72.5
c-7.72363 39.2637 -5.37891 81.2246 -0.0537109 121.404c-11.0459 -8.12012 -22.9658 -14.7188 -35.8096 -18.2666c-30.8799 -8.53516 -62.1055 5.03809 -77.4561 32.9297c-31.7256 57.6494 -10.2266 131.146 35.876 173.604c19.7559 18.1914 45.458 33.9385 73.377 31.9746
c28.5244 -2.00684 42.8701 -22.4502 42.6406 -50.0273c-0.450195 -53.9775 -37.4082 -107.171 -77.8398 -142.006c2.56152 -2.36719 5.41797 -4.34277 8.63965 -5.7168c14.6445 -6.2373 27.0186 2.60449 37.5215 12.96c3.21387 5.8916 8.51953 10.8135 14.5703 14.5742
c0.267578 0.170898 0.542969 0.330078 0.818359 0.485352c6.32227 3.78027 13.3516 6.33398 19.5732 7.38965c11.5898 1.96777 35.0059 -2.19336 33.8027 -19.0068c-2.61621 -36.5664 -8.15137 -73.0469 -8.43848 -109.749
c-0.182617 -23.4863 -4.4834 -70.7305 15.7539 -88.4297c21.2773 -18.6113 48.5898 53.0811 54.082 66.5264c13.1348 32.1494 24.0566 65.1641 35.0527 98.0859zM51.2871 163.876c24.3281 22.3604 43.2773 50.1543 54.2266 81.6006
c5.86816 16.8447 16.666 54.7344 -6.96777 62.9473c-17.249 5.99707 -33.2207 -11.9541 -39.9082 -25.8223c-15.2461 -31.6133 -19.3955 -72.041 -11.2715 -106.119c0.966797 -4.04395 2.25977 -8.35645 3.9209 -12.6064z" />
    <glyph glyph-name="s" unicode="s" horiz-adv-x="206" 
d="M216.894 136.325c17.7451 9.99414 26.6797 -10.4541 10.0322 -20.5723c-21.7939 -13.2432 -49.4795 -32.2422 -73.458 -55.0527c1.08691 -1.33887 2.16992 -2.67773 3.22949 -4.04004c35.6465 -45.8311 46.2305 -131.457 -13.8604 -163.327
c-24.876 -13.1924 -53.3535 -4.64941 -66.4531 20.4004c-14.21 27.1729 -8.61719 61.7363 3.04199 88.6064c2.82129 6.50488 6.11621 12.8232 9.71777 19.0098c-7.41699 6.60645 -14.9473 12.875 -21.9531 18.9375c-49.7393 43.0439 -99.8242 94.0137 -91.2197 165.516
c6.71875 55.8174 52.2891 114.306 107.815 128.259c23.0479 5.79492 50.2559 5.08496 69.1621 -11.1426c24.9102 -21.3857 24.6504 -56.4229 22.6709 -86.3594c-0.982422 -14.8271 -32.3516 -24.6318 -31.3809 -8.36523c1.24609 20.9473 3.12891 44.3477 -8.19336 63.1182
c-11.415 18.9258 -33.7949 23.1094 -53.5234 15.6455c-36.9814 -13.9922 -49.2656 -51.4863 -43.8555 -87.5518c9.50195 -63.3359 57.9453 -97.4062 98.3389 -140.055c24.6035 22.6279 52.8398 41.7393 79.8887 56.9736zM133.798 -70.7686
c3.47363 13.3477 1.77051 27.5889 -3.36816 40.2773c-4.79395 11.8418 -12.4561 22.5234 -21.3828 32.3896c-9.26855 -20.4736 -12.4434 -42.2246 -5.47656 -64.4961c2.19336 -7.01758 8.64062 -22.1357 17.8662 -23.1025
c8.92285 -0.935547 10.5762 8.06543 12.3613 14.9316z" />
    <glyph glyph-name="t" unicode="t" horiz-adv-x="189" 
d="M189.58 124.538c4.41699 12.1445 33.2051 17.1611 27.791 1.6748c-17.1162 -48.9053 -36.6084 -105.157 -81.3682 -135.882c-19.4258 -13.3359 -48.1631 -21.1797 -71.0557 -12.2871c-23.9014 9.28418 -42.0742 34.7344 -52.8057 56.9551
c-27.8174 57.6025 -29.0361 128.969 -28.0039 191.633c0.749023 45.5518 2.57324 92.4229 7.6543 138.49c-9.99023 -0.566406 -19.9883 -0.954102 -30.002 -0.891602c-20.1826 0.124023 -8.35645 21.2031 5.50391 22.9961c9.09766 1.17578 18.335 2.18848 27.6309 3.06543
c1.96387 14.1123 4.25781 28.1162 6.98633 41.9375c4.88672 24.751 66.3711 45.7021 66.3047 10.9023c-0.03125 -16.6201 -0.854492 -33.2324 -1.98438 -49.8447c9.79297 -0.163086 19.5273 -0.558594 29.126 -1.29199c19.3174 -1.47461 1.0127 -25.5 -13.2783 -24.3281
c-5.91113 0.485352 -11.8145 0.725586 -17.7139 0.822266c-2.53027 -30.6396 -5.53418 -61.2754 -6.50879 -91.9453c-1.68457 -52.9141 -0.671875 -106.058 6.42676 -158.564c2.76758 -20.459 13.8604 -125.247 49.5225 -113.964
c21.4326 6.78027 38.7236 37.043 48.4814 55.3896c11.0771 20.8311 19.2471 43.001 27.293 65.1328z" />
    <glyph glyph-name="u" unicode="u" horiz-adv-x="330" 
d="M329.457 115.191c2.77148 12.8623 30.8564 18.2646 27.7783 1.67969c-6.98242 -37.6914 -18.1758 -88.6689 -47.6934 -115.683c-26.874 -24.5957 -69.7588 -28.209 -95.3955 0.140625c-30.5459 33.7793 -35.584 82.9951 -37.75 126.377
c-0.294922 5.92676 -0.535156 11.8613 -0.737305 17.8037c-3.48535 -14.1123 -7.0791 -28.209 -10.9756 -42.248c-12.1367 -43.7393 -30.9375 -110.362 -80.2656 -125.247c-61.0146 -18.4092 -85.0596 55.9648 -93.1094 102.024
c-10.9336 62.5479 -12.082 127.692 -4.26465 190.667c3.67969 29.6533 65.5596 41.4951 62.4238 3.77637c-4.16113 -50.0732 -4.28125 -100.08 1.89355 -150.01c2.67383 -21.6348 5.90332 -43.6377 12.6953 -64.4219c3.50879 -10.7275 14.8037 -46.5137 28.8428 -44.7285
c15.6963 1.99512 29.8984 51.0596 34.0898 63.2744c7.04883 20.54 12.5645 41.5576 17.7812 62.626c10.2432 41.3867 20.7461 82.4863 33.7256 123.054c0.349609 4.20703 0.695312 8.41406 1.10254 12.6094c2.72852 27.9453 70.1201 44.6348 68.1016 11.1973
c-4.19141 -69.46 -7.89844 -141.805 2.65527 -210.881c1.9834 -13.0068 17.7881 -81.4111 40.3506 -59.7764c12.4746 11.9619 19.2549 33.2979 24.9912 49.0596c5.78711 15.9014 10.1963 32.1758 13.7598 48.7061z" />
    <glyph glyph-name="u" unicode="&#xfc;" horiz-adv-x="330" 
d="M329.457 115.191c2.77148 12.8623 30.8564 18.2646 27.7783 1.67969c-6.98242 -37.6914 -18.1758 -88.6689 -47.6934 -115.683c-26.874 -24.5957 -69.7588 -28.209 -95.3955 0.140625c-30.5459 33.7793 -35.584 82.9951 -37.75 126.377
c-0.294922 5.92676 -0.535156 11.8613 -0.737305 17.8037c-3.48535 -14.1123 -7.0791 -28.209 -10.9756 -42.248c-12.1367 -43.7393 -30.9375 -110.362 -80.2656 -125.247c-61.0146 -18.4092 -85.0596 55.9648 -93.1094 102.024
c-10.9336 62.5479 -12.082 127.692 -4.26465 190.667c3.67969 29.6533 65.5596 41.4951 62.4238 3.77637c-4.16113 -50.0732 -4.28125 -100.08 1.89355 -150.01c2.67383 -21.6348 5.90332 -43.6377 12.6953 -64.4219c3.50879 -10.7275 14.8037 -46.5137 28.8428 -44.7285
c15.6963 1.99512 29.8984 51.0596 34.0898 63.2744c7.04883 20.54 12.5645 41.5576 17.7812 62.626c10.2432 41.3867 20.7461 82.4863 33.7256 123.054c0.349609 4.20703 0.695312 8.41406 1.10254 12.6094c2.72852 27.9453 70.1201 44.6348 68.1016 11.1973
c-4.19141 -69.46 -7.89844 -141.805 2.65527 -210.881c1.9834 -13.0068 17.7881 -81.4111 40.3506 -59.7764c12.4746 11.9619 19.2549 33.2979 24.9912 49.0596c5.78711 15.9014 10.1963 32.1758 13.7598 48.7061z" />
    <glyph glyph-name="u" unicode="&#xfb;" horiz-adv-x="330" 
d="M329.457 115.191c2.77148 12.8623 30.8564 18.2646 27.7783 1.67969c-6.98242 -37.6914 -18.1758 -88.6689 -47.6934 -115.683c-26.874 -24.5957 -69.7588 -28.209 -95.3955 0.140625c-30.5459 33.7793 -35.584 82.9951 -37.75 126.377
c-0.294922 5.92676 -0.535156 11.8613 -0.737305 17.8037c-3.48535 -14.1123 -7.0791 -28.209 -10.9756 -42.248c-12.1367 -43.7393 -30.9375 -110.362 -80.2656 -125.247c-61.0146 -18.4092 -85.0596 55.9648 -93.1094 102.024
c-10.9336 62.5479 -12.082 127.692 -4.26465 190.667c3.67969 29.6533 65.5596 41.4951 62.4238 3.77637c-4.16113 -50.0732 -4.28125 -100.08 1.89355 -150.01c2.67383 -21.6348 5.90332 -43.6377 12.6953 -64.4219c3.50879 -10.7275 14.8037 -46.5137 28.8428 -44.7285
c15.6963 1.99512 29.8984 51.0596 34.0898 63.2744c7.04883 20.54 12.5645 41.5576 17.7812 62.626c10.2432 41.3867 20.7461 82.4863 33.7256 123.054c0.349609 4.20703 0.695312 8.41406 1.10254 12.6094c2.72852 27.9453 70.1201 44.6348 68.1016 11.1973
c-4.19141 -69.46 -7.89844 -141.805 2.65527 -210.881c1.9834 -13.0068 17.7881 -81.4111 40.3506 -59.7764c12.4746 11.9619 19.2549 33.2979 24.9912 49.0596c5.78711 15.9014 10.1963 32.1758 13.7598 48.7061z" />
    <glyph glyph-name="u" unicode="&#xfa;" horiz-adv-x="330" 
d="M329.457 115.191c2.77148 12.8623 30.8564 18.2646 27.7783 1.67969c-6.98242 -37.6914 -18.1758 -88.6689 -47.6934 -115.683c-26.874 -24.5957 -69.7588 -28.209 -95.3955 0.140625c-30.5459 33.7793 -35.584 82.9951 -37.75 126.377
c-0.294922 5.92676 -0.535156 11.8613 -0.737305 17.8037c-3.48535 -14.1123 -7.0791 -28.209 -10.9756 -42.248c-12.1367 -43.7393 -30.9375 -110.362 -80.2656 -125.247c-61.0146 -18.4092 -85.0596 55.9648 -93.1094 102.024
c-10.9336 62.5479 -12.082 127.692 -4.26465 190.667c3.67969 29.6533 65.5596 41.4951 62.4238 3.77637c-4.16113 -50.0732 -4.28125 -100.08 1.89355 -150.01c2.67383 -21.6348 5.90332 -43.6377 12.6953 -64.4219c3.50879 -10.7275 14.8037 -46.5137 28.8428 -44.7285
c15.6963 1.99512 29.8984 51.0596 34.0898 63.2744c7.04883 20.54 12.5645 41.5576 17.7812 62.626c10.2432 41.3867 20.7461 82.4863 33.7256 123.054c0.349609 4.20703 0.695312 8.41406 1.10254 12.6094c2.72852 27.9453 70.1201 44.6348 68.1016 11.1973
c-4.19141 -69.46 -7.89844 -141.805 2.65527 -210.881c1.9834 -13.0068 17.7881 -81.4111 40.3506 -59.7764c12.4746 11.9619 19.2549 33.2979 24.9912 49.0596c5.78711 15.9014 10.1963 32.1758 13.7598 48.7061z" />
    <glyph glyph-name="v" unicode="v" horiz-adv-x="310" 
d="M322.768 134.164c17.5479 8.57812 27.1221 -11.3301 9.77246 -20.0361c-28.5205 -14.3379 -59.6562 -18.9873 -89.1934 -15.3037c-3.77637 -13.7637 -8.14258 -27.3906 -13.3008 -40.832c-15.7656 -41.0723 -34.835 -79.8428 -73.6719 -103.651
c-19.9307 -12.2227 -42.4424 -17.4814 -64.3643 -6.67578c-19.5889 9.65332 -34.4346 30.6201 -45.8105 48.6143c-26.2383 41.5068 -38.4375 91.918 -48.3389 139.453c-10.918 52.4287 -16.3057 106.131 -19.8066 159.503c-2.28223 34.7959 68.9404 59.668 73.874 19.6904
c10.3789 -84.1162 16.4492 -169.063 40.7852 -250.723c5.1543 -17.2871 11.6436 -34.4775 19.9268 -50.5234c4.43652 -8.58984 15.2305 -31.7998 27.4531 -31.2607c12.6104 0.554688 28.6133 24.627 35.1182 33.748c9.90527 13.8955 18.2812 29.2188 24.7666 44.9922
c5.80664 14.1279 10.7402 28.8496 14.8896 43.9287c-48.4512 15.6768 -87.9287 55.1963 -96.5146 112.175c-6.07812 40.3193 6.42383 84.1865 33.0303 115.159c23.6377 27.5107 65.3662 41.2549 88.4443 5.37598c25.0156 -38.8867 21.8447 -99.1523 19.1934 -143.271
c-1.43262 -23.8232 -4.55273 -47.332 -9.4668 -70.457c23.9209 -4.37402 49.3672 -1.56055 73.2139 10.0947zM221.487 132.824c9.9248 48.8584 11.5557 100.255 4.56152 147.972c-2.19336 14.959 -7.82129 43.5488 -23.8398 50.9385
c-19.0068 8.76758 -34.3301 -18.0986 -41.4062 -32.5645c-14.4385 -29.5059 -16.7793 -65.2646 -5.19727 -96.1211c12.1758 -32.4443 36.5742 -57.0596 65.8818 -70.2246z" />
    <glyph glyph-name="w" unicode="w" horiz-adv-x="489" 
d="M501.077 137.575c17.501 7.22363 27.3184 -12.0889 9.60352 -19.6963c-28.8311 -12.3975 -60.3867 -15.8945 -90.2227 -11.2178c-7.63867 -37.2451 -19.4268 -78.7598 -41.9775 -108.759c-26.4863 -35.2383 -76.9434 -43.5479 -115.065 -22.5381
c-39.5117 21.7744 -61.4609 67.1162 -73.8691 108.562c-1.28906 4.30859 -2.46484 8.63281 -3.58301 12.9717c-3.03516 -12.3584 -6.72266 -24.5615 -11.4697 -36.5195c-17.5244 -44.1504 -55.9727 -91.4404 -109.225 -81.9541
c-60.2148 10.7275 -75.1777 81.1152 -80.041 132.36c-5.86426 61.7754 0.571289 124.866 10.6865 185.873c5.33691 32.1953 73.0898 45.5938 68.5332 4.14453c-5.35254 -48.6758 -12.6025 -97.1494 -11.9463 -146.26
c0.520508 -38.7393 -0.0966797 -95.2207 27.9385 -125.631c41.2158 -44.709 69.1924 40.8818 76.3223 70.8066c8.13574 34.1484 11.3145 69.1855 16.1006 103.936c-0.0888672 6.39258 -0.0888672 12.7852 0.00390625 19.1777c0.489258 33.251 70.082 57.4941 71.2852 18.999
c2.1582 -69.0293 2.57324 -154.399 46.8125 -212.072c9.21387 -12.0127 24.126 -25.3486 40.2646 -25.0303c13.1426 0.259766 23.626 12.8818 30.5352 23.001c16.6592 24.3906 23.5137 57.1836 28.8311 86.5967c-38.6191 14.0352 -71.125 43.0986 -85.9707 85.5449
c-12.4238 35.5225 -11.9619 75.0381 2.65918 109.83c13.1191 31.2256 47.5352 71.0137 86.1113 57.2119c37.6836 -13.4795 40.2803 -72.4023 41.165 -105.149c1.16016 -43.1064 -2.14648 -86.6123 -9.28809 -129.194c24.9648 -6.125 51.6719 -4.95703 75.8057 5.00684z
M395.487 143.817c4.40918 30.2588 6.76074 60.7891 6.91992 91.3857c0.0927734 17.8506 -0.365234 35.79 -2.97363 53.4775c-2.1543 14.625 -5.17383 37.6025 -17.1514 48.1943c-30.251 26.7461 -51.8545 -45.998 -53.7559 -65.374
c-2.89551 -29.4863 4.22656 -59.7646 19.9883 -84.8457c11.543 -18.3662 28.0352 -32.917 46.9727 -42.8379z" />
    <glyph glyph-name="x" unicode="x" horiz-adv-x="288" 
d="M289.354 115.82c3.77637 12.3818 32.2266 17.8232 27.7783 1.68457c-12.8896 -46.8672 -28.5859 -89.958 -69.5957 -119.13c-40.2266 -28.6172 -92.2051 -32.7979 -127.277 6.39941c-19.2441 21.5107 -32.6504 47.3057 -42.7539 74.5176
c-12.7266 -28.9082 -24.8633 -58.0879 -36.915 -87.2754c-4.92188 -11.9238 -35.8721 -14.4277 -29.8057 1.41211c16.5 43.0791 34.1875 85.708 53.7148 127.49c-2.68945 10.2002 -5.11133 20.3965 -7.3584 30.457c-12.2607 54.8662 -19.748 113.141 -14.6094 169.288
c2.54199 27.7705 64.0537 45.8027 68.3623 11.2393c4.18457 -33.5352 7.2002 -67.0273 11.4346 -100.205c20.0391 33.748 42.5703 66.0293 69.709 94.2275c11.667 12.1211 40.4551 4.86719 24.8633 -11.3486c-36.0381 -37.4941 -63.3438 -82.3818 -87.7227 -128.248
c6.13672 -34.249 14.7842 -68.0244 28.7842 -100.984c11.5938 -27.2979 29.5879 -75.5312 67.7607 -68.8867c38.7432 6.74609 54.1602 68.3193 63.6309 99.3623z" />
    <glyph glyph-name="y" unicode="y" horiz-adv-x="415" 
d="M415.923 112.075c4.33887 12.3154 33.1729 17.0684 27.7969 1.67871c-25.9814 -74.2031 -87.4814 -133.211 -157.819 -169.443c-0.849609 -11.6943 -1.74609 -23.3613 -2.73926 -34.9785c-8.7832 -102.681 -19.9805 -234.503 -128.806 -280.214
c-92.3525 -38.79 -203.72 39.1826 -205.334 137.68c-0.772461 47.2129 21.6309 92.2324 60.4717 119.266c44.7988 31.1826 99.5176 37.4121 152.168 44.3555c17.749 2.34082 35.6455 6.05566 53.3252 11.0664c0.361328 9.86621 0.71875 19.7324 0.947266 29.5947
c1.3623 59.0742 -0.291016 117.663 -3.36133 176.24c-3.15137 -14.5283 -6.76074 -28.959 -11.0225 -43.2461c-15.0361 -50.3955 -38.9961 -112.171 -96.1797 -125.965c-27.1611 -6.55176 -55.9844 0.919922 -77.1494 18.9336
c-23.1172 19.6748 -32.6963 50.9004 -38.2236 79.6299c-12.4668 64.8145 -8.94238 133.521 2.37988 198.231c4.3125 24.6543 65.6689 42.7725 63.7363 10.4795c-3.22949 -53.8809 -8.26758 -107.502 -2.34473 -161.422c2.5498 -23.2217 5.98828 -47.8135 15.7344 -69.2578
c7.1377 -15.7041 22.1816 -39.1631 41.7588 -40.0752c26.7109 -1.24609 40.3418 33.4883 48.5703 53.6709c9.9248 24.3477 17.1289 49.8828 23.0088 75.4805c10.3008 44.8252 15.9443 90.5127 21.0557 136.181c-0.108398 1.4668 -0.212891 2.92969 -0.321289 4.39648
c-0.326172 4.44043 0.53125 8.71777 2.28125 12.7275c0.426758 2.66211 1.93262 4.96387 4.04395 6.82715c17.2646 23.1758 64.0039 32.8018 68.584 0.416016c15.4629 -109.321 16.0449 -222.757 9.17871 -333.658c57.7354 30.958 106.023 78.3027 128.26 141.405z
M206.707 -186.491c3.20215 34.1289 5.55078 68.4004 7.18848 102.688c-85.9756 -22.1201 -219.638 -11.6328 -231.682 -126.605c-4.82031 -46.0059 18.2773 -90.3115 54.708 -117.582c39.9971 -29.9443 105.018 -41.7861 136.767 5.35254
c26.1328 38.7979 28.7881 91.0488 33.0186 136.146z" />
    <glyph glyph-name="y" unicode="&#xff;" horiz-adv-x="415" 
d="M415.923 112.075c4.33887 12.3154 33.1729 17.0684 27.7969 1.67871c-25.9814 -74.2031 -87.4814 -133.211 -157.819 -169.443c-0.849609 -11.6943 -1.74609 -23.3613 -2.73926 -34.9785c-8.7832 -102.681 -19.9805 -234.503 -128.806 -280.214
c-92.3525 -38.79 -203.72 39.1826 -205.334 137.68c-0.772461 47.2129 21.6309 92.2324 60.4717 119.266c44.7988 31.1826 99.5176 37.4121 152.168 44.3555c17.749 2.34082 35.6455 6.05566 53.3252 11.0664c0.361328 9.86621 0.71875 19.7324 0.947266 29.5947
c1.3623 59.0742 -0.291016 117.663 -3.36133 176.24c-3.15137 -14.5283 -6.76074 -28.959 -11.0225 -43.2461c-15.0361 -50.3955 -38.9961 -112.171 -96.1797 -125.965c-27.1611 -6.55176 -55.9844 0.919922 -77.1494 18.9336
c-23.1172 19.6748 -32.6963 50.9004 -38.2236 79.6299c-12.4668 64.8145 -8.94238 133.521 2.37988 198.231c4.3125 24.6543 65.6689 42.7725 63.7363 10.4795c-3.22949 -53.8809 -8.26758 -107.502 -2.34473 -161.422c2.5498 -23.2217 5.98828 -47.8135 15.7344 -69.2578
c7.1377 -15.7041 22.1816 -39.1631 41.7588 -40.0752c26.7109 -1.24609 40.3418 33.4883 48.5703 53.6709c9.9248 24.3477 17.1289 49.8828 23.0088 75.4805c10.3008 44.8252 15.9443 90.5127 21.0557 136.181c-0.108398 1.4668 -0.212891 2.92969 -0.321289 4.39648
c-0.326172 4.44043 0.53125 8.71777 2.28125 12.7275c0.426758 2.66211 1.93262 4.96387 4.04395 6.82715c17.2646 23.1758 64.0039 32.8018 68.584 0.416016c15.4629 -109.321 16.0449 -222.757 9.17871 -333.658c57.7354 30.958 106.023 78.3027 128.26 141.405z
M206.707 -186.491c3.20215 34.1289 5.55078 68.4004 7.18848 102.688c-85.9756 -22.1201 -219.638 -11.6328 -231.682 -126.605c-4.82031 -46.0059 18.2773 -90.3115 54.708 -117.582c39.9971 -29.9443 105.018 -41.7861 136.767 5.35254
c26.1328 38.7979 28.7881 91.0488 33.0186 136.146z" />
    <glyph glyph-name="y" unicode="&#xfd;" horiz-adv-x="415" 
d="M415.923 112.075c4.33887 12.3154 33.1729 17.0684 27.7969 1.67871c-25.9814 -74.2031 -87.4814 -133.211 -157.819 -169.443c-0.849609 -11.6943 -1.74609 -23.3613 -2.73926 -34.9785c-8.7832 -102.681 -19.9805 -234.503 -128.806 -280.214
c-92.3525 -38.79 -203.72 39.1826 -205.334 137.68c-0.772461 47.2129 21.6309 92.2324 60.4717 119.266c44.7988 31.1826 99.5176 37.4121 152.168 44.3555c17.749 2.34082 35.6455 6.05566 53.3252 11.0664c0.361328 9.86621 0.71875 19.7324 0.947266 29.5947
c1.3623 59.0742 -0.291016 117.663 -3.36133 176.24c-3.15137 -14.5283 -6.76074 -28.959 -11.0225 -43.2461c-15.0361 -50.3955 -38.9961 -112.171 -96.1797 -125.965c-27.1611 -6.55176 -55.9844 0.919922 -77.1494 18.9336
c-23.1172 19.6748 -32.6963 50.9004 -38.2236 79.6299c-12.4668 64.8145 -8.94238 133.521 2.37988 198.231c4.3125 24.6543 65.6689 42.7725 63.7363 10.4795c-3.22949 -53.8809 -8.26758 -107.502 -2.34473 -161.422c2.5498 -23.2217 5.98828 -47.8135 15.7344 -69.2578
c7.1377 -15.7041 22.1816 -39.1631 41.7588 -40.0752c26.7109 -1.24609 40.3418 33.4883 48.5703 53.6709c9.9248 24.3477 17.1289 49.8828 23.0088 75.4805c10.3008 44.8252 15.9443 90.5127 21.0557 136.181c-0.108398 1.4668 -0.212891 2.92969 -0.321289 4.39648
c-0.326172 4.44043 0.53125 8.71777 2.28125 12.7275c0.426758 2.66211 1.93262 4.96387 4.04395 6.82715c17.2646 23.1758 64.0039 32.8018 68.584 0.416016c15.4629 -109.321 16.0449 -222.757 9.17871 -333.658c57.7354 30.958 106.023 78.3027 128.26 141.405z
M206.707 -186.491c3.20215 34.1289 5.55078 68.4004 7.18848 102.688c-85.9756 -22.1201 -219.638 -11.6328 -231.682 -126.605c-4.82031 -46.0059 18.2773 -90.3115 54.708 -117.582c39.9971 -29.9443 105.018 -41.7861 136.767 5.35254
c26.1328 38.7979 28.7881 91.0488 33.0186 136.146z" />
    <glyph glyph-name="z" unicode="z" horiz-adv-x="361" 
d="M365.121 103.563c10.0801 11.9121 36.0781 5.19043 22.6914 -10.3545c-31.6484 -36.7754 -67.8223 -68.6143 -106.43 -97.3984c12.3662 -28.9043 18.4482 -60.7158 16.5537 -92.4531c-5.87988 -98.6904 -75.833 -207.562 -170.945 -242.051
c-39.415 -14.2949 -85.2188 -14.252 -123.555 3.58691c-34.0156 15.8281 -76.6289 48.1865 -80.1924 88.8633c-4.27734 48.8115 48.9824 77.1377 83.9844 98.5938c40.5098 24.8369 81.9775 48.04 123.093 71.8516c25.4189 14.7217 50.7178 29.793 75.4385 45.6758
c-22.2637 46.3281 -64.4189 80.3252 -121.001 79.8984c-34.4434 -0.259766 -36.2441 30.9932 -14.0781 50.5205c26.8662 23.668 51.2803 49.7314 73.4385 77.8359c20.7109 26.2686 44.0029 55.4326 52.5186 88.4316c3.36133 13.0176 2.84863 22.6318 -10.7939 28.0654
c-8.36426 3.33398 -18.1797 3.47754 -27.041 3.63672c-18.0215 0.326172 -36.0391 -2.16211 -53.8779 -4.38965c-34.6875 -4.33496 -68.168 -7.12207 -102.06 3.0625c-14.4229 4.33203 4.19238 25.0898 15.4014 21.7637c46.2695 -13.7285 92.6396 1.75 139.44 2.96094
c34.9473 0.904297 67.2402 -5.28613 77.0674 -43.3428c8.89258 -34.4395 -14.9004 -82.5918 -32.0869 -111.392c-12.7656 -21.3896 -28.2754 -41.0947 -44.8252 -59.8809c48.9199 -12.502 89.041 -47.123 113.691 -91.2617c33.8994 26.001 65.6025 54.7344 93.5674 87.7764z
M121.315 -293.985c64.5195 36.5664 106.552 123.705 101.863 196.469c-1.04004 16.1582 -4.18359 32.0713 -9.2334 47.1387c-11.9971 -7.62695 -24.0947 -15.0908 -36.2666 -22.4033c-34.1904 -20.54 -68.9521 -40.1016 -103.453 -60.1104
c-18.7588 -10.876 -37.4707 -21.8486 -55.9189 -33.2441c-16.752 -10.3477 -35.6074 -20.3262 -49.541 -34.4072c-39.7061 -40.1211 10.623 -84.5312 49.1846 -98.4883c32.7822 -11.8652 72.5586 -12.4121 103.365 5.0459z" />
    <glyph glyph-name="braceleft" unicode="{" horiz-adv-x="462" 
d="M386.219 -182.62c15.8516 10.8096 37.7344 -3.41992 18.9951 -17.5752c-35.3818 -26.7266 -88.0791 -31.5234 -128.328 -12.8428c-46.4287 21.5449 -74.8057 68.1133 -90.5557 115.012c-19.3486 57.6143 -22.6279 116.878 -28.2949 176.841
c-2.20508 23.3467 -5.01562 48.377 -18.2861 68.4551c-5.5 8.3252 -12.9014 15.0518 -21.9531 19.2822c-8.54297 3.99414 -19.2285 -0.0732422 -8.75684 6.35059c-14.5391 -8.92285 -33.5732 -16.2744 -49.4482 -5.8877c-14.6406 9.5752 -10.5537 27.2744 -0.834961 38.915
c75.2246 90.0977 62.0088 221.167 88.8057 328.858c13.5303 54.3818 35.7939 111.302 77.0371 150.841c18.0215 17.2754 44.71 33.8135 70.8818 28.624c19.0498 -3.77637 35.5146 -22.1387 37.2998 -41.2812c1.29297 -13.8447 -26.2568 -23.5322 -29.3076 -7.8125
c-2.35938 12.1562 -15.0781 16.9766 -26.4268 14.0342c-9.5127 -2.46875 -16.6387 -11.8652 -22.1465 -19.3955c-13.4453 -18.3936 -23.7812 -40.0166 -31.0508 -61.5273c-15.2891 -45.2451 -20.7383 -93.5596 -25.124 -140.9
c-7.32812 -79.0898 -14.0977 -159.019 -50.248 -228.704c20.917 -4.50586 40.3271 -15.9639 55.0996 -35.1846c34.0078 -44.2471 30.5225 -106.705 35.3232 -159.472c5.04199 -55.4219 6.18652 -115.595 33.084 -165.8c19.7168 -36.8027 71.7734 -79.7773 114.235 -50.8301z
" />
    <glyph glyph-name="verticalbar" unicode="|" horiz-adv-x="182" 
d="M130.779 296.899c-1.29199 -124.378 1.75293 -248.85 -0.704102 -373.192c-0.395508 -20.2334 -17.5234 -35.2539 -36.251 -40.1982c-15.0166 -3.9668 -40.4082 -0.438477 -41.2461 19.543c-5.2207 124.257 -1.39355 249.17 1.67676 373.45
c1.55273 62.8115 4.50293 125.573 6.13672 188.381c0.799805 30.8174 1.54102 61.6201 2.06152 92.4414c0.508789 30.0225 -2.15039 61.4688 3.69141 91.0605c3.18262 16.1113 36.5742 31.2949 45.5244 12.2959c12.7539 -27.0762 14.2441 -60.1758 16.9102 -89.5811
c2.73242 -30.1387 3.65234 -60.5918 3.79199 -90.8428c0.283203 -61.123 -0.958984 -122.238 -1.5918 -183.357z" />
    </font>
</defs>
</svg>
