<?xml version="1.0" standalone="no"?>
<!DOCTYPE svg PUBLIC "-//W3C//DTD SVG 1.1//EN" "http://www.w3.org/Graphics/SVG/1.1/DTD/svg11.dtd" >
<svg xmlns="http://www.w3.org/2000/svg" xmlns:xlink="http://www.w3.org/1999/xlink" version="1.1">
<metadata>
Created by FontForge 20170812 at Wed Jul  6 13:07:09 2022
 By www-data
</metadata>
<defs>
<font id="VisibleRegular" horiz-adv-x="0" >
  <font-face 
    font-family="Visible"
    font-weight="400"
    font-stretch="normal"
    units-per-em="1000"
    panose-1="0 0 0 0 0 0 0 0 0 0"
    ascent="800"
    descent="-200"
    x-height="357.218"
    cap-height="1142.43"
    bbox="-311.999 -687.483 1887.59 1417.55"
    underline-thickness="50"
    underline-position="-100"
    unicode-range="U+000A-20AC"
  />
<missing-glyph horiz-adv-x="527" 
d="M50 700h427v-700h-427v700zM78 680l185 -309l186 309h-371zM251 350l-180 300v-601zM264 329l-185 -308h370zM276 350l181 -303v605z" />
    <glyph glyph-name=".notdef" horiz-adv-x="527" 
d="M50 700h427v-700h-427v700zM78 680l185 -309l186 309h-371zM251 350l-180 300v-601zM264 329l-185 -308h370zM276 350l181 -303v605z" />
    <glyph glyph-name=".null" 
 />
    <glyph glyph-name=".null" 
 />
    <glyph glyph-name="LF" unicode="&#xa;" 
 />
    <glyph glyph-name="controlCR" unicode="&#xd;" 
 />
    <glyph glyph-name="space" unicode=" " horiz-adv-x="286" 
 />
    <glyph glyph-name="exclam" unicode="!" horiz-adv-x="207" 
d="M155.309 319.811c3.68848 -124.485 3.53906 -250.357 -9.04785 -374.336c-4.3877 -43.1787 -97.3213 -85.0439 -96.248 -25.0938c2.20996 123.033 8.34277 245.864 8.78613 368.973c0.224609 61.8828 -0.442383 123.808 -1.2168 185.68
c-0.763672 61.0439 -8.48242 127.148 15.3994 184.462c4.45215 10.6914 22.8896 23.833 32.9414 12.3086c21.1807 -24.2871 24.9756 -51.334 29.417 -82.5664c4.12598 -29.0439 7.29102 -58.0605 9.7998 -87.2861c5.20996 -60.6445 8.36426 -121.299 10.1689 -182.141z
M74.0283 -169.938c14.7109 19.1582 39.8857 19.1211 46.6807 -6.0957c6.35254 -23.54 3.81152 -50.9023 1.59082 -74.8965c-1.75098 -18.918 -20.6201 -34.8994 -38.0107 -39.3135c-14.7383 -3.74219 -34.8467 2.20996 -32.6367 20.8926
c3.64551 30.8477 2.72754 73.8281 22.376 99.4131z" />
    <glyph glyph-name="quotedbl" unicode="&#x22;" horiz-adv-x="264" 
d="M54.9033 720.16c3.37891 33.1221 75.4619 59.5117 70.1992 18.2979c-3.93945 -30.8955 -7.02441 -62.0479 -9.21875 -93.125c-1.6123 -22.8467 0.0634766 -52.5312 -9.32617 -73.835c-4.2334 -9.61328 -16.1475 -17.6895 -27.0312 -17.0645
c-16.291 0.939453 -20.2246 14.4766 -23.3369 28.0508c-10.1045 44.0488 -5.81836 93.248 -1.28613 137.676zM213.883 762.89c1.07812 -30.9062 -4.11133 -61.6309 -8.31738 -92.2012c-3.79492 -27.5811 -12.2236 -58.2578 -7.54199 -85.8867
c3.60352 -21.2715 -30.543 -45.8047 -47.1865 -28.1465c-19.6865 20.8877 -14.1777 59.9561 -13.4092 86.1865c1.09961 37.4824 3.69922 74.2656 13.7666 110.499c6.75781 24.3086 61.375 47.3682 62.6885 9.54883z" />
    <glyph glyph-name="quotedbl" unicode="&#x201d;" horiz-adv-x="264" 
d="M54.9033 720.16c3.37891 33.1221 75.4619 59.5117 70.1992 18.2979c-3.93945 -30.8955 -7.02441 -62.0479 -9.21875 -93.125c-1.6123 -22.8467 0.0634766 -52.5312 -9.32617 -73.835c-4.2334 -9.61328 -16.1475 -17.6895 -27.0312 -17.0645
c-16.291 0.939453 -20.2246 14.4766 -23.3369 28.0508c-10.1045 44.0488 -5.81836 93.248 -1.28613 137.676zM213.883 762.89c1.07812 -30.9062 -4.11133 -61.6309 -8.31738 -92.2012c-3.79492 -27.5811 -12.2236 -58.2578 -7.54199 -85.8867
c3.60352 -21.2715 -30.543 -45.8047 -47.1865 -28.1465c-19.6865 20.8877 -14.1777 59.9561 -13.4092 86.1865c1.09961 37.4824 3.69922 74.2656 13.7666 110.499c6.75781 24.3086 61.375 47.3682 62.6885 9.54883z" />
    <glyph glyph-name="quotedbl" unicode="&#x201c;" horiz-adv-x="264" 
d="M54.9033 720.16c3.37891 33.1221 75.4619 59.5117 70.1992 18.2979c-3.93945 -30.8955 -7.02441 -62.0479 -9.21875 -93.125c-1.6123 -22.8467 0.0634766 -52.5312 -9.32617 -73.835c-4.2334 -9.61328 -16.1475 -17.6895 -27.0312 -17.0645
c-16.291 0.939453 -20.2246 14.4766 -23.3369 28.0508c-10.1045 44.0488 -5.81836 93.248 -1.28613 137.676zM213.883 762.89c1.07812 -30.9062 -4.11133 -61.6309 -8.31738 -92.2012c-3.79492 -27.5811 -12.2236 -58.2578 -7.54199 -85.8867
c3.60352 -21.2715 -30.543 -45.8047 -47.1865 -28.1465c-19.6865 20.8877 -14.1777 59.9561 -13.4092 86.1865c1.09961 37.4824 3.69922 74.2656 13.7666 110.499c6.75781 24.3086 61.375 47.3682 62.6885 9.54883z" />
    <glyph glyph-name="numbersign" unicode="#" horiz-adv-x="600" 
d="M473.322 320.745c-0.384766 -24.0635 -0.695312 -48.1318 -0.850586 -72.2109c-0.0429688 -6.61914 -0.0214844 -13.2432 -0.0429688 -19.8623c17.3213 0.848633 34.6484 1.60645 51.9863 2.19336c22.8574 0.774414 5.07715 -29.6143 -11.0645 -30.1162
c-13.665 -0.421875 -27.3252 -1.01953 -40.9795 -1.60645c0.0693359 -146.947 3.97656 -293.905 1.22266 -440.821c-0.501953 -26.7061 -64.9893 -61.9092 -69.7129 -25.6865c-19.9053 152.648 -23.9033 307.357 -24.4375 461.25
c-20.498 -1.43555 -40.9746 -3.05859 -61.4404 -4.85742c-1.67578 -56.9824 -2.25781 -113.991 -2.56738 -170.995c-0.411133 -75.3291 3.63477 -150.914 -13.3984 -224.722c-3.18652 -13.8037 -12.4961 -24.4316 -25.9902 -29.2568
c-8.9248 -3.19238 -26.5938 -4.05176 -28.5576 9.1543c-19.8467 133.31 -24.4102 271.103 -24.0898 406.222c-53.2188 -6.18164 -106.305 -13.5645 -159.209 -22.2861c-23.3477 -3.84863 -14.5557 24.832 2.47266 27.6826c52.1406 8.72754 104.447 16.2002 156.876 22.5732
c0.213867 30.127 0.678711 60.4355 1.49512 90.8301c-44.0488 -5.33301 -88.0488 -11.3965 -132.049 -18.5918c-24.6934 -4.04102 -15.2236 25.835 2.61035 29.209c43.2051 8.17188 86.7354 15.5703 130.464 22.0615c3.77344 104.751 12.4473 210.09 31.498 312.119
c4.7832 25.6113 25.7773 46.3916 51.0635 52.8076c20.6787 5.24707 45.5752 -3.08496 43.8408 -28.0664c-7.51562 -108.179 -18.8369 -215.759 -26.5771 -323.798c18.0742 2.03906 36.1699 3.89648 54.2705 5.56152c1.60645 120.738 5.9248 241.434 14.6045 361.878
c3.0957 42.96 95.7939 81.126 93.1035 24.2773c-5.97852 -126.396 -11.3115 -252.836 -13.8848 -379.35c21.25 1.11523 42.4893 1.96387 63.7129 2.45996c26.876 0.625 5.40723 -33.8789 -12.832 -34.9141c-17.2041 -0.976562 -34.376 -2.02832 -51.5371 -3.13867z
M379.385 222.783c-0.0263672 30.3516 0.123047 60.707 0.400391 91.0635c-18.752 -1.54297 -37.4824 -3.19727 -56.2021 -4.97461c-1.58008 -24.8691 -3.01562 -49.7598 -4.04004 -74.7041c-0.224609 -5.50293 -0.358398 -11.0117 -0.561523 -16.5146
c20.1182 1.88965 40.2529 3.59766 60.4033 5.12988z" />
    <glyph glyph-name="dollar" unicode="$" horiz-adv-x="481" 
d="M380.853 479.89c-17.2041 40.6318 -32.9121 93.7285 -70.4375 120.621c-5.32715 -141.594 -9.60254 -283.337 -11.4121 -425.059c4.8418 -6.52832 9.69922 -13.041 14.4824 -19.623c27.9814 -38.5078 61.9355 -78.5098 76.4385 -124.518
c14.0225 -44.4756 8.29492 -96.3926 -22.8359 -132.573c-17.7383 -20.6201 -41.1182 -39.3457 -67.1992 -49.6426c0.97168 -47.502 2.34375 -94.9883 4.18555 -142.447c0.614258 -15.8213 -37.1299 -34.3389 -39.3877 -14.5137
c-5.62109 49.3594 -8.55664 99.0078 -9.78418 148.795c-97.9189 3.0957 -114.989 121.005 -118.272 196.189c-0.634766 14.5459 30.0898 27.207 31.1357 8.11816c3.10645 -56.6299 8.21484 -125.035 59.9766 -160.015c8.5459 -5.77539 17.4873 -9.70898 26.583 -11.8281
c-0.65625 63.8945 1.23828 127.966 3.84863 191.936c-5.38574 5.79688 -10.7129 11.5195 -15.8428 17.1514c-32.5244 35.7051 -65.1875 71.4424 -94.498 109.896c-59.1602 77.6025 -109.038 176.354 -95.6396 276.729c13.1104 98.2441 89.2988 186.09 189.22 201.911
c13.585 2.15137 26.4492 2.53613 38.6094 1.4043c3.03223 50.7373 7.03613 101.356 12.6299 151.741c1.35059 12.1494 27.8105 23.8506 27.0957 7.0625c-2.34863 -55.3115 -4.64355 -110.66 -6.83789 -166.03c63.6924 -22.7393 102.654 -91.5234 117.237 -161.755
c4.7832 -23.0332 -38.3574 -49.3809 -49.2949 -23.5508zM266.169 255.189c4.07324 119.575 5.24316 240.073 10.8213 360.097c-50.5078 10.9961 -102.739 -21.5762 -122.719 -67.5625c-38.4922 -88.583 21.8047 -200.188 71.3135 -272.01
c12.7256 -18.4531 25.9688 -36.501 39.3291 -54.458c0.448242 11.3213 0.870117 22.6328 1.25488 33.9336zM331.058 -34.5156c-7.81445 19.2275 -19.5654 37.2109 -32.9531 54.2607c0.0751953 -47.3584 0.49707 -94.7002 1.30273 -142.031
c4.91113 2.1084 9.75293 4.71875 14.4668 7.90527c28.3604 19.1738 29.1348 50.4805 17.1836 79.8652z" />
    <glyph glyph-name="percent" unicode="%" horiz-adv-x="786" 
d="M651.26 691.335c-31.9316 -77.6348 -74.7803 -151.25 -110.753 -227.129c-34.9629 -73.7432 -68.7891 -148.058 -102.151 -222.537c-34.1895 -76.3379 -67.5244 -153.049 -101.848 -229.328c-17.252 -38.3418 -34.6162 -76.5244 -53.0215 -114.322
c-16.4463 -33.7783 -31.0723 -77.3086 -65.3359 -96.376c-6.29883 -3.50684 -15.2666 -3.67773 -20.2998 1.90039c-11.2949 12.5176 -3.30957 29.9463 0.763672 44.4229c5.8877 20.9297 13.8408 41.2568 21.2441 61.6797c13.8789 38.2832 29.2949 75.9531 44.4062 113.767
c30.0527 75.1953 61.3438 149.878 93.1631 224.342c32.5879 76.2686 66.3506 151.96 101.891 226.899c35.6572 75.1895 69.7607 153.817 115.795 223.307c11.3115 17.0703 33.2451 31.8457 54.5332 29.46c18.4531 -2.07129 28.9639 -18.208 21.6133 -36.085z
M314.313 368.679c-32.9668 -68.9551 -134.787 -164.004 -212.556 -97.9795c-66.8467 56.7529 -58.8613 170.899 -32.1396 244.67c5.42871 14.9941 21.3574 27.0898 36.9922 29.1982c0.859375 0.112305 1.75586 0.176758 2.66895 0.208984
c21.2178 58.002 99.6055 86.4688 154.229 51.6924c74.8643 -47.6621 86.666 -152.776 50.8057 -227.79zM223.271 357.382c29.1025 42.5811 28.5361 97.4268 12.1914 144.716c-7.68652 22.2432 -20.7061 46.4346 -40.9473 59.7148
c-32.0859 21.0527 -58.7061 -6.33594 -60.0781 -39.8691c-0.133789 -3.34668 -1.9541 -6.5918 -4.59668 -9.37793c-9.0957 -47.6787 -13.7295 -101.906 11.877 -144.717c9.44824 -15.7998 26.6416 -38.2725 47.2998 -37.4609
c15.0264 0.592773 26.5029 15.6562 34.2539 26.9941zM665.612 221.056c74.8643 -47.6621 86.666 -152.782 50.8115 -227.791c-32.9668 -68.9609 -134.788 -164.003 -212.562 -97.9785c-66.8467 56.7529 -58.8613 170.899 -32.1396 244.67
c5.42871 14.9941 21.3574 27.0898 36.9922 29.1982c0.859375 0.112305 1.75586 0.176758 2.66895 0.208984c21.2178 58.002 99.6055 86.4688 154.229 51.6924zM625.375 -18.0303c29.0967 42.5811 28.5371 97.4229 12.1924 144.722
c-7.68652 22.2432 -20.7061 46.4346 -40.9473 59.7148c-32.0918 21.0527 -58.707 -6.33594 -60.0791 -39.8691c-0.133789 -3.35254 -1.9541 -6.59766 -4.59668 -9.38379c-9.0957 -47.6787 -13.7295 -101.906 11.877 -144.717
c9.44824 -15.7998 26.6416 -38.2725 47.2998 -37.4609c15.0264 0.592773 26.5029 15.6562 34.2539 26.9941z" />
    <glyph glyph-name="ampersand" unicode="&#x26;" horiz-adv-x="586" 
d="M523.52 -83.0957c23.5508 -11.5938 7.88867 -44.8486 -4.31348 -57.7773c-17.2305 -18.2295 -44.3154 -29.1992 -68.1221 -18.4756c-36.8906 16.6172 -70.7539 38.9775 -101.9 64.9307c-11.5996 -7.30762 -23.541 -13.916 -35.8018 -19.5205
c-72.9209 -33.3193 -169.948 -39.6816 -229.188 23.3809c-62.998 67.0605 -28.0186 165.406 17.498 230.961c11.0811 15.9658 22.8457 31.3662 35.043 46.4189c-22.04 43.8994 -40.2266 89.4902 -52.0879 135.962c-23.0977 90.4834 -18.9287 192.688 30.0518 274.252
c38.4648 64.0439 108.274 114.642 185.546 108.919c79.0547 -5.85547 128.34 -70.3799 124.043 -147.967c-4.84668 -87.4512 -68.9072 -164.114 -123.803 -227.214c-26.7588 -30.7627 -55.6367 -60.4629 -83.7783 -90.8359
c30.875 -54.5371 67.4932 -106.48 105.419 -154.837c26.5293 -33.8262 55.3057 -64.6475 86.9385 -91.9932c10.2012 13.0566 19.2812 26.8662 27.0264 41.1504c23.3906 43.1572 36.5381 94.3906 14.332 140.628c-18.3037 38.1123 -53.4326 64.7803 -94.9512 72.1094
c-17.1025 3.01562 3.04785 27.3086 16.0889 25.1465c89.2607 -14.791 137.905 -102.567 114.744 -187.232c-10.7188 -39.1699 -30.8584 -76.1777 -57.1426 -108.402c28.958 -22.793 60.2383 -42.8105 94.3584 -59.6035zM165.302 609.072
c-48.1211 -84.4355 -28.2314 -191.401 6.36328 -276.813c9.4375 -23.3057 20.2842 -46.2529 32.166 -68.8008c29.0059 31.542 58.4229 62.7363 85.9932 95.4258c57.2012 67.8232 138.033 174.229 82.6045 265.689c-21.5977 35.6357 -62.5498 52.8936 -103.251 51.1904
c-45.7939 -1.91602 -81.5312 -27.4844 -103.876 -66.6914zM217.23 -109.154c40.082 -0.133789 78.3242 11.8545 112.311 31.8447c-37.9258 34.7021 -71.5176 74.5342 -101.153 115.444c-28.0879 38.7744 -55.0605 80.2979 -78.5957 123.674
c-13.5635 -17.8018 -26.2412 -36.2012 -37.4775 -55.5459c-25.7559 -44.3311 -41.0752 -102.231 -15.459 -150.3c23.252 -43.6377 72.6436 -64.957 120.375 -65.1172z" />
    <glyph glyph-name="quotesingle" unicode="'" horiz-adv-x="185" 
d="M69.3779 729.133c8.58887 31.4248 76.4336 45.9443 63.5586 2.41406c-9.30957 -31.4727 -16.3447 -62.9561 -21.9385 -95.2822c-4.86816 -28.1416 -3.44336 -60.6553 -19.7988 -84.8525c-4.11523 -6.08496 -16.5576 -15.1221 -24.3457 -9.22363
c-21.9121 16.6064 -16.6279 58.5254 -15.4268 83.3359c1.69727 35.001 8.73242 69.8838 17.9512 103.608z" />
    <glyph glyph-name="quotesingle" unicode="&#x2019;" horiz-adv-x="185" 
d="M69.3779 729.133c8.58887 31.4248 76.4336 45.9443 63.5586 2.41406c-9.30957 -31.4727 -16.3447 -62.9561 -21.9385 -95.2822c-4.86816 -28.1416 -3.44336 -60.6553 -19.7988 -84.8525c-4.11523 -6.08496 -16.5576 -15.1221 -24.3457 -9.22363
c-21.9121 16.6064 -16.6279 58.5254 -15.4268 83.3359c1.69727 35.001 8.73242 69.8838 17.9512 103.608z" />
    <glyph glyph-name="quotesingle" unicode="&#x2018;" horiz-adv-x="185" 
d="M69.3779 729.133c8.58887 31.4248 76.4336 45.9443 63.5586 2.41406c-9.30957 -31.4727 -16.3447 -62.9561 -21.9385 -95.2822c-4.86816 -28.1416 -3.44336 -60.6553 -19.7988 -84.8525c-4.11523 -6.08496 -16.5576 -15.1221 -24.3457 -9.22363
c-21.9121 16.6064 -16.6279 58.5254 -15.4268 83.3359c1.69727 35.001 8.73242 69.8838 17.9512 103.608z" />
    <glyph glyph-name="parenleft" unicode="(" horiz-adv-x="466" 
d="M390.08 -199.659c27.5488 14.54 33.9121 -16.6299 14.584 -31.8594c-81.665 -64.3916 -201.271 -52.835 -268.038 27.2441c-64.2793 77.0957 -78.7607 190.916 -84.6328 287.389c-6.36816 104.58 2.85059 210.052 23.0488 312.753
c18.7256 95.1914 48.1426 190.024 99.2959 273.194c29.7695 48.4043 114.53 169.879 180.144 98.041c9.2666 -10.1475 -14.9248 -29.3906 -24.6396 -21.5547c-34.125 27.5117 -63.9746 -44.8223 -76.7158 -68.4639c-19.1416 -35.5078 -34.9316 -72.9102 -47.54 -111.215
c-23.4707 -71.3145 -36.9648 -145.624 -44.9502 -220.157c-9.05859 -84.5312 -13.4785 -170.605 -4.62305 -255.334c7.99609 -76.4873 18.6133 -164.979 62.251 -230.423c39.3242 -58.9736 103.145 -95.8643 171.816 -59.6143z" />
    <glyph glyph-name="parenright" unicode=")" horiz-adv-x="468" 
d="M401.676 378.058c16.334 -104.933 22.3066 -212.755 9.95996 -318.467c-11.3535 -97.0918 -38.043 -207.624 -113.756 -275.399c-66.708 -59.7207 -168.651 -82.9941 -241.818 -20.1406c-20.5029 17.6094 16.0566 46.4131 35.2627 37.1143
c37.0029 -17.9141 84.2168 -23.7539 121.305 -2.51953c27.5967 15.7998 46.9629 45.0947 59.0264 73.8555c30.709 73.2305 40.1201 157.11 43.835 235.818c3.94434 83.5703 -1.73535 167.877 -13.4199 250.668c-10.4414 73.9463 -26.7109 148.325 -53.0166 218.343
c-13.1104 34.8994 -28.9639 69.1904 -47.3799 101.618c-9.14355 16.1045 -43.0234 90.6328 -68.1221 69.3877c-13.0352 -11.0332 -29.1504 1.7832 -16.4092 15.0801c28.0029 29.2256 80.5391 31.7451 111.462 5.64844c37.9951 -32.0645 66.9805 -75.9365 89.501 -119.83
c43.7549 -85.2891 68.875 -176.771 83.5703 -271.177z" />
    <glyph glyph-name="asterisk" unicode="*" horiz-adv-x="347" 
d="M286.812 593.561c20.5615 -0.335938 6.12207 -24.9346 -6.36328 -27.5127c-24.0742 -4.98535 -48.709 -7.66504 -73.2529 -10.4785c18.6455 -19.7021 37.0557 -39.623 54.3184 -60.585c11.1455 -13.5371 -20.5459 -37.0029 -31.7129 -23.0439
c-14.1719 17.7217 -29.1875 34.6963 -44.4482 51.457c-1.27539 -19.9482 -2.86035 -39.8691 -5.31543 -59.7266c-2.02832 -16.3926 -37.9951 -29.8496 -35.1768 -9.1709c2.35449 17.2412 4.06836 34.541 5.48242 51.8682
c-7.45703 -9.91797 -15.1758 -19.6113 -23.4072 -28.8301c-14.418 -16.1416 -51.9385 -11.8389 -34.7295 13.9062c12.6406 18.9072 27.3359 36.5439 42.2344 53.9346c-23.0762 -3.57617 -46.291 -6.79004 -69.335 -7.24902
c-29.8867 -0.597656 -9.30859 37.1787 9.3584 40.4297c18.1592 3.16016 36.5537 4.76172 54.9912 5.88281c-13.1953 14.7275 -26.1348 29.6895 -38.3906 45.249c-10.083 12.8008 18.9395 34.0352 29.2842 21.2773c11.8984 -14.6738 24.4053 -28.8037 37.168 -42.6982
c1.53711 18.7412 3.4209 37.4453 6.10059 56.085c2.12988 14.7969 35.0225 27.8057 32.4814 8.4668c-2.60449 -19.8574 -4.29102 -39.7842 -5.625 -59.7422c12.7041 15.8486 25.5898 31.5479 39.458 46.1787c9.99805 10.5479 34.9043 8.64746 23.6357 -9.46387
c-12.9814 -20.8604 -28.0615 -40.627 -43.0234 -60.3662c25.4297 2.17285 50.998 4.54297 76.2676 4.13184z" />
    <glyph glyph-name="plus" unicode="+" horiz-adv-x="381" 
d="M319.677 289.956c23.1875 0.720703 5.11816 -30.0098 -11.2217 -30.5166c-25.2861 -0.790039 -50.5664 -1.53223 -75.8525 -2.2959c0.186523 -3.48047 0.341797 -6.96094 0.544922 -10.4355c4.52148 -78.4141 9.875 -156.844 11.7695 -235.364
c0.779297 -32.332 -76.0918 -72.3613 -82.1982 -30.2881c-11.4336 78.8145 -14.4277 158.969 -13.2373 238.578c0.175781 11.5088 0.255859 23.2734 0.368164 35.1719c-29.7852 -0.805664 -59.5703 -1.63281 -89.3613 -2.27832
c-22.1416 -0.474609 -4.6709 28.3018 10.6279 28.9209c26.3799 1.0625 52.7598 1.95898 79.1455 2.89355c1.20605 60.1846 5.6416 122.355 28.499 175.985c4.50488 10.5693 24.5859 23.3535 31.4082 8.23633c14.9512 -33.1484 15.0684 -72.2432 17.2676 -108.066
c1.5 -24.4424 2.54102 -48.9062 3.67285 -73.3643c29.5244 0.950195 59.043 1.90527 88.5674 2.82324z" />
    <glyph glyph-name="comma" unicode="," horiz-adv-x="211" 
d="M85.7354 34.6006c10.4512 36.25 89.3018 52.4287 73.3467 2.79102c-10.9424 -34.04 -22.2588 -68.1602 -35.8652 -101.239c-10.2754 -24.9814 -20.2412 -54.8203 -49.21 -62.4004c-22.9316 -6 -28.2051 12.1387 -21.0039 27.1387
c5.19922 19.9482 7.36133 41.4658 12.8057 61.5684c6.52246 24.085 13.0137 48.1641 19.9268 72.1416z" />
    <glyph glyph-name="hyphen" unicode="-" horiz-adv-x="390" 
d="M318.272 287.468c16.3662 0.625 25.0781 -12.3945 19.9746 -27.4951c-5.53516 -16.3818 -24.0791 -28.9688 -41.0322 -29.8125c-43.2002 -2.14551 -86.4268 -3.55469 -129.627 -5.74902c-32.7266 -1.66016 -82.6943 -11.3701 -112.56 4.69141
c-13.2275 7.11035 3.02637 23.8076 10.1367 27.5869c34.9473 18.5977 83.5967 18.9658 122.44 22.2002c43.5146 3.62988 87.0293 6.91797 130.667 8.57812z" />
    <glyph glyph-name="period" unicode="." horiz-adv-x="169" 
d="M98.8486 46.9521c10.5264 0.293945 21.2354 -6.59277 19.6816 -18.4219c-1.67578 -12.8213 -3.14355 -26.4707 -1.00879 -38.332c3.2832 -18.2393 -12.2178 -33.8154 -27.084 -41.4375c-6.97656 -3.57617 -17.1885 -5.75391 -24.998 -3.84277
c-5.83984 1.43066 -13.8311 6.65137 -14.4824 13.4844c-1.03516 10.9424 -1.58008 21.7891 0.21875 32.6729c2.16699 13.0938 6.92285 24.0684 13.6914 35.4111c6.66211 11.1562 20.877 20.0977 33.9814 20.4658z" />
    <glyph glyph-name="slash" unicode="/" horiz-adv-x="480" 
d="M428.747 724.83c6.16016 -34.083 -14.9121 -77.3418 -25.0918 -109.594c-12.3789 -39.2227 -25.3555 -78.2646 -37.7285 -117.498c-23.8389 -75.5742 -48.0195 -151.036 -72.0244 -226.557c-49.4189 -155.451 -95.416 -311.777 -142.374 -467.97
c-14.4395 -48.0469 -117.846 -72.9268 -99.3125 -3.7793c42.2119 157.517 91.7158 313.763 144.497 468.056c26.6201 77.8213 54.5801 155.231 84.4141 231.873c14.6797 37.7021 29.1562 75.5371 44.6357 112.919c15.3574 37.0771 28.916 80.7412 56.2139 110.772
c8.89258 9.78418 42.6279 24.6768 46.7705 1.77734z" />
    <glyph glyph-name="zero" unicode="0" horiz-adv-x="508" 
d="M146.478 657.521c27.9658 56.9873 92.5908 93.9756 151.66 56.7861c60.8848 -38.3369 91.3271 -127.827 111.91 -192.891c47.7051 -150.791 72.9375 -332.265 14.5518 -483.707c-24.8271 -64.3916 -66.7246 -118.459 -127.24 -152.601
c-71.8486 -40.5361 -147.685 -3.25586 -184.377 65.2461c-40.1895 75.0244 -53.6143 160.33 -59.625 244.221c-6.50684 90.8838 -3.14355 181.639 6.53418 272.175c2.61523 24.4902 26.3633 45.0303 49.124 50.8057c1.1748 0.298828 2.37598 0.549805 3.58203 0.75293
c2.72266 48.7295 13.2012 97.0693 33.8799 139.212zM293.232 671.504c-26.9668 28.0293 -68.2969 41.3545 -98.8672 10.6885c-24.2236 -24.2979 -33.9121 -63.7188 -40.7656 -96.3125c-5.22559 -24.8428 -8.25195 -50.1074 -9.1377 -75.4463
c4.72363 -4.63379 7.48828 -11.1836 6.73047 -19.874c-1.38281 -15.8906 -2.69629 -31.7979 -3.95605 -47.7051c2.14062 -18.3994 5.38574 -36.6768 9.7998 -54.6816c12.7842 -52.1406 36.2441 -131.814 97.6084 -143.2
c17.8555 -3.31445 -3.13867 -28.792 -16.8408 -26.3203c-50.4062 9.0957 -79.877 56.1865 -97.668 105.931c-0.987305 -27.5488 -1.45215 -55.1191 -1.05176 -82.7109c1.10449 -76.749 6.39453 -157.432 32.0166 -230.385
c21.3516 -60.7939 74.5117 -136.331 144.033 -83.3145c49.0186 37.3818 76.1992 96.7236 91.0762 155.099c34.2266 134.302 12.6289 282.487 -26.7432 413.282c-18.0049 59.8115 -42.0254 128.991 -86.2344 174.95z" />
    <glyph glyph-name="one" unicode="1" horiz-adv-x="354" 
d="M245.231 -76.5654c14.957 0.378906 29.6523 0.226562 43.5576 -0.62207c30.042 -1.8418 9.78418 -37.1943 -9.44824 -40.8184c-48.9219 -9.21875 -106.299 -14.7969 -155.835 -8.31152c-23.877 3.12793 1.92676 33.3193 13.2646 36.1006
c6.22949 1.52637 12.6621 2.90918 19.2061 4.19043c-0.651367 3.0957 -0.956055 6.57031 -0.854492 10.4453c4.39844 168.278 22.8467 335.691 42.7627 502.693c9.62988 80.7412 15.2344 160.768 12.9814 242.117c-0.21875 7.90527 1.94824 23.8545 -3.48535 30.5537
c-13.5479 16.7021 -26.8389 2.42285 -36.1855 -7.40918c-13.5205 -14.2256 -24.9648 -30.624 -35.9824 -46.8193c-21.8965 -32.1875 -40.1523 -66.4092 -55.3125 -102.248c-5.53027 -13.0674 -36.4102 -19.9854 -28.6592 -1.08887
c16.8467 41.0645 37.4668 80.4531 62.6621 117.039c20.0869 29.1611 43.1357 63.9326 78.04 76.1836c85.748 30.1006 91.0107 -132.557 92.3398 -180.736c2.72266 -98.9707 -8.86621 -198.881 -14.791 -297.633c-6.11719 -101.96 -8.53027 -203.989 -12.2881 -306.04
c-0.357422 -9.74707 -4.95898 -19.2109 -11.9727 -27.5967z" />
    <glyph glyph-name="two" unicode="2" horiz-adv-x="494" 
d="M187.168 -122.321c-38.8389 -15.0898 -157.934 -37.9004 -134.025 42.6006c18.6562 62.79 85.8984 46.9521 134.842 35.6895c16.7344 13.0723 31.6592 28.7119 43.5791 43.5195c28.4248 35.3154 47.0117 77.7461 63.1914 119.697
c37.1094 96.2158 55.248 198.512 55.9258 301.598c0.432617 65.5225 3.91797 267.872 -103.54 253.311c-54.1748 -7.33984 -96.1309 -55.7119 -104.447 -108.317c-7.30762 -46.2266 6.48535 -107.175 53.7314 -126.728
c13.6602 -5.65332 -8.16113 -29.6045 -19.7979 -25.1367c-63.5 24.373 -78.7666 105.168 -62.0107 164.696c17.0596 60.5957 70.5137 111.765 132.695 123.727c154.394 29.7051 184.67 -158.088 189.495 -268.759c6.1543 -141.198 -28.2061 -293.468 -99.6914 -415.941
c-16.4141 -28.1152 -36.7783 -55.6592 -60.6123 -79.5195c51.708 -8.62109 103.753 -12.8271 156.497 -5.11426c9.41602 1.37695 12.7197 -7.45215 10.7764 -14.835c-2.4873 -9.46973 -13.377 -14.7646 -22.1367 -16.083
c-59.2031 -8.89844 -118.534 -3.49121 -177.171 7.00879c-0.34668 0.0644531 -0.693359 0.133789 -1.04004 0.198242c-17.3906 -12.9766 -36.1797 -23.8076 -56.2607 -31.6113zM110.601 -65.1699c-21.1377 -4.50488 11.8779 -9.0752 19.5801 -7.5752
c4.18457 0.811523 8.33789 1.98047 12.4531 3.3418c-10.9111 2.95703 -23.3643 6.08008 -32.0332 4.2334z" />
    <glyph glyph-name="three" unicode="3" horiz-adv-x="433" 
d="M199.778 -153.447c-83.085 -5.83984 -135.585 64.4287 -149.479 138.514c-4.17969 22.2803 36.4902 47.502 47.5234 22.7021c20.9775 -47.1494 65.2285 -118.085 127.389 -96.3809c47.6895 16.6494 58.958 76.6797 61.9316 120.659
c3.66211 54.0625 -4.78223 109.721 -38.208 153.972c-29.5352 39.1006 -75.1152 62.6035 -124.294 58.0557c-18.2773 -1.69238 -33.0469 11.8389 -32.043 29.9824c1.13184 20.5352 21.1602 40.835 38.8818 48.4521c92.9229 39.9492 146.494 132.151 155.168 230.551
c5.11328 57.9961 -13.6387 117.509 -78.2383 127.934c-62.6729 10.1152 -111.179 -42.9385 -111.75 -102.958c-0.12793 -13.9102 -29.7051 -26.0117 -29.7852 -7.7666c-0.288086 66.3447 50.8174 127.528 116.394 138.983
c60.7031 10.6064 133.507 -26.5664 159.161 -82.6729c31.1094 -68.042 11.1885 -150.967 -21.5547 -214.51c-18.6934 -36.2822 -43.8721 -68.7207 -73.6475 -96.2539c39.5918 -16.0723 74.2773 -44.7637 96.8672 -81.2217
c42.6875 -68.9023 47.876 -155.537 25.9053 -232.211c-22.0938 -77.1064 -85.8389 -149.899 -170.221 -155.83z" />
    <glyph glyph-name="four" unicode="4" horiz-adv-x="421" 
d="M85.917 84.1436c-69.8145 23.5244 -19.5928 123.115 -1.04395 167.42c30.9492 73.8877 68.6992 145.01 104.549 216.591c35.043 69.9746 64.877 142.356 88.8545 216.863c0.0751953 1.22754 0.133789 2.4502 0.213867 3.67773
c2.60449 40.6426 86.2441 78.6328 89.0625 23.2197c7.3125 -143.745 1.69141 -288.237 0.586914 -432.115c-0.554688 -72.4248 -2.19922 -144.828 -3.57129 -217.242c-0.705078 -37.2637 -1.6875 -75.0352 -5.04004 -112.155
c-3.06934 -34.0078 -5.31641 -68.5977 -23.4443 -98.4102c-6.32031 -10.3877 -23.29 -18.9014 -33.2559 -8.89258c-22.0352 22.1201 -20.8662 63.6387 -22.8203 92.8047c-2.42871 36.1426 -3.73145 72.5312 -4.3291 108.749
c-0.197266 12.0371 -0.394531 24.0684 -0.591797 36.0996c-27.752 -2.02832 -55.5674 -3.3623 -83.335 -3.82715c-33.6553 -0.56543 -73.375 -3.71973 -105.835 7.21777zM113.795 208.929c-9.24512 -27.2715 -31.1143 -75.5146 9.99316 -84.1562
c33.4639 -7.03516 72.249 -2.74902 106.043 0.0908203c14.877 1.24902 29.7002 2.95215 44.502 4.7666c-0.614258 41.7959 -1.09473 83.5967 -1.1377 125.403c-0.106445 110.089 -2.32715 220.562 0.709961 330.727c-35.3105 -95.0576 -80.1865 -187.067 -120.504 -279.573
c-13.9902 -32.1025 -28.3545 -64.0557 -39.6064 -97.2578z" />
    <glyph glyph-name="five" unicode="5" horiz-adv-x="466" 
d="M374.412 670.279c-44.4326 -3.52832 -90.3291 0.277344 -134.938 0.458984c-11.9893 0.0478516 -24.0479 0.506836 -36.1328 1.07812c-0.304688 -24.8906 -3.37402 -50.1494 -5.77051 -74.1914c-3.73633 -37.4775 -7.00879 -74.9922 -10.8037 -112.465
c-4.00879 -39.5918 -7.85742 -79.1934 -11.9512 -118.779c-0.625 -6.02637 -1.1748 -12.0527 -1.77832 -18.0791c6.96582 5.43945 14.2578 10.4678 21.96 14.9248c31.9473 18.4902 73.5938 29.0215 107.612 9.01465c29.3213 -17.2412 44.5293 -53.3789 55.6533 -83.9014
c14.1719 -38.8867 26.9668 -79.5137 32.7207 -120.589c10.7129 -76.4072 3.57617 -163.693 -36.5059 -231.314c-39.2871 -66.2812 -129.68 -116.266 -204.416 -79.0068c-72.916 36.3516 -93.0137 134.351 -99.8887 207.368
c-1.92188 20.4014 12.1543 38.0215 30.3301 46.4023c13.8516 6.38379 39.874 9.12793 44.2031 -10.793c11.2207 -51.6553 27.7686 -102.483 61.0723 -144.375c23.9668 -30.1484 62.4961 -45.2334 92.6611 -14.4014c30.5547 31.2266 45.0098 80.1543 53.5078 121.769
c10.1797 49.8613 11.2686 101.853 2.82422 152.034c-6.48535 38.5293 -26.2354 106.497 -73.6143 110.062c-43.3115 3.25586 -65.9121 -39.9229 -85.9023 -70.6162c-15.5283 -23.8496 -28.8623 -47.0586 -58.5518 -55.3594
c-21.4746 -6.00488 -45.3457 -0.373047 -48.7139 24.3682c-3.25098 23.8975 4.56934 52.3008 7.4834 76.1289c3.19727 26.166 6.49609 52.3271 10.1582 78.4297c7.66016 54.5859 17.7432 108.947 29.2461 162.845c9.37305 43.9199 17.54 90.3545 33.3994 133.005
c-13.5107 0.374023 -26.9785 0.438477 -40.334 -0.276367c-22.9795 -1.22754 -4.16895 28.1895 10.9209 29.7158c16.4092 1.66016 32.6953 4.03027 48.96 6.5498c10.5801 8.98926 27.373 17.3008 32.0811 4.98633c21.1543 3.25098 42.3779 6.19238 63.8896 7.62793
c45.751 3.04785 92.9492 7.73438 138.674 3.25098c15.624 -1.53223 15.5547 -19.7607 10.5957 -30.0791c-6.96582 -14.5088 -22.75 -24.5283 -38.6514 -25.793zM165.058 262.302c-0.597656 -6.67285 -0.56543 -6.70996 0.0966797 -0.0585938
c-0.0322266 0.015625 -0.0644531 0.0371094 -0.0966797 0.0585938z" />
    <glyph glyph-name="six" unicode="6" horiz-adv-x="443" 
d="M271.889 734.473c51.7461 5.09277 108.502 -34.3057 118.82 -85.9131c2.97363 -14.8662 -27.5537 -32.1182 -31.584 -15.0898c-14.8926 62.9238 -88.0166 63.1533 -128.067 23.3916c-36.0361 -35.7852 -53.0107 -93.4082 -64.0439 -141.466
c-22.1152 -96.333 -21.1709 -200.454 -14.5518 -298.763c44.7051 26.9189 97.7422 38.9023 148.543 18.0312c64.7227 -26.5938 88.7861 -90.7344 91.4707 -156.817c2.45508 -60.3984 -16.8945 -118.886 -47.9668 -170.087
c-32.876 -54.1855 -100.422 -99.6162 -161.424 -58.333c-50.0693 33.8848 -82.6035 96.7656 -100.395 152.872c-20.4014 64.3643 -27.1328 132.097 -30.3779 199.242c-6.77344 140.163 -2.56152 290.965 66.8477 416.849c31.2646 56.71 85.2412 109.438 152.729 116.083z
M280.268 202.091c-44.4434 14.8604 -87.5918 -0.955078 -124.364 -25.7021c8.67969 -80.7197 28.8574 -162.268 72.1104 -231.218c9.37305 -14.9463 23.9834 -38.0488 42.7998 -42.6074c19.9268 -4.8252 38.0439 21.5283 47.6357 35.7539
c27.0957 40.1787 38.5137 90.1201 35.8496 138.215c-2.76465 49.9307 -22.0029 108.162 -74.0312 125.559z" />
    <glyph glyph-name="seven" unicode="7" horiz-adv-x="384" 
d="M98.8057 7.14941c9.83203 41.1074 20.5117 82.0059 31.5293 122.804c13.3662 49.5361 27.5654 98.8369 41.6094 148.181c-10.7881 -0.448242 -21.5762 -0.891602 -32.375 -1.15332c-21.7949 -0.52832 -4.65527 27.9443 10.4775 28.5205
c10.041 0.384766 20.0654 0.945312 30.0898 1.48438c6.38379 22.6006 12.6982 45.2227 18.8213 67.8926c11.0811 41.0273 22.248 82.0762 32.4277 123.344c10.2168 41.4277 24.3838 85.9248 26.4551 128.719c1.84668 38.1611 -19.4033 65.3682 -56.5176 74.5869
c-43.3975 10.7773 -96.04 -9.7627 -138.695 -19.1416c-21.0898 -4.63379 -12.5332 21.2549 2.23145 25.002c70.6523 17.9404 177.459 60.3076 238.989 -0.779297c30.7891 -30.5752 26.9453 -72.3711 23.0117 -112.154
c-4.54785 -45.9434 -12.1758 -91.6523 -20.4277 -137.062c-8.70117 -47.8701 -19.3076 -95.4893 -30.7363 -142.922c15.7627 1.63867 31.5098 3.43262 47.2402 5.4668c22.7871 2.94629 4.96875 -29.0283 -11.3652 -30.918c-14.3906 -1.66504 -28.792 -3.16504 -43.2041 -4.5
c-8.84473 -35.668 -18.0264 -71.2344 -27.1113 -106.721c-11.498 -44.8916 -22.8896 -89.832 -33.1865 -135.018c-10.249 -44.9775 -13.7559 -99.3232 -34.2217 -140.799c-10.2598 -20.791 -27.2822 -37.8721 -50.4219 -43.7441
c-15.5498 -3.9502 -41.4492 -1.45215 -44.8125 18.7676c-6.97168 41.9297 10.4775 89.5439 20.1924 130.145z" />
    <glyph glyph-name="eight" unicode="8" horiz-adv-x="399" 
d="M62.042 577.138c18.0098 62.0586 70.1201 121.266 137.068 129.128c56.7051 6.66211 108.664 -31.4717 131.243 -81.7227c28.3232 -63.0352 19.0781 -136.655 9.67773 -202.941c-10.5801 -74.5977 -24.0107 -152.996 -48.3779 -224.401
c-1.29199 -3.78418 -4.54297 -7.73438 -8.80762 -11.3213c11.6309 -20.8555 22.7607 -41.9883 32.7373 -63.7617c28.376 -61.9307 48.3721 -140.12 15.4961 -204.367c-26.1934 -51.1797 -79.2207 -93.7334 -137.714 -98.9541
c-55.9678 -4.99609 -99.0605 32.54 -115.896 83.8477c-18.9385 57.7246 -13.3867 127.736 1.32422 185.535c11.4336 44.9297 31.168 93.0029 63.041 128.735c-66.3076 106.091 -115.625 236.704 -79.792 360.224zM281.315 -87.0391
c17.54 32.999 6.68457 69.5801 -8.73633 101.239c-28.6963 58.8984 -68.6562 111.643 -105.958 165.177c-3.5127 5.03906 -6.9873 10.1797 -10.4463 15.3574c-39.1006 -50.1279 -54.1377 -125.195 -54.2979 -183.838c-0.160156 -58.4824 25.3066 -153.033 99.5303 -150.273
c32.668 1.2168 64.7646 23.8438 79.9082 52.3379zM206.208 646.007c-67.6045 8.79199 -60.8613 -93.2578 -56.3779 -134.29c8.0332 -73.5889 28.6592 -143.793 64.9092 -208.436c11.3115 -20.1777 23.1084 -40.0771 34.8838 -59.9824
c5.72754 26.2197 12.3623 52.3223 17.5186 78.5312c8.75977 44.5127 16.0244 89.3779 20.0703 134.585c3.59766 40.1572 5.65234 81.8193 -7.70312 120.546c-10.7666 31.2324 -38.7373 64.5518 -73.3008 69.0459z" />
    <glyph glyph-name="nine" unicode="9" horiz-adv-x="527" 
d="M272.148 -146.897c-33.7305 -8.90332 -69.1387 -6.56445 -96.2451 16.9971c-22.5098 19.5742 -34.4717 46.6904 -44.8594 74.0791c-10.2812 27.1113 44.5449 62.0264 63.292 37.7549c17.0547 -22.0771 45.1748 -56.9443 77.6084 -47.5391
c25.4248 7.37207 42.3564 39.293 53.1387 60.9062c37.1143 74.3945 46.541 161.264 53.8057 242.95c6.9873 78.5479 8.97266 156.871 9.61328 235.653c0.298828 36.8525 -1.95898 73.0967 -4.60645 109.795c-0.549805 7.63867 0.619141 22.0244 -3.67285 29.2148
c-8.59961 14.3906 -7.80469 -1.4043 -11.3281 -11.3809c-4.75586 -13.457 -7.74512 -27.5273 -11.2041 -41.3574c-16.8994 -67.5303 -36.0625 -134.836 -65.5176 -198.122c-24.0684 -51.7139 -57.4785 -125.19 -119.281 -137.771
c-75.9795 -15.4639 -117.401 51.2598 -122.168 117.68c-4.89453 68.1865 15.624 135.914 46.4668 196.099c28.8887 56.3789 77.624 118.555 134.312 149.387c37.0078 20.1289 112.508 30.4736 121.593 -26.877c1.90527 -12.0205 -21.0957 -26.8438 -26.2734 -12.5488
c-9.19727 25.3926 -37.9473 30.5332 -57.5859 13.9482c-11.9199 -10.0674 -23.5996 -24.1172 -33.9609 -35.7646c-23.167 -26.0332 -41.6309 -55.9414 -56.7588 -87.2588c-28.707 -59.416 -47.7637 -138.161 -24.4102 -202.216
c5.45508 -14.9619 13.793 -29.3633 24.0684 -41.5605c10.6172 -12.6025 18.042 -15.458 31.0449 -3.80566c24.5273 21.9814 41.3633 56.4434 55.6846 85.7002c30.7734 62.8535 46.707 131.611 64.5039 198.885c10.6328 40.2002 41.6514 110.521 84.9951 57.3662
c42.8418 -52.5469 52.0176 -135.444 57.0244 -200.888c10.7188 -140.137 11.4238 -303.231 -48.8623 -433.418c-29.3428 -63.3613 -79.8926 -127.288 -150.417 -145.907z" />
    <glyph glyph-name="colon" unicode=":" horiz-adv-x="162" 
d="M73.9102 312.321c-6.40527 -2.3916 -21.7354 -3.2666 -22.4883 7.21191c-1.27539 17.6953 -3.63965 40.7393 3.49707 57.4307c4.5 10.5264 21.6885 22.6221 31.6973 11.8447c6.17578 -6.65137 6.62988 -16.2383 7.60156 -24.8486
c1.10449 -9.7793 1.28027 -18.8271 0.15918 -28.6006c-1.24414 -10.8682 -10.7246 -19.4033 -20.4668 -23.0381zM111.409 -106.46c6.57129 -29.5244 -53.4736 -55.8779 -54.9951 -20.2686c-0.426758 10.0244 -0.0800781 19.5205 2.07617 29.3213
c0.987305 4.5 1.80957 9.30371 3.5127 13.6221c2.31641 5.88281 6.76855 10.4785 9.05273 16.3506c4.07324 10.457 29.3213 23.3857 29.8867 4.55371c0.0957031 -3.30957 3.34668 -6.42676 4.37695 -9.54395c1.13672 -3.43262 1.23828 -7.39355 1.88379 -10.9697
c1.38281 -7.69238 2.50879 -15.4326 4.20605 -23.0654z" />
    <glyph glyph-name="semicolon" unicode=";" horiz-adv-x="199" 
d="M102.441 329.056c-10.3926 -5.32715 -34.7949 -7.6543 -36.8555 9c-2.29492 18.5439 -5.98828 42.5059 1.7041 60.2061c7.14258 16.4463 32.1992 33.501 47.8926 17.8984c10.751 -10.6865 11.333 -34.1631 12.5449 -48.4209
c1.48926 -17.5244 -10.2012 -30.9492 -25.2861 -38.6836zM114.684 34.8135c13.9805 3.22363 37.373 -2.00195 33.4707 -21.4268c-11.834 -58.9355 -20.1934 -126.438 -45.5166 -181.259c-5.2207 -11.3008 -15.0586 -20.7646 -27.4375 -23.7969
c-7.80957 -1.91113 -23.4014 -0.976562 -24.3779 10.2119c-4.96973 56.9395 13.7129 120.301 24.8848 175.959c3.86426 19.2539 19.4668 35.8174 38.9766 40.3115z" />
    <glyph glyph-name="less" unicode="&#x3c;" horiz-adv-x="415" 
d="M345.705 258.494c21.3779 -4.25977 22.3867 -26.2539 14.876 -42.2139c-9.0957 -19.3076 -32.4229 -35.999 -54.2441 -36.1963c-55.3379 -0.506836 -111.888 8.58398 -166.612 16.4463c-42.5859 6.11719 -119.153 25.3867 -77.8916 82.3633
c17.5723 24.2666 46.8457 34.873 73.2842 46.6113c24.875 11.0391 50.1719 21.1973 75.5059 31.1367c43.04 16.8838 96.8145 44.4004 144.184 37.7871c15.5225 -2.16699 9.91211 -22.1201 2.40723 -29.0967c-32.6523 -30.3301 -77.2129 -46.9951 -117.194 -65.4854
c-16.1738 -7.47852 -32.252 -15.165 -48.2764 -22.9639c14.1133 -1.60156 28.04 -2.43945 39.709 -3.92871c38.001 -4.85254 76.7061 -6.97656 114.253 -14.46z" />
    <glyph glyph-name="equal" unicode="=" horiz-adv-x="415" 
d="M339.545 397.231c53.7959 -3.08008 12.2285 -72.6826 -25.9111 -70.499c-45.8955 2.62598 -91.6846 2.95703 -137.628 1.54199c-21.7676 -0.672852 -43.4824 -2.2793 -65.2344 -3.2832c-9.73145 -0.448242 -19.4834 -1.26465 -29.2354 -0.901367
c-3.65137 0.133789 -30.7363 2.75488 -15.667 1.38867c-27.5703 2.49805 -3.17578 40.4082 10.4629 45.5859c81.291 30.8535 177.433 31.0723 263.213 26.167zM317.167 244.636c56.043 -3.72559 11.7012 -72.2236 -26.6406 -72.4902
c-41.0752 -0.293945 -82.1504 1.09375 -123.231 0.848633c-33.5117 -0.203125 -79.5996 -8.375 -109.834 8.65332c-19.542 11.001 4.22754 35.5928 15.2188 41.4062c35.4277 18.7412 81.4619 18.9014 120.723 20.9834c41.2139 2.18359 82.5449 3.33691 123.765 0.598633z
" />
    <glyph glyph-name="greater" unicode="&#x3e;" horiz-adv-x="381" 
d="M328.223 302.212c17.8076 -46.4824 -56.2881 -77.7148 -88.4492 -87.7285c-52.3594 -16.3076 -107.255 -33.25 -161.536 -41.1982c-15.8535 -2.32227 -28.4189 10.8301 -27.6934 25.915c0.827148 17.1885 18.3301 36.1221 33.6074 41.876
c39.4688 14.8662 80.7627 23.6953 121.641 33.832c5.95703 1.47363 12.0371 3.25098 18.1758 5.01758c-54.1318 24.5596 -118.385 21.5703 -167.91 56.6777c-19.4033 13.7607 12.7256 37.2314 27.4473 34.8457c45.7246 -7.41406 91.9727 -11.8174 137.617 -19.6592
c30.2822 -5.19922 94.3857 -16.3926 107.101 -49.5781z" />
    <glyph glyph-name="question" unicode="?" horiz-adv-x="412" 
d="M256.442 684.113c88.0918 -20.4873 108.981 -124.588 105.378 -201.688c-4.37207 -93.3652 -35.6895 -184.02 -63.2656 -272.527c-14.001 -44.9238 -28.792 -89.5752 -40.5674 -135.161c-11.7812 -45.6016 -15.1387 -93.4131 -28.6113 -138.443
c-6.35254 -21.2178 -29.9199 -38.6777 -50.6582 -43.9414c-15.0264 -3.81641 -42.4102 -1.59082 -45.0146 18.8535c-6.13867 48.1797 8.95117 99.3271 21.1006 145.634c11.583 44.1504 25.6914 87.7129 40.7227 130.801c30.4746 87.3555 68.5557 175.591 81.5 267.776
c9.3418 66.5264 6.65137 229.573 -105.274 192.111c-39.0361 -13.0674 -69.3506 -46.915 -83.0693 -85.0439c-12.3896 -34.4404 -16.0352 -113.1 40.6484 -107.783c20.6309 1.9375 4.12598 -25.8145 -10.041 -27.3193c-96.0508 -10.2168 -74.043 126.044 -41.7217 174.528
c36.6445 54.9805 111.344 97.9082 178.874 82.2041zM206.177 -160.726c7.0625 -13.5801 7.57129 -28.4434 8.59082 -43.459c1.23828 -18.0742 -11.6211 -32.3955 -28.1201 -38.4697c-14.6738 -5.40234 -31.8516 -1.72461 -31.7822 16.3975
c0.0371094 9.8916 -0.0751953 19.9482 1.0293 29.791c0.677734 6.04785 1.90527 12.8486 4.18945 18.5117c2.07617 6.18164 6.66113 11.4932 12.1113 15.4541c0.192383 0.165039 0.384766 0.335938 0.577148 0.500977
c-0.0693359 -0.0849609 -0.133789 -0.169922 -0.203125 -0.254883c3.10645 2.20996 6.46387 4.00391 9.7998 5.24805c6.24023 2.33301 19.6973 4.18555 23.8076 -3.71973z" />
    <glyph glyph-name="at" unicode="@" horiz-adv-x="806" 
d="M750.167 397.12c12.0527 -92.6826 8.68555 -195.614 -29.2773 -282.302c-19.3447 -44.2031 -47.4756 -85.834 -91.166 -108.969c-41.2832 -21.8584 -90.4619 -20.5938 -125.868 11.4287c-43.8672 39.6768 -46.7812 98.2178 -39.6768 156.684
c-17.0811 -32.4121 -34.9951 -64.3066 -58.082 -93.0518c-26.3057 -32.7588 -57.5801 -65.6934 -103.102 -64.834c-44.3799 0.837891 -63.8311 40.8193 -65.2461 79.9678c-3.22949 89.2979 50.2354 173.675 105.852 239.229
c26.3584 31.0723 64.3643 59.8916 106.604 62.7793c31.627 2.16211 57.9639 -16.9316 64.2783 -47.9023c2.50391 -12.2988 -15.458 -24.9336 -26.2891 -19.0996c-50.2617 27.0742 -81.1523 -27.543 -103.24 -63.1201c-26.8975 -43.3223 -50.667 -91.46 -46.2949 -143.969
c0.629883 -7.52637 1.47363 -22.4561 7.33496 -28.5361c5.65332 -5.86133 8.29004 -0.828125 16.542 7.33887c18.4375 18.25 32.5615 40.3867 45.6553 62.6035c26.252 44.5498 48.5488 91.417 78.9268 133.442c6.4375 8.90332 44.6514 32.4707 46.7441 7.19531
c3.49121 -42.1055 9.90723 -83.8965 13.2861 -126.125c2.79199 -34.915 8.57324 -81.5791 44.6465 -98.8896c6.33105 -3.03711 10.9746 -3.9873 17.2949 -2.83984c1.08887 0.913086 2.4873 2.31152 4.11523 4.40918c11.0332 14.21 19.3281 29.3057 26.1768 46.0078
c15.4482 37.6641 23.2842 77.2764 27.0205 117.689c12.2715 132.706 -3.25098 331.912 -161.093 370.645c-139.416 34.2158 -279.371 -74.8857 -344.243 -189.293c-72.083 -127.128 -76.3057 -298.924 5.60449 -422.764c37.8242 -57.1855 92.96 -98.6934 160.692 -112.882
c73.2305 -15.3359 149.248 1.04102 215.865 32.6953c36.9277 17.5508 40.1514 -27.5547 10.1631 -41.9033c-87.248 -41.748 -192.063 -62.7852 -286.235 -32.0703c-88.3057 28.7979 -150.786 99.1299 -185.515 183.458c-68.459 166.244 -21.6777 364.041 100.315 492.444
c106.673 112.277 306.199 200.203 445.386 91.1973c69.3232 -54.2871 111.487 -133.454 122.825 -220.665zM608.681 77.8428c-2.9043 -0.993164 -2.45508 -1.90039 0 0z" />
    <glyph glyph-name="A" unicode="A" horiz-adv-x="1128" 
d="M850.097 228.557c-170.461 0.0478516 -340.959 0.109375 -511.394 -2.97559c-15.4424 -48.1592 -30.6611 -96.3604 -46.0713 -144.401c-63.6279 -198.389 -125.702 -397.269 -186.683 -596.485c-4.45215 -14.54 -36.1963 -21.6504 -29.9346 -1.13672
c72.665 238.039 146.91 475.593 223.467 712.409c3.12305 9.65137 6.22949 19.334 9.33594 29.0273c-82.8232 -1.68652 -165.625 -4.14746 -248.39 -7.79883c-21.9336 -0.97168 -4.79883 28.2324 10.6279 28.916c82.3164 3.66211 164.67 6.15527 247.045 7.87988
c56.4756 176.738 113.826 358.206 206.866 518.557c32.4756 55.9678 95.4736 164.439 176.439 137.686c32.374 -10.6973 59.0693 -38.9561 73.957 -68.6777c21.4902 -42.917 38.9082 -88.4121 53.3896 -134.126c30.9707 -97.7529 51.8525 -197.919 73.6797 -297.983
c11.0547 -50.668 22.6963 -101.224 35.0693 -151.603c20.2197 0.0107422 40.4346 0.0322266 60.6494 0.0644531c22.3496 0.0371094 5.00684 -29.2998 -10.7725 -29.3154c-14.1885 -0.0214844 -28.3818 -0.0263672 -42.5703 -0.03125
c10.5312 -41.8496 21.5596 -83.5654 33.2334 -125.095c56.8115 -202.147 131.441 -397.516 207.491 -592.995c8.46582 -21.7578 -16.9805 -46.4883 -32.9307 -56.1816c-13.0889 -7.95312 -49.4824 -19.6328 -59.1816 1.2334
c-93.2959 200.797 -159.769 414.239 -212.315 629.032c-11.6797 47.7529 -21.7578 95.7998 -31.0088 144.001zM492.259 645.669c-56.2881 -127.016 -101.437 -258.743 -144.209 -391.081c165.48 3.09082 331.03 3.20312 496.549 3.22949
c-25.3174 136.619 -45.2061 274.226 -76.9668 409.568c-10.9316 46.584 -22.2529 93.5146 -37.498 138.908c-11.375 33.8691 -28.8672 89.4951 -76.0547 76.6943c-43.8779 -11.9033 -75.5 -72.4941 -97.0117 -108.547
c-24.6562 -41.3154 -45.3301 -84.8252 -64.8086 -128.772z" />
    <glyph glyph-name="A" unicode="&#xc5;" horiz-adv-x="1128" 
d="M850.097 228.557c-170.461 0.0478516 -340.959 0.109375 -511.394 -2.97559c-15.4424 -48.1592 -30.6611 -96.3604 -46.0713 -144.401c-63.6279 -198.389 -125.702 -397.269 -186.683 -596.485c-4.45215 -14.54 -36.1963 -21.6504 -29.9346 -1.13672
c72.665 238.039 146.91 475.593 223.467 712.409c3.12305 9.65137 6.22949 19.334 9.33594 29.0273c-82.8232 -1.68652 -165.625 -4.14746 -248.39 -7.79883c-21.9336 -0.97168 -4.79883 28.2324 10.6279 28.916c82.3164 3.66211 164.67 6.15527 247.045 7.87988
c56.4756 176.738 113.826 358.206 206.866 518.557c32.4756 55.9678 95.4736 164.439 176.439 137.686c32.374 -10.6973 59.0693 -38.9561 73.957 -68.6777c21.4902 -42.917 38.9082 -88.4121 53.3896 -134.126c30.9707 -97.7529 51.8525 -197.919 73.6797 -297.983
c11.0547 -50.668 22.6963 -101.224 35.0693 -151.603c20.2197 0.0107422 40.4346 0.0322266 60.6494 0.0644531c22.3496 0.0371094 5.00684 -29.2998 -10.7725 -29.3154c-14.1885 -0.0214844 -28.3818 -0.0263672 -42.5703 -0.03125
c10.5312 -41.8496 21.5596 -83.5654 33.2334 -125.095c56.8115 -202.147 131.441 -397.516 207.491 -592.995c8.46582 -21.7578 -16.9805 -46.4883 -32.9307 -56.1816c-13.0889 -7.95312 -49.4824 -19.6328 -59.1816 1.2334
c-93.2959 200.797 -159.769 414.239 -212.315 629.032c-11.6797 47.7529 -21.7578 95.7998 -31.0088 144.001zM492.259 645.669c-56.2881 -127.016 -101.437 -258.743 -144.209 -391.081c165.48 3.09082 331.03 3.20312 496.549 3.22949
c-25.3174 136.619 -45.2061 274.226 -76.9668 409.568c-10.9316 46.584 -22.2529 93.5146 -37.498 138.908c-11.375 33.8691 -28.8672 89.4951 -76.0547 76.6943c-43.8779 -11.9033 -75.5 -72.4941 -97.0117 -108.547
c-24.6562 -41.3154 -45.3301 -84.8252 -64.8086 -128.772z" />
    <glyph glyph-name="A" unicode="&#xc4;" horiz-adv-x="1128" 
d="M850.097 228.557c-170.461 0.0478516 -340.959 0.109375 -511.394 -2.97559c-15.4424 -48.1592 -30.6611 -96.3604 -46.0713 -144.401c-63.6279 -198.389 -125.702 -397.269 -186.683 -596.485c-4.45215 -14.54 -36.1963 -21.6504 -29.9346 -1.13672
c72.665 238.039 146.91 475.593 223.467 712.409c3.12305 9.65137 6.22949 19.334 9.33594 29.0273c-82.8232 -1.68652 -165.625 -4.14746 -248.39 -7.79883c-21.9336 -0.97168 -4.79883 28.2324 10.6279 28.916c82.3164 3.66211 164.67 6.15527 247.045 7.87988
c56.4756 176.738 113.826 358.206 206.866 518.557c32.4756 55.9678 95.4736 164.439 176.439 137.686c32.374 -10.6973 59.0693 -38.9561 73.957 -68.6777c21.4902 -42.917 38.9082 -88.4121 53.3896 -134.126c30.9707 -97.7529 51.8525 -197.919 73.6797 -297.983
c11.0547 -50.668 22.6963 -101.224 35.0693 -151.603c20.2197 0.0107422 40.4346 0.0322266 60.6494 0.0644531c22.3496 0.0371094 5.00684 -29.2998 -10.7725 -29.3154c-14.1885 -0.0214844 -28.3818 -0.0263672 -42.5703 -0.03125
c10.5312 -41.8496 21.5596 -83.5654 33.2334 -125.095c56.8115 -202.147 131.441 -397.516 207.491 -592.995c8.46582 -21.7578 -16.9805 -46.4883 -32.9307 -56.1816c-13.0889 -7.95312 -49.4824 -19.6328 -59.1816 1.2334
c-93.2959 200.797 -159.769 414.239 -212.315 629.032c-11.6797 47.7529 -21.7578 95.7998 -31.0088 144.001zM492.259 645.669c-56.2881 -127.016 -101.437 -258.743 -144.209 -391.081c165.48 3.09082 331.03 3.20312 496.549 3.22949
c-25.3174 136.619 -45.2061 274.226 -76.9668 409.568c-10.9316 46.584 -22.2529 93.5146 -37.498 138.908c-11.375 33.8691 -28.8672 89.4951 -76.0547 76.6943c-43.8779 -11.9033 -75.5 -72.4941 -97.0117 -108.547
c-24.6562 -41.3154 -45.3301 -84.8252 -64.8086 -128.772z" />
    <glyph glyph-name="A" unicode="&#xc3;" horiz-adv-x="1128" 
d="M850.097 228.557c-170.461 0.0478516 -340.959 0.109375 -511.394 -2.97559c-15.4424 -48.1592 -30.6611 -96.3604 -46.0713 -144.401c-63.6279 -198.389 -125.702 -397.269 -186.683 -596.485c-4.45215 -14.54 -36.1963 -21.6504 -29.9346 -1.13672
c72.665 238.039 146.91 475.593 223.467 712.409c3.12305 9.65137 6.22949 19.334 9.33594 29.0273c-82.8232 -1.68652 -165.625 -4.14746 -248.39 -7.79883c-21.9336 -0.97168 -4.79883 28.2324 10.6279 28.916c82.3164 3.66211 164.67 6.15527 247.045 7.87988
c56.4756 176.738 113.826 358.206 206.866 518.557c32.4756 55.9678 95.4736 164.439 176.439 137.686c32.374 -10.6973 59.0693 -38.9561 73.957 -68.6777c21.4902 -42.917 38.9082 -88.4121 53.3896 -134.126c30.9707 -97.7529 51.8525 -197.919 73.6797 -297.983
c11.0547 -50.668 22.6963 -101.224 35.0693 -151.603c20.2197 0.0107422 40.4346 0.0322266 60.6494 0.0644531c22.3496 0.0371094 5.00684 -29.2998 -10.7725 -29.3154c-14.1885 -0.0214844 -28.3818 -0.0263672 -42.5703 -0.03125
c10.5312 -41.8496 21.5596 -83.5654 33.2334 -125.095c56.8115 -202.147 131.441 -397.516 207.491 -592.995c8.46582 -21.7578 -16.9805 -46.4883 -32.9307 -56.1816c-13.0889 -7.95312 -49.4824 -19.6328 -59.1816 1.2334
c-93.2959 200.797 -159.769 414.239 -212.315 629.032c-11.6797 47.7529 -21.7578 95.7998 -31.0088 144.001zM492.259 645.669c-56.2881 -127.016 -101.437 -258.743 -144.209 -391.081c165.48 3.09082 331.03 3.20312 496.549 3.22949
c-25.3174 136.619 -45.2061 274.226 -76.9668 409.568c-10.9316 46.584 -22.2529 93.5146 -37.498 138.908c-11.375 33.8691 -28.8672 89.4951 -76.0547 76.6943c-43.8779 -11.9033 -75.5 -72.4941 -97.0117 -108.547
c-24.6562 -41.3154 -45.3301 -84.8252 -64.8086 -128.772z" />
    <glyph glyph-name="A" unicode="&#xc2;" horiz-adv-x="1128" 
d="M850.097 228.557c-170.461 0.0478516 -340.959 0.109375 -511.394 -2.97559c-15.4424 -48.1592 -30.6611 -96.3604 -46.0713 -144.401c-63.6279 -198.389 -125.702 -397.269 -186.683 -596.485c-4.45215 -14.54 -36.1963 -21.6504 -29.9346 -1.13672
c72.665 238.039 146.91 475.593 223.467 712.409c3.12305 9.65137 6.22949 19.334 9.33594 29.0273c-82.8232 -1.68652 -165.625 -4.14746 -248.39 -7.79883c-21.9336 -0.97168 -4.79883 28.2324 10.6279 28.916c82.3164 3.66211 164.67 6.15527 247.045 7.87988
c56.4756 176.738 113.826 358.206 206.866 518.557c32.4756 55.9678 95.4736 164.439 176.439 137.686c32.374 -10.6973 59.0693 -38.9561 73.957 -68.6777c21.4902 -42.917 38.9082 -88.4121 53.3896 -134.126c30.9707 -97.7529 51.8525 -197.919 73.6797 -297.983
c11.0547 -50.668 22.6963 -101.224 35.0693 -151.603c20.2197 0.0107422 40.4346 0.0322266 60.6494 0.0644531c22.3496 0.0371094 5.00684 -29.2998 -10.7725 -29.3154c-14.1885 -0.0214844 -28.3818 -0.0263672 -42.5703 -0.03125
c10.5312 -41.8496 21.5596 -83.5654 33.2334 -125.095c56.8115 -202.147 131.441 -397.516 207.491 -592.995c8.46582 -21.7578 -16.9805 -46.4883 -32.9307 -56.1816c-13.0889 -7.95312 -49.4824 -19.6328 -59.1816 1.2334
c-93.2959 200.797 -159.769 414.239 -212.315 629.032c-11.6797 47.7529 -21.7578 95.7998 -31.0088 144.001zM492.259 645.669c-56.2881 -127.016 -101.437 -258.743 -144.209 -391.081c165.48 3.09082 331.03 3.20312 496.549 3.22949
c-25.3174 136.619 -45.2061 274.226 -76.9668 409.568c-10.9316 46.584 -22.2529 93.5146 -37.498 138.908c-11.375 33.8691 -28.8672 89.4951 -76.0547 76.6943c-43.8779 -11.9033 -75.5 -72.4941 -97.0117 -108.547
c-24.6562 -41.3154 -45.3301 -84.8252 -64.8086 -128.772z" />
    <glyph glyph-name="A" unicode="&#xc1;" horiz-adv-x="1128" 
d="M850.097 228.557c-170.461 0.0478516 -340.959 0.109375 -511.394 -2.97559c-15.4424 -48.1592 -30.6611 -96.3604 -46.0713 -144.401c-63.6279 -198.389 -125.702 -397.269 -186.683 -596.485c-4.45215 -14.54 -36.1963 -21.6504 -29.9346 -1.13672
c72.665 238.039 146.91 475.593 223.467 712.409c3.12305 9.65137 6.22949 19.334 9.33594 29.0273c-82.8232 -1.68652 -165.625 -4.14746 -248.39 -7.79883c-21.9336 -0.97168 -4.79883 28.2324 10.6279 28.916c82.3164 3.66211 164.67 6.15527 247.045 7.87988
c56.4756 176.738 113.826 358.206 206.866 518.557c32.4756 55.9678 95.4736 164.439 176.439 137.686c32.374 -10.6973 59.0693 -38.9561 73.957 -68.6777c21.4902 -42.917 38.9082 -88.4121 53.3896 -134.126c30.9707 -97.7529 51.8525 -197.919 73.6797 -297.983
c11.0547 -50.668 22.6963 -101.224 35.0693 -151.603c20.2197 0.0107422 40.4346 0.0322266 60.6494 0.0644531c22.3496 0.0371094 5.00684 -29.2998 -10.7725 -29.3154c-14.1885 -0.0214844 -28.3818 -0.0263672 -42.5703 -0.03125
c10.5312 -41.8496 21.5596 -83.5654 33.2334 -125.095c56.8115 -202.147 131.441 -397.516 207.491 -592.995c8.46582 -21.7578 -16.9805 -46.4883 -32.9307 -56.1816c-13.0889 -7.95312 -49.4824 -19.6328 -59.1816 1.2334
c-93.2959 200.797 -159.769 414.239 -212.315 629.032c-11.6797 47.7529 -21.7578 95.7998 -31.0088 144.001zM492.259 645.669c-56.2881 -127.016 -101.437 -258.743 -144.209 -391.081c165.48 3.09082 331.03 3.20312 496.549 3.22949
c-25.3174 136.619 -45.2061 274.226 -76.9668 409.568c-10.9316 46.584 -22.2529 93.5146 -37.498 138.908c-11.375 33.8691 -28.8672 89.4951 -76.0547 76.6943c-43.8779 -11.9033 -75.5 -72.4941 -97.0117 -108.547
c-24.6562 -41.3154 -45.3301 -84.8252 -64.8086 -128.772z" />
    <glyph glyph-name="B" unicode="B" horiz-adv-x="1309" 
d="M1045.12 -282.789c-65.71 -81.6172 -151.368 -144.89 -241.862 -196.433c-98.7617 -56.2559 -215.876 -97.4648 -330.85 -92.1533c-46.4346 2.14062 -95.2236 12.1436 -131.19 43.5732c-39.0947 34.1631 -50.8057 86.416 -45.708 136.464
c6.06348 59.5234 31.1143 114.787 64.5029 165.006c-2.98926 0.811523 -5.71191 2.18359 -7.91602 4.32422c-27.9121 27.1377 -34.3555 64.3164 -40.5635 101.543c-0.149414 0.880859 -0.283203 1.75586 -0.427734 2.63086
c-28.3389 92.3242 -59.2139 184.659 -107.763 268.433c-26.9082 46.4297 -59.7686 86.7842 -95.709 126.402c-32.625 35.9619 -58.8877 74.2988 -57.5908 124.769c2.30566 89.6289 62.7686 182.487 116.377 250.6c35.9932 45.7295 76.791 88.3311 120.722 127.153
c1.63867 11.5615 3.38379 23.1025 5.27832 34.6055c4.05176 24.6182 25.2275 44.7471 49.125 50.8105c15.4531 3.92383 31.7715 0.224609 38.7266 -11.9141c145.256 102.264 324.775 178.553 502.934 188.705c80.7148 4.60156 221.097 -5.91406 249.745 -100.262
c27.8955 -91.8711 -72.2012 -182.626 -131.164 -237.793c-77.5654 -72.5742 -162.577 -135.321 -250.979 -193.254c49.0928 6.24512 98.7461 7.11035 148.613 0.261719c111.813 -15.3574 225.244 -75.4941 277.94 -178.996
c102.179 -200.685 -2.19336 -452.955 -132.241 -614.476zM132.421 305.073c56.3467 -63.5957 102.969 -127.95 138.263 -205.771c5.89844 -12.9922 11.418 -26.1396 16.7881 -39.3398c-7.22266 71.7949 -12.4375 143.713 -15.2236 215.854
c-5.69043 147.289 -7.94824 298.619 7.8418 446.304c-53.502 -49.3223 -103.636 -105.136 -143.393 -165.289c-25.4512 -38.5127 -46.376 -85.4326 -51.8955 -131.601c-5.80762 -48.5488 16.7236 -85.29 47.6191 -120.157zM599.383 -523.666
c181.762 44.3955 333.006 177.691 426.649 336.457c86.3145 146.328 147.327 376.355 17.6904 516.129c-142.607 153.754 -374.3 94.1025 -543.427 29.5459c-19.1523 -7.30762 -50.8916 -12.8594 -58.0342 14.1719c-7.01367 26.5508 19.6543 49.584 39.8213 60.9219
c172.532 96.9795 348.229 195.656 491.579 334.127c29.5615 28.5576 62.8701 57.6709 80.0957 95.8525c19.3281 42.8525 -2.51953 77.4639 -41.7637 97.0703c-82.4229 41.1816 -183.913 27.6982 -270.195 7.91016c-129.226 -29.6357 -251.373 -85.8438 -359.039 -162.773
c-5.51367 -163.346 -18.8477 -325.858 -16.5898 -489.647c1.20605 -87.4355 4.20605 -175.004 9.59766 -262.279c2.65332 -42.8633 5.30664 -85.7539 8.4502 -128.58c2.4873 -33.8535 2.78125 -69.4365 12.0908 -102.42c16.9209 20.9082 34.792 40.7598 52.6582 59.4746
c81.6113 85.4863 173.392 161.626 272.512 225.996c95.7568 62.1865 201.416 124.357 315.855 141.637c9.05273 1.36621 12.2178 -7.19629 10.3604 -14.2588c-2.40234 -9.11133 -12.8594 -14.1826 -21.2822 -15.458c-118.396 -17.9404 -231.811 -90.7715 -328.47 -157.949
c-95.7891 -66.5635 -186.347 -144.129 -261.841 -233.32c-60.5645 -71.5498 -128.938 -178.538 -98.5117 -276.622c33.2236 -107.084 176.274 -96.8721 261.793 -75.9844z" />
    <glyph glyph-name="C" unicode="C" horiz-adv-x="978" 
d="M223.896 -375.354c-100.86 64.4766 -133.097 191.807 -153.023 302.029c-44.4062 245.667 -16.5957 516.982 70.4336 750.698c39.3301 105.621 98.9443 218.262 194.482 283.379c86.7148 59.1064 197.338 81.6699 274.919 -4.26562
c72.5586 -80.373 65.1387 -207.549 36.9756 -304.699c-28.8887 -99.6484 -103.069 -191.263 -210.287 -207.874c-24.6562 -3.82227 -15.4219 26.417 2.60938 29.209c122.719 19.0137 177.833 142.378 190.212 253.62c6.55469 58.9092 2.75391 122.297 -29.1084 174.011
c-27.0469 43.8994 -73.1562 77.8428 -126.797 74.5762c-94.9619 -5.78125 -160.725 -110.389 -197.951 -187.266c-44.1338 -91.1348 -73.2041 -191.424 -94.54 -290.154c-45.4688 -210.399 -55.5361 -439.455 0.30957 -649.075
c23.1562 -86.9062 73.0391 -183.555 167.91 -206.86c98.752 -24.2607 195.635 32.5186 262.412 100.62c66.3613 67.6738 114.328 151.132 156.695 235.23c51.3027 101.837 95.2129 207.261 132.344 315.05c4.28613 12.4375 32.0488 18.7305 26.1074 0.992188
c-44.9717 -134.286 -99.8086 -266.661 -168.476 -390.683c-57.249 -103.4 -129.316 -197.412 -231.762 -259.081c-90.4512 -54.4521 -208.947 -79.877 -303.466 -19.457z" />
    <glyph glyph-name="D" unicode="D" horiz-adv-x="1237" 
d="M1004.65 -50.9268c-88.3906 -135.888 -209.304 -252.9 -357.511 -321.381c-81.4033 -37.6162 -172.398 -60.6387 -262.492 -57.3291c-72.9424 2.67969 -152.99 29.8232 -162.374 113.153c-8.63184 76.6309 33.3936 153.15 74.917 214.419
c13.3506 19.7021 27.8965 38.502 43.3125 56.5605c-2.89355 19.2588 -5.59961 38.5391 -7.98047 57.8887c-0.432617 3.52832 -0.785156 7.06738 -1.20703 10.5957c-19.2539 53.5605 -44.8389 104.848 -76.1406 152.366c-44.1123 66.9639 -104.084 117.669 -154.004 179.498
c-51.4844 63.7617 -64.6211 134.665 -37.1309 212.406c25.2002 71.2607 67.5723 137.568 116.782 194.556c106.283 123.082 257.938 204.656 418.412 229.12c157.832 24.0576 344.659 -2.4502 464.784 -115.902c115.24 -108.84 135.06 -282.167 117.52 -432.088
c-20.3965 -174.357 -81.1045 -346.606 -176.888 -493.863zM392.206 -363.681c143.099 -2.78613 284.422 68.9482 387.609 164.438c105.237 97.3799 184.596 219.714 238.253 352.26c55.5303 137.158 93.2529 296.143 76.8818 444.899
c-7.40918 67.3535 -26.4014 135.188 -65.0215 191.54c-40.1729 58.626 -99.6104 100.145 -165.16 126.215c-144.337 57.4092 -319.56 52.8184 -460.299 -13.3721c-130.336 -61.29 -238.338 -171.817 -296.873 -303.397
c-17.1133 -38.4648 -31.125 -81.0986 -25.0879 -123.717c4.90039 -34.6055 21.9922 -65.2988 43.0498 -92.6396c42.7783 -55.5566 97.2412 -100.448 138.728 -157.334c20.6738 -28.3496 39.0527 -58.125 55.1729 -88.9893
c-3.96094 44.6895 -7.14746 89.4424 -9.51172 134.286c-9.3418 177.197 -7.1377 354.555 6.71387 531.442c3.47461 44.3848 99.7227 82.3535 95.3457 24.8584c-13.3398 -175.223 -17.0605 -351.39 -9.84863 -526.985c3.62402 -88.1826 9.45312 -176.387 17.8174 -264.249
c14.0547 12.7363 28.4033 25.1367 42.9336 37.2324c67.5352 56.2295 140.104 106.197 216.122 150.235c73.7705 42.7354 155.408 89.1699 243.703 76.2148c20.7588 -3.04297 -3.70996 -32.8076 -19.5898 -30.6191c-46.4453 6.39453 -90.5635 -7.92188 -132.065 -27.7734
c-74.8428 -35.8018 -145.746 -81.7129 -212.363 -130.972c-47.3955 -35.043 -93.376 -72.4775 -135.017 -114.263c2.7334 -29.7432 5.41797 -59.4912 8.57812 -89.1914c4.90039 -46.0449 5.13477 -90.248 4.02441 -136.154
c-0.458984 -18.9551 -37.3389 -39.9922 -46.5254 -17.1406c-16.8096 41.8174 -29.0547 81.6221 -36.9814 126.359c-1.5957 9.00488 -3.12793 18.0156 -4.64941 27.0312c-28.6963 -41.3154 -51.4355 -86.8262 -62.1484 -136.116
c-7.13184 -32.8125 -8.1084 -70.9785 13.6699 -98.6826c21.5225 -27.3779 59.5449 -34.7764 92.5391 -35.417z" />
    <glyph glyph-name="E" unicode="E" horiz-adv-x="939" 
d="M1123.19 -125.556c21.2393 6.39453 12.4512 -21.0928 -2.31934 -25.7637c-149.926 -47.5498 -289.016 -124.144 -440.138 -168.357c-115.299 -33.7305 -251.448 -54.7295 -338.339 47.46c-35.9883 42.3242 -56.5342 97.0215 -71.3047 149.894
c-19.8516 71.0693 -32.1504 143.585 -39.3135 216.981c-4.51562 46.2744 -7.06738 92.5811 -7.95898 138.888c-0.0429688 -0.015625 -0.0859375 -0.0371094 -0.128906 -0.0527344c-30.501 -13.1104 -62.0107 -25.916 -91.9668 -41.2842
c0 -5.72266 -3.59277 -12.7852 -10.7881 -16.5166c-18.8857 -9.79492 -38.0967 -17.9668 -58.0498 -25.2793c-17.6416 -6.46387 -14.791 15.0537 -5.56152 22.3242c46.3438 36.4951 102.322 59.3203 155.926 82.8926c3.41113 1.5 6.83301 2.97852 10.249 4.47852
c-1.22754 220.729 34.499 441.222 78.2168 657.498c-70.541 -24.709 -140.072 -52.2637 -208.179 -83.1914c-21.8213 -9.90723 -23.6895 16.3555 -5.96191 24.5762c72.0566 33.4043 145.661 63.0996 220.445 89.5225c2.93555 14.2793 5.89258 28.5479 8.88184 42.7891
c5.48242 26.1133 25.7988 47.1504 52.0293 53.8066c19.0186 4.8252 49.3379 -2.96777 44.667 -28.5947c-2.12988 -11.6953 -4.29688 -23.3965 -6.45312 -35.0918c40.7812 12.7148 81.8516 24.5654 123.162 35.54c76.7803 20.3965 154.394 39.7783 233.288 49.9414
c58.6475 7.55273 132.444 16.4404 179.632 -27.4102c11.8877 -11.0498 -17.4873 -34.6436 -29.4658 -25.7822c-55.9893 41.4326 -134.2 26.4492 -198.233 15.6025c-71.416 -12.0957 -141.999 -30.1377 -211.851 -49.1357
c-34.2432 -9.31445 -68.3262 -19.2109 -102.228 -29.6943c-25.1631 -135.717 -50.9297 -271.477 -68.0215 -408.442c-10.041 -80.4688 -17.2793 -161.818 -19.7617 -243.222c23.4766 9.81641 47.0225 19.4727 70.7334 28.7236
c115.699 45.1533 237.793 90.5469 360.453 112.08c37.7441 6.62402 21.1963 -36.4854 -3.9082 -43.7559c-114.963 -33.2979 -231.292 -59.1602 -345.006 -97.4014c-27.7949 -9.34668 -55.4609 -19.0986 -82.9463 -29.3418
c-0.822266 -51.6387 0.34668 -103.257 4.07227 -154.645c5.08203 -70.082 14.1836 -140.66 28.5371 -209.466c11.001 -52.7227 26.1445 -107.058 56.6396 -152.142c37.248 -55.0713 92.4795 -75.5049 157.661 -69.6064c66.3506 6.00488 132.247 26.6943 194.685 49.0713
c124.08 44.4756 242.149 104.015 368.604 142.106z" />
    <glyph glyph-name="E" unicode="&#xcb;" horiz-adv-x="939" 
d="M1123.19 -125.556c21.2393 6.39453 12.4512 -21.0928 -2.31934 -25.7637c-149.926 -47.5498 -289.016 -124.144 -440.138 -168.357c-115.299 -33.7305 -251.448 -54.7295 -338.339 47.46c-35.9883 42.3242 -56.5342 97.0215 -71.3047 149.894
c-19.8516 71.0693 -32.1504 143.585 -39.3135 216.981c-4.51562 46.2744 -7.06738 92.5811 -7.95898 138.888c-0.0429688 -0.015625 -0.0859375 -0.0371094 -0.128906 -0.0527344c-30.501 -13.1104 -62.0107 -25.916 -91.9668 -41.2842
c0 -5.72266 -3.59277 -12.7852 -10.7881 -16.5166c-18.8857 -9.79492 -38.0967 -17.9668 -58.0498 -25.2793c-17.6416 -6.46387 -14.791 15.0537 -5.56152 22.3242c46.3438 36.4951 102.322 59.3203 155.926 82.8926c3.41113 1.5 6.83301 2.97852 10.249 4.47852
c-1.22754 220.729 34.499 441.222 78.2168 657.498c-70.541 -24.709 -140.072 -52.2637 -208.179 -83.1914c-21.8213 -9.90723 -23.6895 16.3555 -5.96191 24.5762c72.0566 33.4043 145.661 63.0996 220.445 89.5225c2.93555 14.2793 5.89258 28.5479 8.88184 42.7891
c5.48242 26.1133 25.7988 47.1504 52.0293 53.8066c19.0186 4.8252 49.3379 -2.96777 44.667 -28.5947c-2.12988 -11.6953 -4.29688 -23.3965 -6.45312 -35.0918c40.7812 12.7148 81.8516 24.5654 123.162 35.54c76.7803 20.3965 154.394 39.7783 233.288 49.9414
c58.6475 7.55273 132.444 16.4404 179.632 -27.4102c11.8877 -11.0498 -17.4873 -34.6436 -29.4658 -25.7822c-55.9893 41.4326 -134.2 26.4492 -198.233 15.6025c-71.416 -12.0957 -141.999 -30.1377 -211.851 -49.1357
c-34.2432 -9.31445 -68.3262 -19.2109 -102.228 -29.6943c-25.1631 -135.717 -50.9297 -271.477 -68.0215 -408.442c-10.041 -80.4688 -17.2793 -161.818 -19.7617 -243.222c23.4766 9.81641 47.0225 19.4727 70.7334 28.7236
c115.699 45.1533 237.793 90.5469 360.453 112.08c37.7441 6.62402 21.1963 -36.4854 -3.9082 -43.7559c-114.963 -33.2979 -231.292 -59.1602 -345.006 -97.4014c-27.7949 -9.34668 -55.4609 -19.0986 -82.9463 -29.3418
c-0.822266 -51.6387 0.34668 -103.257 4.07227 -154.645c5.08203 -70.082 14.1836 -140.66 28.5371 -209.466c11.001 -52.7227 26.1445 -107.058 56.6396 -152.142c37.248 -55.0713 92.4795 -75.5049 157.661 -69.6064c66.3506 6.00488 132.247 26.6943 194.685 49.0713
c124.08 44.4756 242.149 104.015 368.604 142.106z" />
    <glyph glyph-name="E" unicode="&#xca;" horiz-adv-x="939" 
d="M1123.19 -125.556c21.2393 6.39453 12.4512 -21.0928 -2.31934 -25.7637c-149.926 -47.5498 -289.016 -124.144 -440.138 -168.357c-115.299 -33.7305 -251.448 -54.7295 -338.339 47.46c-35.9883 42.3242 -56.5342 97.0215 -71.3047 149.894
c-19.8516 71.0693 -32.1504 143.585 -39.3135 216.981c-4.51562 46.2744 -7.06738 92.5811 -7.95898 138.888c-0.0429688 -0.015625 -0.0859375 -0.0371094 -0.128906 -0.0527344c-30.501 -13.1104 -62.0107 -25.916 -91.9668 -41.2842
c0 -5.72266 -3.59277 -12.7852 -10.7881 -16.5166c-18.8857 -9.79492 -38.0967 -17.9668 -58.0498 -25.2793c-17.6416 -6.46387 -14.791 15.0537 -5.56152 22.3242c46.3438 36.4951 102.322 59.3203 155.926 82.8926c3.41113 1.5 6.83301 2.97852 10.249 4.47852
c-1.22754 220.729 34.499 441.222 78.2168 657.498c-70.541 -24.709 -140.072 -52.2637 -208.179 -83.1914c-21.8213 -9.90723 -23.6895 16.3555 -5.96191 24.5762c72.0566 33.4043 145.661 63.0996 220.445 89.5225c2.93555 14.2793 5.89258 28.5479 8.88184 42.7891
c5.48242 26.1133 25.7988 47.1504 52.0293 53.8066c19.0186 4.8252 49.3379 -2.96777 44.667 -28.5947c-2.12988 -11.6953 -4.29688 -23.3965 -6.45312 -35.0918c40.7812 12.7148 81.8516 24.5654 123.162 35.54c76.7803 20.3965 154.394 39.7783 233.288 49.9414
c58.6475 7.55273 132.444 16.4404 179.632 -27.4102c11.8877 -11.0498 -17.4873 -34.6436 -29.4658 -25.7822c-55.9893 41.4326 -134.2 26.4492 -198.233 15.6025c-71.416 -12.0957 -141.999 -30.1377 -211.851 -49.1357
c-34.2432 -9.31445 -68.3262 -19.2109 -102.228 -29.6943c-25.1631 -135.717 -50.9297 -271.477 -68.0215 -408.442c-10.041 -80.4688 -17.2793 -161.818 -19.7617 -243.222c23.4766 9.81641 47.0225 19.4727 70.7334 28.7236
c115.699 45.1533 237.793 90.5469 360.453 112.08c37.7441 6.62402 21.1963 -36.4854 -3.9082 -43.7559c-114.963 -33.2979 -231.292 -59.1602 -345.006 -97.4014c-27.7949 -9.34668 -55.4609 -19.0986 -82.9463 -29.3418
c-0.822266 -51.6387 0.34668 -103.257 4.07227 -154.645c5.08203 -70.082 14.1836 -140.66 28.5371 -209.466c11.001 -52.7227 26.1445 -107.058 56.6396 -152.142c37.248 -55.0713 92.4795 -75.5049 157.661 -69.6064c66.3506 6.00488 132.247 26.6943 194.685 49.0713
c124.08 44.4756 242.149 104.015 368.604 142.106z" />
    <glyph glyph-name="E" unicode="&#xc9;" horiz-adv-x="939" 
d="M1123.19 -125.556c21.2393 6.39453 12.4512 -21.0928 -2.31934 -25.7637c-149.926 -47.5498 -289.016 -124.144 -440.138 -168.357c-115.299 -33.7305 -251.448 -54.7295 -338.339 47.46c-35.9883 42.3242 -56.5342 97.0215 -71.3047 149.894
c-19.8516 71.0693 -32.1504 143.585 -39.3135 216.981c-4.51562 46.2744 -7.06738 92.5811 -7.95898 138.888c-0.0429688 -0.015625 -0.0859375 -0.0371094 -0.128906 -0.0527344c-30.501 -13.1104 -62.0107 -25.916 -91.9668 -41.2842
c0 -5.72266 -3.59277 -12.7852 -10.7881 -16.5166c-18.8857 -9.79492 -38.0967 -17.9668 -58.0498 -25.2793c-17.6416 -6.46387 -14.791 15.0537 -5.56152 22.3242c46.3438 36.4951 102.322 59.3203 155.926 82.8926c3.41113 1.5 6.83301 2.97852 10.249 4.47852
c-1.22754 220.729 34.499 441.222 78.2168 657.498c-70.541 -24.709 -140.072 -52.2637 -208.179 -83.1914c-21.8213 -9.90723 -23.6895 16.3555 -5.96191 24.5762c72.0566 33.4043 145.661 63.0996 220.445 89.5225c2.93555 14.2793 5.89258 28.5479 8.88184 42.7891
c5.48242 26.1133 25.7988 47.1504 52.0293 53.8066c19.0186 4.8252 49.3379 -2.96777 44.667 -28.5947c-2.12988 -11.6953 -4.29688 -23.3965 -6.45312 -35.0918c40.7812 12.7148 81.8516 24.5654 123.162 35.54c76.7803 20.3965 154.394 39.7783 233.288 49.9414
c58.6475 7.55273 132.444 16.4404 179.632 -27.4102c11.8877 -11.0498 -17.4873 -34.6436 -29.4658 -25.7822c-55.9893 41.4326 -134.2 26.4492 -198.233 15.6025c-71.416 -12.0957 -141.999 -30.1377 -211.851 -49.1357
c-34.2432 -9.31445 -68.3262 -19.2109 -102.228 -29.6943c-25.1631 -135.717 -50.9297 -271.477 -68.0215 -408.442c-10.041 -80.4688 -17.2793 -161.818 -19.7617 -243.222c23.4766 9.81641 47.0225 19.4727 70.7334 28.7236
c115.699 45.1533 237.793 90.5469 360.453 112.08c37.7441 6.62402 21.1963 -36.4854 -3.9082 -43.7559c-114.963 -33.2979 -231.292 -59.1602 -345.006 -97.4014c-27.7949 -9.34668 -55.4609 -19.0986 -82.9463 -29.3418
c-0.822266 -51.6387 0.34668 -103.257 4.07227 -154.645c5.08203 -70.082 14.1836 -140.66 28.5371 -209.466c11.001 -52.7227 26.1445 -107.058 56.6396 -152.142c37.248 -55.0713 92.4795 -75.5049 157.661 -69.6064c66.3506 6.00488 132.247 26.6943 194.685 49.0713
c124.08 44.4756 242.149 104.015 368.604 142.106z" />
    <glyph glyph-name="F" unicode="F" horiz-adv-x="1024" 
d="M552.741 206.426c-26.7861 -6.45898 -53.543 -13.0225 -80.249 -19.7754c-63.126 -15.9336 -126.05 -35.9717 -189.913 -48.6172c-34.0029 -6.73145 -114.387 -11.7334 -75.7402 43.7598c28.6699 41.166 79.5508 65.6299 125.286 82.2998
c51.5 18.7783 106.747 26.7637 160.857 15.4043c32.7803 -6.88086 60.6338 -20.1992 84.4307 -38.1084c14.6523 3.69922 29.3213 7.30273 44.0215 10.7402c8.60449 2.0127 17.2256 3.96094 25.8467 5.92578c2.9248 216.153 20.7432 432.734 45.9697 646.688
c-48.7783 -13.9531 -97.0547 -29.1875 -144.6 -45.3506c-166.612 -56.6514 -338.2 -123.204 -476.597 -234.089c-14.3105 -11.4707 -30.1055 1.37793 -17.3955 15.9883c67.0654 77.1113 166.586 122.927 257.758 164.861c124.555 57.292 253.946 104.543 386.055 141.77
c1.28613 10.4727 2.53027 20.9668 3.84863 31.4238c3.21387 25.5049 27.0156 46.707 51.0625 52.8086c19.793 5.01758 46.8135 -2.97363 43.8398 -28.0674c-1.2334 -10.4033 -2.38086 -20.8125 -3.58691 -31.2217c27.2715 6.63477 54.623 12.9014 82.0596 18.6934
c100.305 21.1865 202.462 37.4297 305.18 38.4971c48.6016 0.506836 97.8389 -1.97559 145.901 -9.53906c36.6289 -5.77051 71.3418 -17.4336 96.1953 -46.1465c17.5244 -20.2471 -30.7783 -56.2461 -48.7188 -35.3965c-30.25 35.166 -86.5654 37.3652 -129.45 40.8086
c-52.4775 4.2168 -105.345 3.42188 -157.812 -0.549805c-100.006 -7.57422 -199.927 -25.168 -298.278 -49.1514c-21.9492 -196.222 -38.4648 -392.945 -45.0889 -590.353c-0.683594 -20.3691 -1.27051 -40.7383 -1.79883 -61.1074
c15.71 3.22949 31.4355 6.38965 47.1826 9.42188c48.3721 9.31445 102.227 25.3496 150.737 9.85352c21.5596 -6.88574 -4.17969 -37.5205 -20.5938 -32.1826c-38.4971 12.5176 -78.9795 1.39844 -117.6 -5.69043c-20.1826 -3.70996 -40.3281 -7.62305 -60.4521 -11.6582
c-1.74023 -79.9033 -2.11914 -159.817 -0.331055 -239.764c2.38574 -106.807 6.02637 -213.646 31.5791 -317.922c7.92188 -32.332 -56.5713 -70.3438 -69.665 -33.2822c-31.2158 88.3535 -41.3955 180.182 -47.4648 273.205
c-2.84473 43.5469 -4.9209 87.1738 -6.29297 130.859c-12.0742 36.8691 -27.5703 73.2148 -50.9932 103.417c-12.8428 16.5586 -28.1729 30.3467 -45.1904 41.5459zM647.086 228.383c-14.5723 -3.25586 -29.124 -6.58496 -43.6592 -9.95898
c16.8945 -17.2949 31.3232 -37.1523 43.6963 -58.6484c-0.186523 22.8623 -0.202148 45.7295 -0.0371094 68.6074zM238.857 163.785c11.1025 -6.48535 40.0605 1.45215 51.1904 3.84375c76.0117 16.2969 151.105 37.6543 226.418 57.832
c-13.0781 5.35352 -26.7061 9.53809 -40.6758 12.5322c-51.8525 11.1133 -106.796 5.60449 -156.534 -12.1494c-23.6309 -8.43945 -47.8486 -19.3076 -67.2568 -35.5293c-4.69727 -3.92383 -9.38965 -8.32227 -13.4248 -12.9932
c-8.70117 -10.0615 -8.26855 -8.54004 0.283203 -13.5361z" />
    <glyph glyph-name="G" unicode="G" horiz-adv-x="1207" 
d="M1090.67 357.248c8.90918 -66.9004 -2.28418 -150.589 -2.1084 -163.661c-1.8252 -15.8965 -4.00293 -31.5205 -6.60742 -46.6426c-28.6963 -166.538 -102.381 -332.115 -220.466 -454.743c-56.9873 -59.1865 -138.882 -122.072 -224.038 -127.475
c-82.9727 -5.26367 -124.838 63.083 -127.592 137.702c-3.06348 82.9512 36.6982 165.956 80.2822 234.164c44.0166 68.8857 93.5791 133.555 149.168 193.505c55.4502 59.8008 117.141 114.136 183.433 161.633c27.5059 19.708 56.2617 39.6934 86.3564 57.2119
c-3.25586 60.5957 -13.8623 120.306 -33.4688 176.701c-13.291 38.2197 -27.5596 81.9053 -60.9219 107.432c-44.502 34.0557 -77.2285 -1.92676 -106.229 -35.3311c-54.6123 -62.9131 -104.281 -130.064 -152.675 -197.818
c-94.9238 -132.898 -186.934 -273.846 -310.576 -382.376c-53.5127 -46.9688 -137.169 -107.239 -211.959 -76.4287c-72.5693 29.8926 -85.2949 126.738 -83.0264 195.053c5.23145 157.564 89.2129 317.462 180.939 442.14c91.7695 124.736 208.222 229.909 342.497 307.208
c69.6279 40.0879 145.187 75.7402 225.042 88.5674c53.9668 8.66895 181.201 8.91406 153.311 -79.7646c-2.39648 -7.61719 -26.6943 -22.1738 -27.9326 -7.32422c-4.31348 51.751 -84.4307 34.6855 -116.896 28.2529c-79.5723 -15.7686 -155.932 -56.6943 -223.27 -100.854
c-61.3438 -40.2314 -118.54 -85.5713 -170.029 -137.894c-106.337 -108.056 -190.788 -238.797 -237.89 -383.369c-25.2969 -77.6504 -42.3301 -168.465 -12.6562 -247.392c13.4248 -35.7109 35.2891 -58.4238 74.7842 -43.4346
c38.2305 14.5088 71.2295 41.8389 101.309 68.833c127.336 114.264 224.368 254.838 326.274 390.992c24.6768 32.9727 49.8076 65.6143 75.8457 97.5244c25.1152 30.7842 50.3369 63.9971 80.6621 89.875c23.8066 20.3164 54.3613 34.75 86.0361 25.6973
c33.373 -9.53906 60.1641 -40.5361 82.7217 -65.3467c54.8096 -60.2861 84.0557 -140.232 96.1836 -224c17.7695 6.25098 35.9561 11.1299 54.6172 14.0234c25.3125 3.92383 15.7949 -26.9717 -2.67383 -29.9766c-16.7344 -2.72266 -32.8281 -7.08398 -48.4473 -12.6836z
M966.826 36.1133c27.9492 88.417 44.3887 185.107 43.2998 280.667c-135.647 -83.7041 -253.002 -198.688 -340.613 -331.592c-45.2393 -68.624 -85.2842 -150.192 -83.1699 -234.468c0.731445 -29.0811 8.78125 -61.4873 29.1025 -83.3037
c25.9316 -27.8369 59.9238 -18.4688 90.0615 -2.94629c65.4434 33.709 116.506 93.3496 156.823 153.599c45.0791 67.3701 80.0693 140.767 104.496 218.044z" />
    <glyph glyph-name="H" unicode="H" horiz-adv-x="1351" 
d="M1301.1 1139.42c-8.69043 -107.649 -17.3525 -215.342 -24.2061 -323.12c-12.165 -191.461 -18.4902 -383.524 -15.9814 -575.385c1.25488 -95.8691 4.97559 -191.786 10.4951 -287.5c5.52441 -95.9229 19.248 -192.262 19.6699 -288.354
c0.0908203 -21.2236 -45.8369 -47.5771 -54.1055 -19.9375c-30.6826 102.53 -37.2852 214.931 -46.5996 321.091c-10.959 124.843 -16.2539 250.343 -17.1455 376.029c-175.596 -16.5156 -346.617 -61.8555 -516.939 -106.368
c-31.4512 -8.2207 -62.9238 -16.4092 -94.4443 -24.3838c1.29199 -2.63184 2.59473 -5.24707 3.80664 -7.92676c64.1729 -141.737 20.6953 -324.839 -40.1094 -460.31c-1.02441 -2.28418 -2.87109 -4.37695 -5.13965 -6.18164
c-2.56738 -14.8926 -26.6631 -29.8545 -34.4727 -12.7197c-44.2461 97.0811 -69.1426 201.442 -89.4746 305.879c-8.87695 45.5967 -16.291 91.5137 -22.5205 137.596c-68.8916 -14.8398 -140.574 -29.1348 -210.133 -27.9551
c-40.9521 0.694336 -100.854 13.7354 -111.744 52.0771c-4.07324 8.87207 -2.07129 29.7803 5.79102 42.9385c33.709 56.4375 97.8818 88.3418 157.683 102.979c44.7959 10.9639 93.04 17.0967 139.907 13.2266c-14.2949 207.773 -9.03711 416.358 19.9482 622.717
c3.65625 26.0225 27.2236 47.5127 52.0293 53.8057c20.0488 5.08691 47.8643 -3.01562 44.667 -28.5947c-25.9746 -207.677 -35.5078 -417.318 -24.7734 -626.41c0.794922 -15.459 1.73438 -30.9072 2.75391 -46.3447c41.4385 -20.2949 74.8965 -52.2959 99.0186 -91.5508
c206.823 51.751 411.538 113.97 624.024 135.434c-0.474609 249.441 16.1748 499.48 40.7295 746.52c2.32227 23.3857 25.3398 43.0771 46.9531 48.5596c18.8271 4.77734 42.1699 -2.80762 40.3125 -25.8086zM152.725 170.949
c71.4961 -9.03711 147.262 8.21582 217.792 22.9805c-5.02344 40.2109 -9.1123 80.5332 -12.3682 120.888c-61.7383 8.85547 -128.644 -2.59473 -187.051 -27.1709c-27.0684 -11.3906 -78.2588 -37.3701 -81.4512 -70.9941
c-3.0957 -32.6143 38.5293 -42.6016 63.0781 -45.7031zM453.408 280.238c1.77246 -22.3926 3.71094 -44.7695 5.86719 -67.1299c17.1133 3.92871 34.2051 7.97461 51.2754 12.1172c-16.1689 22.9316 -35.5723 41.043 -57.1426 55.0127zM559.148 -20.7188
c7.47852 75.5156 2.6748 155.452 -34.3594 222.966c-20.9355 -5.16211 -41.9033 -10.1855 -62.9131 -15.0322c4.41992 -43.1787 9.41602 -86.2988 14.8604 -129.387c11.3701 -89.9922 27.3789 -179.253 38.4707 -269.224c22.2803 61.5039 37.4775 125.447 43.9414 190.677z
" />
    <glyph glyph-name="I" unicode="I" horiz-adv-x="583" 
d="M710.672 -129.394c23.1396 5.18359 14.2285 -23.9531 -2.47949 -27.6787c-98.6504 -22.0137 -195.827 -47.9717 -292.353 -76.2949c0.341797 -5.3916 0.677734 -10.7773 1.01953 -16.1689c1.3291 -20.9834 3.56055 -43.3496 -4.52637 -63.5322
c-5.98926 -14.9404 -35.9941 -31.3496 -37.3662 -5.72754c-0.12793 2.37012 1.01465 4.8418 2.83496 7.13184c-4.09375 6.37891 -9.83691 14.7861 -10.7012 17.0498c-4.12598 10.7988 -6.66113 22.6914 -9.74121 33.8369
c-0.848633 3.06934 -1.61719 6.14941 -2.42871 9.22363c-66.6709 -20.2627 -133.102 -41.4971 -199.564 -63.2227c-14.3105 -4.67578 -16.376 10.6816 -8.92383 19.1689c5.79199 6.59766 11.5889 13.1953 17.3809 19.793c9.02637 10.2861 23.4492 7.38184 23.3262 -2.10352
c53.0908 19.3281 106.828 37.167 160.986 53.8164c-3.20312 13.9746 -6.10156 28.0186 -8.70605 42.1963c-9.22363 50.166 -16.793 100.444 -22.8408 151.091c-38.5879 323.104 -31.1846 651.969 -4.05176 976.493c-83.3037 -24.7412 -165.075 -54.7461 -244.733 -90.0137
c-21.5654 -9.5498 -23.5615 16.3926 -5.87695 24.2344c82.3643 36.5166 166.863 67.5244 252.942 93.0508c3.37891 38.876 7.01953 77.6934 10.9053 116.42c2.5625 25.5576 27.667 47.0586 51.3037 53.0586c20.6475 5.24219 45.9707 -3.07422 44.0488 -28.1943
c-2.93066 -38.2998 -5.87695 -76.5996 -8.79102 -114.904c88.5293 21.6611 178.494 37.6055 269.398 47.5771c21.5977 2.37012 4.5166 -27.2656 -10.627 -28.915c-87.9639 -9.59766 -175.079 -24.9922 -260.827 -45.8848
c-5.2207 -69.4033 -10.2168 -138.828 -14.3105 -208.29c-12.1865 -206.642 -16.2705 -413.742 -7.28711 -620.587c4.54297 -104.484 12.2188 -208.622 22.3555 -312.717c1.13672 -11.6689 2.0498 -23.3535 2.88281 -35.0439c98.2021 28.291 197.514 52.9258 296.751 75.1367
z" />
    <glyph glyph-name="I" unicode="&#xcf;" horiz-adv-x="583" 
d="M710.672 -129.394c23.1396 5.18359 14.2285 -23.9531 -2.47949 -27.6787c-98.6504 -22.0137 -195.827 -47.9717 -292.353 -76.2949c0.341797 -5.3916 0.677734 -10.7773 1.01953 -16.1689c1.3291 -20.9834 3.56055 -43.3496 -4.52637 -63.5322
c-5.98926 -14.9404 -35.9941 -31.3496 -37.3662 -5.72754c-0.12793 2.37012 1.01465 4.8418 2.83496 7.13184c-4.09375 6.37891 -9.83691 14.7861 -10.7012 17.0498c-4.12598 10.7988 -6.66113 22.6914 -9.74121 33.8369
c-0.848633 3.06934 -1.61719 6.14941 -2.42871 9.22363c-66.6709 -20.2627 -133.102 -41.4971 -199.564 -63.2227c-14.3105 -4.67578 -16.376 10.6816 -8.92383 19.1689c5.79199 6.59766 11.5889 13.1953 17.3809 19.793c9.02637 10.2861 23.4492 7.38184 23.3262 -2.10352
c53.0908 19.3281 106.828 37.167 160.986 53.8164c-3.20312 13.9746 -6.10156 28.0186 -8.70605 42.1963c-9.22363 50.166 -16.793 100.444 -22.8408 151.091c-38.5879 323.104 -31.1846 651.969 -4.05176 976.493c-83.3037 -24.7412 -165.075 -54.7461 -244.733 -90.0137
c-21.5654 -9.5498 -23.5615 16.3926 -5.87695 24.2344c82.3643 36.5166 166.863 67.5244 252.942 93.0508c3.37891 38.876 7.01953 77.6934 10.9053 116.42c2.5625 25.5576 27.667 47.0586 51.3037 53.0586c20.6475 5.24219 45.9707 -3.07422 44.0488 -28.1943
c-2.93066 -38.2998 -5.87695 -76.5996 -8.79102 -114.904c88.5293 21.6611 178.494 37.6055 269.398 47.5771c21.5977 2.37012 4.5166 -27.2656 -10.627 -28.915c-87.9639 -9.59766 -175.079 -24.9922 -260.827 -45.8848
c-5.2207 -69.4033 -10.2168 -138.828 -14.3105 -208.29c-12.1865 -206.642 -16.2705 -413.742 -7.28711 -620.587c4.54297 -104.484 12.2188 -208.622 22.3555 -312.717c1.13672 -11.6689 2.0498 -23.3535 2.88281 -35.0439c98.2021 28.291 197.514 52.9258 296.751 75.1367
z" />
    <glyph glyph-name="I" unicode="&#xce;" horiz-adv-x="583" 
d="M710.672 -129.394c23.1396 5.18359 14.2285 -23.9531 -2.47949 -27.6787c-98.6504 -22.0137 -195.827 -47.9717 -292.353 -76.2949c0.341797 -5.3916 0.677734 -10.7773 1.01953 -16.1689c1.3291 -20.9834 3.56055 -43.3496 -4.52637 -63.5322
c-5.98926 -14.9404 -35.9941 -31.3496 -37.3662 -5.72754c-0.12793 2.37012 1.01465 4.8418 2.83496 7.13184c-4.09375 6.37891 -9.83691 14.7861 -10.7012 17.0498c-4.12598 10.7988 -6.66113 22.6914 -9.74121 33.8369
c-0.848633 3.06934 -1.61719 6.14941 -2.42871 9.22363c-66.6709 -20.2627 -133.102 -41.4971 -199.564 -63.2227c-14.3105 -4.67578 -16.376 10.6816 -8.92383 19.1689c5.79199 6.59766 11.5889 13.1953 17.3809 19.793c9.02637 10.2861 23.4492 7.38184 23.3262 -2.10352
c53.0908 19.3281 106.828 37.167 160.986 53.8164c-3.20312 13.9746 -6.10156 28.0186 -8.70605 42.1963c-9.22363 50.166 -16.793 100.444 -22.8408 151.091c-38.5879 323.104 -31.1846 651.969 -4.05176 976.493c-83.3037 -24.7412 -165.075 -54.7461 -244.733 -90.0137
c-21.5654 -9.5498 -23.5615 16.3926 -5.87695 24.2344c82.3643 36.5166 166.863 67.5244 252.942 93.0508c3.37891 38.876 7.01953 77.6934 10.9053 116.42c2.5625 25.5576 27.667 47.0586 51.3037 53.0586c20.6475 5.24219 45.9707 -3.07422 44.0488 -28.1943
c-2.93066 -38.2998 -5.87695 -76.5996 -8.79102 -114.904c88.5293 21.6611 178.494 37.6055 269.398 47.5771c21.5977 2.37012 4.5166 -27.2656 -10.627 -28.915c-87.9639 -9.59766 -175.079 -24.9922 -260.827 -45.8848
c-5.2207 -69.4033 -10.2168 -138.828 -14.3105 -208.29c-12.1865 -206.642 -16.2705 -413.742 -7.28711 -620.587c4.54297 -104.484 12.2188 -208.622 22.3555 -312.717c1.13672 -11.6689 2.0498 -23.3535 2.88281 -35.0439c98.2021 28.291 197.514 52.9258 296.751 75.1367
z" />
    <glyph glyph-name="I" unicode="&#xcd;" horiz-adv-x="583" 
d="M710.672 -129.394c23.1396 5.18359 14.2285 -23.9531 -2.47949 -27.6787c-98.6504 -22.0137 -195.827 -47.9717 -292.353 -76.2949c0.341797 -5.3916 0.677734 -10.7773 1.01953 -16.1689c1.3291 -20.9834 3.56055 -43.3496 -4.52637 -63.5322
c-5.98926 -14.9404 -35.9941 -31.3496 -37.3662 -5.72754c-0.12793 2.37012 1.01465 4.8418 2.83496 7.13184c-4.09375 6.37891 -9.83691 14.7861 -10.7012 17.0498c-4.12598 10.7988 -6.66113 22.6914 -9.74121 33.8369
c-0.848633 3.06934 -1.61719 6.14941 -2.42871 9.22363c-66.6709 -20.2627 -133.102 -41.4971 -199.564 -63.2227c-14.3105 -4.67578 -16.376 10.6816 -8.92383 19.1689c5.79199 6.59766 11.5889 13.1953 17.3809 19.793c9.02637 10.2861 23.4492 7.38184 23.3262 -2.10352
c53.0908 19.3281 106.828 37.167 160.986 53.8164c-3.20312 13.9746 -6.10156 28.0186 -8.70605 42.1963c-9.22363 50.166 -16.793 100.444 -22.8408 151.091c-38.5879 323.104 -31.1846 651.969 -4.05176 976.493c-83.3037 -24.7412 -165.075 -54.7461 -244.733 -90.0137
c-21.5654 -9.5498 -23.5615 16.3926 -5.87695 24.2344c82.3643 36.5166 166.863 67.5244 252.942 93.0508c3.37891 38.876 7.01953 77.6934 10.9053 116.42c2.5625 25.5576 27.667 47.0586 51.3037 53.0586c20.6475 5.24219 45.9707 -3.07422 44.0488 -28.1943
c-2.93066 -38.2998 -5.87695 -76.5996 -8.79102 -114.904c88.5293 21.6611 178.494 37.6055 269.398 47.5771c21.5977 2.37012 4.5166 -27.2656 -10.627 -28.915c-87.9639 -9.59766 -175.079 -24.9922 -260.827 -45.8848
c-5.2207 -69.4033 -10.2168 -138.828 -14.3105 -208.29c-12.1865 -206.642 -16.2705 -413.742 -7.28711 -620.587c4.54297 -104.484 12.2188 -208.622 22.3555 -312.717c1.13672 -11.6689 2.0498 -23.3535 2.88281 -35.0439c98.2021 28.291 197.514 52.9258 296.751 75.1367
z" />
    <glyph glyph-name="J" unicode="J" horiz-adv-x="1489" 
d="M1636.01 992.455c-53.4004 23.9883 -118.042 12.9961 -174.218 6.87305c-60.5322 -6.59277 -120.567 -16.7988 -180.176 -29.1396c-28.9258 -5.98926 -57.8145 -12.3525 -86.666 -18.9932c22.4727 -42.6611 34.4883 -90.708 45.8311 -137.367
c17.1133 -70.3916 29.7637 -141.803 40.2422 -213.464c3.24512 -22.2217 6.11719 -44.5293 8.80762 -66.8789c7.5 -0.432617 14.2793 -3.80664 16.708 -12.1445c3.01562 -10.3398 -3.66211 -20.9307 -12.0537 -28.377c11.1191 -106.021 15.9072 -213.084 13.9219 -319.304
c-4.11523 -220.12 -58.6738 -453.035 -227.112 -607.023c-81.7344 -74.7256 -183.614 -122.697 -294.622 -131.446c-96.5576 -7.6123 -224.646 12.4854 -285.142 97.3799c-63.0938 88.5449 -27.8799 210.634 16.3818 298.96c50 99.7715 123.674 189.208 199.237 270.659
c78.7822 84.9209 166.047 161.92 256.818 233.752c75.5801 59.8008 154.362 115.844 238.547 162.716c-4.00879 42.7832 -8.83984 85.4863 -14.4229 128.051c-7.72363 58.8877 -16.9688 117.68 -27.0205 176.215c-7.79297 45.3828 -12.8691 92.6123 -30.6602 135.326
c-162.006 -39.4736 -322.57 -88.0166 -480.423 -139.757c-174.694 -57.2598 -342.492 -127.331 -508.533 -204.49c4.88965 -4.54785 1.75586 -16.0781 -8.02344 -21.4482c-25.3066 -13.9004 -52.1191 -20.1621 -80.9756 -18.4697
c-17.8926 1.0459 -14.5938 21.207 -2.14551 28.7285c106.604 64.3809 220.648 115.854 335.953 162.684c206.636 83.9336 419.923 150.161 634.465 210.544c35.625 10.0303 71.3301 19.8516 107.137 29.2998c8.2041 7.71875 20.0332 11.9521 28.3926 7.39844
c66.4678 17.0596 133.341 32.4805 200.919 44.4912c56.7256 10.083 113.89 18.0957 171.331 22.708c49.2686 3.95508 99.5566 5.28906 144.598 -17.915c30.415 -15.6719 -20.8877 -61.3428 -47.0967 -49.5674zM1100.28 -317.248
c118.438 174.656 129.952 394.011 125.158 598.469c-1.3291 56.6191 -4.33984 113.249 -8.80762 169.767c-83.8057 -46.5361 -161.975 -102.568 -237.389 -161.889c-92.0576 -72.4141 -179.53 -150.802 -258.579 -237.34
c-70.6211 -77.3145 -142.704 -163.303 -183.331 -260.869c-39.1484 -94.0117 -45.9326 -212.289 56.1924 -267.222c88.4922 -47.5986 208.804 -43.8145 300.926 -9.32129c84.7822 31.7441 155.424 94.0752 205.83 168.405z" />
    <glyph glyph-name="K" unicode="K" horiz-adv-x="1290" 
d="M1114.81 -3.74414c-178.19 33.7568 -359.548 25.0684 -539.868 25.0039c-52.418 -0.015625 -104.874 1.15918 -157.303 0.875977c4.45703 -41.1396 9.61914 -82.2041 15.7314 -123.114c6.83789 -45.7939 14.9248 -91.417 23.2471 -136.966
c6.75293 -36.96 13.9268 -73.3057 39.2021 -102.44c21.4902 -24.7734 -35.6357 -65.1387 -58.4336 -42.458c-31.2373 31.083 -43.0713 74.0742 -53.6406 115.614c-12.9658 50.9609 -22.9473 102.664 -31.8936 154.474c-7.6123 44.0859 -14.0498 88.332 -19.5107 132.69
c-0.790039 -0.0429688 -1.5752 -0.0585938 -2.36523 -0.101562c-41.748 -2.20996 -83.3887 -6.7041 -124.39 -14.999c-41.1016 -19.6113 -83.5752 -35.9932 -127.821 -47.4639c-13.2969 -3.44824 -28.6162 1.8252 -27.7305 17.7539
c0.757812 13.6807 12.416 24.415 24.5596 30.3027c-0.015625 0.0751953 -0.03125 0.155273 -0.0527344 0.230469c85.0439 39.8047 166.255 87.3545 245.069 138.534c-8.5459 103.342 -12.3145 207.116 -12.7793 310.816c-0.854492 189.379 5.76465 381.496 29.4863 569.477
c2.93066 23.2148 24.5811 42.5059 46.4717 48.0625c19.291 4.89453 40.8135 -2.89355 39.8955 -25.542c-4.28125 -105.76 -13.8252 -211.216 -19.0986 -316.944c-8.80176 -176.456 -11.6416 -353.739 -0.907227 -530.189c13.2861 9.16016 26.5293 18.373 39.709 27.6396
c106.614 74.96 210.458 153.892 314.568 232.273c101.383 76.332 202.766 154.564 294.38 242.603c70.7109 67.9463 213.703 211.285 120.044 310.17c-37.6748 39.7725 -95.0518 56.5439 -148.398 58.0283c-33.5225 0.928711 -67.0449 -3.85938 -98.9443 -14.2041
c-27.9443 -9.05859 -68.8486 -23.209 -80.6348 -52.749c-5.63672 -14.1406 -38.3525 -21.1865 -30.3613 -1.1582c24.0098 60.1904 107.879 84.8086 166.067 93.2373c64.5459 9.35156 135.412 0.848633 190.665 -35.9453c47.1289 -31.376 75.9746 -83.7734 69.8096 -141.135
c-6.88574 -64.0869 -46.498 -123.962 -85.251 -173.509c-89.373 -114.274 -207.373 -207.886 -320.1 -297.931c-120.114 -95.9492 -242.491 -189.731 -367.836 -278.768c-19.3555 -13.7451 -38.876 -27.5811 -58.5781 -41.2939
c1.92676 -24.2021 4.07227 -48.3887 6.46387 -72.5586c55.7334 0.448242 111.51 -1.07324 167.227 -1.29785c184.516 -0.736328 370.334 7.74609 552.646 -26.79c20.4658 -3.875 -3.56055 -33.2178 -19.3447 -30.2285zM323.117 51.5479
c1.8252 0.117188 3.65039 0.176758 5.48145 0.289062c-0.779297 6.92285 -1.53711 13.8457 -2.26855 20.7744c-12.9014 -8.18848 -25.9258 -16.1631 -39.0625 -23.9297c11.9355 1.09961 23.8818 2.08691 35.8496 2.86621z" />
    <glyph glyph-name="L" unicode="L" horiz-adv-x="737" 
d="M986.438 -222.647c9.61328 48.3672 -201.817 24.8838 -232.03 20.1436c-73.749 -11.5723 -146.959 -27.7891 -219.277 -46.3809c0.65625 -12.9121 1.24316 -25.8193 1.70801 -38.7373c1.2168 -33.6396 -78.2646 -75.0723 -85.3164 -31.4346
c-2.42871 15.0312 -4.48926 30.1484 -6.29395 45.3242c-111.632 -33.1484 -220.221 -73.8818 -327.577 -119.18c-0.117188 -4.87891 -3.53906 -10.5586 -10.3125 -13.3291c-15.8857 -6.49609 -30.7842 -9.98145 -47.9834 -10.4355
c-17.4395 -0.458984 -6.76855 19.4619 2.07617 23.791c121.721 59.5234 250.295 107.378 380.94 145.71c-8.2793 84.9102 -8.55664 171.363 -9.25098 256.039c-1.6123 196.713 8.75391 393.036 18.042 589.45c9.24023 195.41 21.6191 391.889 21.6299 587.528
c0 12.2236 29.4756 27.0527 30.917 11.3916c9.79004 -106.684 17.3223 -212.209 18.8379 -319.49c2.75391 -194.994 -3.2832 -389.962 -4.66602 -584.951c-0.677734 -95.8584 -0.672852 -191.695 2.43945 -287.517c2.46582 -75.8896 8.90332 -151.549 13.3232 -227.299
c15.2822 3.95508 30.5703 7.83594 45.874 11.5508c90.1738 21.8857 182.119 41.2734 274.668 49.542c35.7852 3.19727 215.519 20.6523 171.508 -60.2227c-6.03223 -11.0869 -43.9102 -24.917 -39.2559 -1.49414z" />
    <glyph glyph-name="M" unicode="M" horiz-adv-x="1151" 
d="M935.986 326.646c2.03906 112.368 7.51953 224.626 13.3486 336.851c5.87207 112.807 23.5244 229.659 13.3828 342.497c-1.91113 21.3037 -2.14062 55.5303 -21.208 69.585c-24.3887 17.9785 -54.0732 -21.3242 -69.3027 -37.1992
c-32.0059 -33.3623 -60.8311 -69.5537 -87.1152 -107.56c-52.5469 -75.9795 -95.3945 -158.104 -136.678 -240.574c-41.1074 -82.1182 -80.8906 -165.048 -127.373 -244.326c-23.0381 -39.292 -47.5928 -77.9229 -75.0088 -114.327
c-21.208 -28.1631 -50.3154 -58.5947 -88.9189 -54.0732c-42.2871 4.95898 -67.3809 52.376 -84.4893 86.1279c-23.3271 46.0293 -38.7266 95.3779 -51.7139 145.17c-19.1475 73.4287 -35.4814 147.647 -49.75 222.229
c-17.6201 -145.938 -29.6787 -292.277 -31.1035 -439.663c-0.939453 -97.7266 2.17285 -195.821 9.53906 -293.281c7.13184 -94.3691 10.3721 -196.2 42.0576 -286.134c7.40918 -21.0312 -33.7461 -47.2832 -48.457 -28.9102
c-28.7822 35.9561 -40.2373 80.207 -49.21 124.527c-9.875 48.7832 -17.4385 97.8652 -23.6465 147.241c-12.416 98.7998 -18.5918 198.021 -20.001 297.573c-2.87207 202.163 12.4316 405.89 46.8398 605.165c4.37695 25.3555 25.8145 46.0234 50.5771 52.3066
c19.1689 4.86328 46.9844 -2.90918 43.4238 -27.7998c-1.76172 -12.3203 -3.49609 -24.6455 -5.2041 -36.9707c20.3105 -121.368 43.8672 -243.772 79.1025 -361.708c16.0195 -53.6143 36.4902 -114.969 75.4092 -156.77
c12.4639 -13.3877 29.4062 -24.9121 48.5264 -16.9961c13.0459 5.40234 23.4385 20.8721 31.5518 31.6973c15.7197 20.9727 30.3193 42.8477 44.3896 64.9521c98.4316 154.603 163.362 327.604 260.299 483.056c44.6621 71.624 98.6445 152.312 167.146 203.411
c30.1914 22.5205 71.0107 28.4775 91.1934 -9.40527c20.6367 -38.7324 22.9854 -89.9287 25.7129 -132.749c7.11523 -111.733 0.651367 -225.239 -0.864258 -337.127c-1.51074 -111.178 -1.94336 -222.404 1.52637 -333.556
c6.9873 -223.776 31.627 -445.423 89.7891 -662.057c11.4609 -42.6816 -77.8906 -91.9502 -90.915 -43.4336c-65.5439 244.135 -77.4258 500.59 -72.8564 752.23z" />
    <glyph glyph-name="N" unicode="N" horiz-adv-x="1140" 
d="M843.263 -345.243c-45.3779 -40.958 -103.931 -70.3857 -165.883 -72.2324c-61.2529 -1.81445 -116.634 25.9482 -161.243 66.25c-99.3867 89.7949 -161.131 225.864 -206.76 349.357c-97.7051 264.456 -118.021 546.773 -162.038 823.315
c-4.53711 -60.3877 -9.4375 -120.76 -12.8428 -181.238c-6.05859 -107.602 -9.05273 -215.311 -7.74512 -323.078c1.34473 -110.591 7.56836 -220.643 20.5664 -330.497c5.8291 -49.2959 12.165 -98.5059 22.8887 -147.022c5.6582 -25.5957 12.1328 -51.1855 19.6855 -76.29
c3.77344 -12.5439 7.80859 -25.0723 12.4902 -37.3125c1.39355 -5.14062 3.37402 -10.0459 5.94727 -14.7168c3.61914 -2.30566 4.87402 -4.37695 3.93457 -6.22949c14.2041 6.25586 31.3867 -2.74902 15.7568 -17.3105
c-75.4941 -70.3428 -114.258 106.145 -125.302 151.447c-43.1621 177.037 -52.4766 364.895 -52.7119 546.507c-0.240234 186.892 7.26465 376.329 30.543 561.821c4.2334 33.7246 78.1533 67.1562 76.0391 19.8252c-0.474609 -10.6064 -1.05078 -21.2129 -1.63281 -31.8193
c0.913086 -0.928711 1.59082 -2.18848 1.92676 -3.88086c59.6035 -301.438 74.0371 -614.148 179.407 -905.135c41.9609 -115.881 97.9824 -237.153 182.349 -328.726c39.8906 -43.2959 91.9248 -80.6562 152.446 -84.9746c65.6299 -4.68164 128.03 29.8115 171.107 77.2607
c85.626 94.3213 120.104 236.978 141.877 358.885c23.2676 130.288 36.249 263.773 30.1104 396.144c-5.8877 127.053 -28.1523 264.013 -92.1914 375.853c-53.4863 93.4141 -170.974 194.562 -284.65 136.967c-98.6875 -50 -146.291 -187.436 -143.286 -291.188
c3.14941 -108.584 91.1504 -228.079 211.798 -204.747c35.833 6.92871 19.7021 -34.2803 -3.69922 -41.46c-65.4805 -20.0977 -134.238 0.12793 -185.162 44.4756c-54.4785 47.4385 -80.1006 114.861 -83.042 186.053c-5.74902 139.048 68.4053 301.39 197.007 364.82
c128.611 63.4355 273.733 -1.79883 347.909 -115.507c77.8691 -119.366 103.491 -271.337 109.907 -411.186c6.9873 -152.312 -15.9072 -307.31 -51.7139 -455.025c-32.9668 -135.989 -87.2637 -283.252 -193.793 -379.404z" />
    <glyph glyph-name="O" unicode="O" horiz-adv-x="974" 
d="M372.732 -259.441c-51.1533 38.5986 -65.9785 107.453 -75.8379 167.078c-12.1436 73.418 -15.0527 147.449 -12.5654 221.486c-30.8262 14.957 -59.4219 34.8623 -84.7559 58.2051c-111.312 102.541 -151.276 265.593 -149.521 412.07
c1.69238 141.369 44.6465 284.826 129.84 398.593c79.3965 106.027 201.336 194.162 339.348 188.194c130 -5.62109 248.037 -86.9336 317.009 -194.775c79.5459 -124.379 95.7676 -278.752 85.4658 -422.967c-10.8682 -152.163 -48.5322 -303.435 -108.093 -443.769
c-54.5586 -128.548 -126.183 -272.778 -244.103 -354.753c-54.4678 -37.8672 -135.956 -75.2695 -196.787 -29.3633zM606.75 205.161c18.1387 14.375 32.2949 -5.94727 14.6426 -20.1572c-60.1748 -48.4893 -135.104 -85.8867 -213.95 -85.5342
c-12.2129 0.0537109 -24.2822 1.05176 -36.2021 2.74414c-0.0263672 -53.0371 3.35742 -106 12.0742 -158.653c7.71289 -46.584 19.6914 -136.074 76.7861 -149.707c29.0439 -6.93359 62.3789 14.6318 84.8623 30.8535c25.7764 18.5977 47.9395 41.9033 67.6475 66.7568
c80.5488 101.586 136.613 227.608 177.416 349.81c42.1377 126.215 68.7363 259.828 69.9111 393.186c1.13672 128.436 -26.2998 263.154 -108.776 365.034c-71.9014 88.8174 -190.254 153.107 -306.823 133.65c-122.1 -20.375 -215.049 -122.036 -269.527 -227.273
c-58.6855 -113.361 -80.5977 -246.985 -67.3115 -373.553c12.3516 -117.68 55.7812 -235.173 143.91 -317.228c11.1348 -10.3662 23.1504 -20.0869 35.8545 -28.9531c5.08203 75.0781 14.6846 150.012 24.9014 224.161c3.27246 23.7217 24.8701 43.333 47.4385 49.0605
c18.2451 4.62793 43.6963 -2.74902 40.7285 -26.0762c-12.1221 -95.335 -25.1201 -191.908 -28.3232 -288.407c15.96 -4.66016 32.2998 -7.77734 48.8311 -8.96777c69.8096 -5.0332 132.643 27.042 185.91 69.2539z" />
    <glyph glyph-name="O" unicode="&#xd6;" horiz-adv-x="974" 
d="M372.732 -259.441c-51.1533 38.5986 -65.9785 107.453 -75.8379 167.078c-12.1436 73.418 -15.0527 147.449 -12.5654 221.486c-30.8262 14.957 -59.4219 34.8623 -84.7559 58.2051c-111.312 102.541 -151.276 265.593 -149.521 412.07
c1.69238 141.369 44.6465 284.826 129.84 398.593c79.3965 106.027 201.336 194.162 339.348 188.194c130 -5.62109 248.037 -86.9336 317.009 -194.775c79.5459 -124.379 95.7676 -278.752 85.4658 -422.967c-10.8682 -152.163 -48.5322 -303.435 -108.093 -443.769
c-54.5586 -128.548 -126.183 -272.778 -244.103 -354.753c-54.4678 -37.8672 -135.956 -75.2695 -196.787 -29.3633zM606.75 205.161c18.1387 14.375 32.2949 -5.94727 14.6426 -20.1572c-60.1748 -48.4893 -135.104 -85.8867 -213.95 -85.5342
c-12.2129 0.0537109 -24.2822 1.05176 -36.2021 2.74414c-0.0263672 -53.0371 3.35742 -106 12.0742 -158.653c7.71289 -46.584 19.6914 -136.074 76.7861 -149.707c29.0439 -6.93359 62.3789 14.6318 84.8623 30.8535c25.7764 18.5977 47.9395 41.9033 67.6475 66.7568
c80.5488 101.586 136.613 227.608 177.416 349.81c42.1377 126.215 68.7363 259.828 69.9111 393.186c1.13672 128.436 -26.2998 263.154 -108.776 365.034c-71.9014 88.8174 -190.254 153.107 -306.823 133.65c-122.1 -20.375 -215.049 -122.036 -269.527 -227.273
c-58.6855 -113.361 -80.5977 -246.985 -67.3115 -373.553c12.3516 -117.68 55.7812 -235.173 143.91 -317.228c11.1348 -10.3662 23.1504 -20.0869 35.8545 -28.9531c5.08203 75.0781 14.6846 150.012 24.9014 224.161c3.27246 23.7217 24.8701 43.333 47.4385 49.0605
c18.2451 4.62793 43.6963 -2.74902 40.7285 -26.0762c-12.1221 -95.335 -25.1201 -191.908 -28.3232 -288.407c15.96 -4.66016 32.2998 -7.77734 48.8311 -8.96777c69.8096 -5.0332 132.643 27.042 185.91 69.2539z" />
    <glyph glyph-name="O" unicode="&#xd5;" horiz-adv-x="974" 
d="M372.732 -259.441c-51.1533 38.5986 -65.9785 107.453 -75.8379 167.078c-12.1436 73.418 -15.0527 147.449 -12.5654 221.486c-30.8262 14.957 -59.4219 34.8623 -84.7559 58.2051c-111.312 102.541 -151.276 265.593 -149.521 412.07
c1.69238 141.369 44.6465 284.826 129.84 398.593c79.3965 106.027 201.336 194.162 339.348 188.194c130 -5.62109 248.037 -86.9336 317.009 -194.775c79.5459 -124.379 95.7676 -278.752 85.4658 -422.967c-10.8682 -152.163 -48.5322 -303.435 -108.093 -443.769
c-54.5586 -128.548 -126.183 -272.778 -244.103 -354.753c-54.4678 -37.8672 -135.956 -75.2695 -196.787 -29.3633zM606.75 205.161c18.1387 14.375 32.2949 -5.94727 14.6426 -20.1572c-60.1748 -48.4893 -135.104 -85.8867 -213.95 -85.5342
c-12.2129 0.0537109 -24.2822 1.05176 -36.2021 2.74414c-0.0263672 -53.0371 3.35742 -106 12.0742 -158.653c7.71289 -46.584 19.6914 -136.074 76.7861 -149.707c29.0439 -6.93359 62.3789 14.6318 84.8623 30.8535c25.7764 18.5977 47.9395 41.9033 67.6475 66.7568
c80.5488 101.586 136.613 227.608 177.416 349.81c42.1377 126.215 68.7363 259.828 69.9111 393.186c1.13672 128.436 -26.2998 263.154 -108.776 365.034c-71.9014 88.8174 -190.254 153.107 -306.823 133.65c-122.1 -20.375 -215.049 -122.036 -269.527 -227.273
c-58.6855 -113.361 -80.5977 -246.985 -67.3115 -373.553c12.3516 -117.68 55.7812 -235.173 143.91 -317.228c11.1348 -10.3662 23.1504 -20.0869 35.8545 -28.9531c5.08203 75.0781 14.6846 150.012 24.9014 224.161c3.27246 23.7217 24.8701 43.333 47.4385 49.0605
c18.2451 4.62793 43.6963 -2.74902 40.7285 -26.0762c-12.1221 -95.335 -25.1201 -191.908 -28.3232 -288.407c15.96 -4.66016 32.2998 -7.77734 48.8311 -8.96777c69.8096 -5.0332 132.643 27.042 185.91 69.2539z" />
    <glyph glyph-name="O" unicode="&#xd4;" horiz-adv-x="974" 
d="M372.732 -259.441c-51.1533 38.5986 -65.9785 107.453 -75.8379 167.078c-12.1436 73.418 -15.0527 147.449 -12.5654 221.486c-30.8262 14.957 -59.4219 34.8623 -84.7559 58.2051c-111.312 102.541 -151.276 265.593 -149.521 412.07
c1.69238 141.369 44.6465 284.826 129.84 398.593c79.3965 106.027 201.336 194.162 339.348 188.194c130 -5.62109 248.037 -86.9336 317.009 -194.775c79.5459 -124.379 95.7676 -278.752 85.4658 -422.967c-10.8682 -152.163 -48.5322 -303.435 -108.093 -443.769
c-54.5586 -128.548 -126.183 -272.778 -244.103 -354.753c-54.4678 -37.8672 -135.956 -75.2695 -196.787 -29.3633zM606.75 205.161c18.1387 14.375 32.2949 -5.94727 14.6426 -20.1572c-60.1748 -48.4893 -135.104 -85.8867 -213.95 -85.5342
c-12.2129 0.0537109 -24.2822 1.05176 -36.2021 2.74414c-0.0263672 -53.0371 3.35742 -106 12.0742 -158.653c7.71289 -46.584 19.6914 -136.074 76.7861 -149.707c29.0439 -6.93359 62.3789 14.6318 84.8623 30.8535c25.7764 18.5977 47.9395 41.9033 67.6475 66.7568
c80.5488 101.586 136.613 227.608 177.416 349.81c42.1377 126.215 68.7363 259.828 69.9111 393.186c1.13672 128.436 -26.2998 263.154 -108.776 365.034c-71.9014 88.8174 -190.254 153.107 -306.823 133.65c-122.1 -20.375 -215.049 -122.036 -269.527 -227.273
c-58.6855 -113.361 -80.5977 -246.985 -67.3115 -373.553c12.3516 -117.68 55.7812 -235.173 143.91 -317.228c11.1348 -10.3662 23.1504 -20.0869 35.8545 -28.9531c5.08203 75.0781 14.6846 150.012 24.9014 224.161c3.27246 23.7217 24.8701 43.333 47.4385 49.0605
c18.2451 4.62793 43.6963 -2.74902 40.7285 -26.0762c-12.1221 -95.335 -25.1201 -191.908 -28.3232 -288.407c15.96 -4.66016 32.2998 -7.77734 48.8311 -8.96777c69.8096 -5.0332 132.643 27.042 185.91 69.2539z" />
    <glyph glyph-name="O" unicode="&#xd3;" horiz-adv-x="974" 
d="M372.732 -259.441c-51.1533 38.5986 -65.9785 107.453 -75.8379 167.078c-12.1436 73.418 -15.0527 147.449 -12.5654 221.486c-30.8262 14.957 -59.4219 34.8623 -84.7559 58.2051c-111.312 102.541 -151.276 265.593 -149.521 412.07
c1.69238 141.369 44.6465 284.826 129.84 398.593c79.3965 106.027 201.336 194.162 339.348 188.194c130 -5.62109 248.037 -86.9336 317.009 -194.775c79.5459 -124.379 95.7676 -278.752 85.4658 -422.967c-10.8682 -152.163 -48.5322 -303.435 -108.093 -443.769
c-54.5586 -128.548 -126.183 -272.778 -244.103 -354.753c-54.4678 -37.8672 -135.956 -75.2695 -196.787 -29.3633zM606.75 205.161c18.1387 14.375 32.2949 -5.94727 14.6426 -20.1572c-60.1748 -48.4893 -135.104 -85.8867 -213.95 -85.5342
c-12.2129 0.0537109 -24.2822 1.05176 -36.2021 2.74414c-0.0263672 -53.0371 3.35742 -106 12.0742 -158.653c7.71289 -46.584 19.6914 -136.074 76.7861 -149.707c29.0439 -6.93359 62.3789 14.6318 84.8623 30.8535c25.7764 18.5977 47.9395 41.9033 67.6475 66.7568
c80.5488 101.586 136.613 227.608 177.416 349.81c42.1377 126.215 68.7363 259.828 69.9111 393.186c1.13672 128.436 -26.2998 263.154 -108.776 365.034c-71.9014 88.8174 -190.254 153.107 -306.823 133.65c-122.1 -20.375 -215.049 -122.036 -269.527 -227.273
c-58.6855 -113.361 -80.5977 -246.985 -67.3115 -373.553c12.3516 -117.68 55.7812 -235.173 143.91 -317.228c11.1348 -10.3662 23.1504 -20.0869 35.8545 -28.9531c5.08203 75.0781 14.6846 150.012 24.9014 224.161c3.27246 23.7217 24.8701 43.333 47.4385 49.0605
c18.2451 4.62793 43.6963 -2.74902 40.7285 -26.0762c-12.1221 -95.335 -25.1201 -191.908 -28.3232 -288.407c15.96 -4.66016 32.2998 -7.77734 48.8311 -8.96777c69.8096 -5.0332 132.643 27.042 185.91 69.2539z" />
    <glyph glyph-name="P" unicode="P" horiz-adv-x="1140" 
d="M1151.01 910.166c62.7578 -138.119 -8.06348 -292.688 -76.0791 -414.552c-70.5195 -126.338 -167.595 -238.429 -278.57 -330.823c-56.7051 -47.2139 -120.028 -87.75 -191.124 -109.268c-58.6748 -17.7588 -132.525 -23.5879 -177.994 25.3232
c-47.7588 51.3779 -15.1924 127.907 14.3799 179.525c31.9639 55.792 76.2256 104.105 125.351 145.202c49.9785 41.8115 106.416 76.252 164.151 106.214c55.8076 28.958 121.971 67.0117 186.597 48.0566c20.4492 -5.99414 -3.84863 -34.4297 -19.3389 -30.2285
c-41.4707 11.2412 -79.3857 -6.36328 -116.073 -24.3359c-30.4795 -14.9297 -60.5479 -30.8955 -89.5332 -48.5693c-54.0781 -32.9834 -104.751 -72.0674 -146.883 -119.575c-36.2334 -40.8516 -91.7588 -114.387 -73.7217 -172.815
c18.6084 -60.2812 109.753 -40.7656 152.835 -24.917c108.184 39.7939 200.487 135.706 273.222 221.833c79.9355 94.6523 153.209 208.948 189.849 328.026c18.998 61.7275 25.1631 130.202 1.71875 191.657c-19.6758 51.5693 -60.8896 91.5879 -110.281 115.021
c-114.269 54.207 -254.293 31.3926 -366.641 -15.7568c-76.7432 -32.2041 -149.435 -75.3613 -216.18 -126.019c-18.7891 -190.932 -27.9219 -382.739 -25.7549 -574.621c1.16895 -103.23 4.22754 -206.461 10.7773 -309.499
c3.40527 -53.6357 6.85352 -107.309 11.1396 -160.886c1.90527 -23.8125 3.79492 -47.6621 7.03516 -71.3359c2.375 -17.3691 2.58887 -56.6611 19.2646 -66.9473c27.1699 -16.7607 -19.75 -58.29 -43.376 -45.6553c-36.373 19.457 -38.748 86.918 -44.2031 122.57
c-1.41992 9.28809 -2.77051 18.5977 -4.13184 27.9072c-2.86133 1.36621 -4.71875 4.21094 -4.60156 9.02539c0.181641 7.17969 0.213867 14.3701 0.293945 21.5605c-4.55859 33.3457 -8.6582 66.7666 -11.8926 100.22c-5.67969 58.7119 -10.5 117.578 -14.1836 176.509
c-16.5742 72.8896 -45.9277 145.133 -102.766 195.741c-50.4541 44.9238 -138.77 52.9463 -143.984 133.864c-4.64355 72.0615 43.0615 147.348 81.9219 204.153c50.251 73.4707 110.805 140.67 178.052 199.964c1.97461 21.1221 4.0459 42.2393 6.30371 63.335
c2.43945 22.8037 24.5488 41.9297 45.7461 47.3105c17.9189 4.54785 41.6777 -2.6748 39.2754 -25.1426c-0.491211 -4.60156 -0.950195 -9.20801 -1.43066 -13.8145c12.5225 9.04199 25.1729 17.876 37.9893 26.3896c117.963 78.3711 255.052 141.774 398.423 149.077
c120.199 6.12305 260.928 -35.998 314.419 -153.726zM290.592 227.026c-4.68652 183.87 0.582031 367.96 16.2432 551.2c-6.1543 -5.78125 -12.2451 -11.6152 -18.2559 -17.5088c-46.9844 -46.0879 -90.7656 -96.1094 -128.035 -150.423
c-34.1035 -49.6963 -73.9512 -111.648 -76.7373 -173.733c-3.2832 -73.0332 69.2373 -82.1826 116.654 -116.271c39.1914 -28.1787 69.0781 -67.1406 90.6484 -110.004c-0.165039 5.58301 -0.373047 11.1611 -0.517578 16.7393z" />
    <glyph glyph-name="Q" unicode="Q" horiz-adv-x="1185" 
d="M1163.47 1009.32c69.4678 -115.043 42.1582 -253.629 0.992188 -373.113c-72.8252 -211.387 -161.082 -418.877 -258.371 -621.019c16.4248 2.55664 32.8975 4.7666 49.4287 6.49609c43.7705 4.57422 100.24 11.5723 141.502 -8.16699
c36.4795 -17.4551 49.6377 -62.2832 23.9414 -94.9463c-11.6904 -14.8555 -33.4746 -32.0918 -53.9346 -23.1992c-21.0264 9.13867 -11.0762 32.0166 -0.288086 44.9072c-7.09375 -8.47656 -2.60449 3.16016 -9.12207 10.9268
c-4.8252 5.74902 -12.0742 8.8877 -18.9766 11.1621c-19.5742 6.44824 -42.6768 5.50391 -62.8965 5.50879c-32.4814 0.0107422 -64.6533 -3.04785 -96.6113 -8.07617c-22.542 -45.8584 -45.4951 -91.4551 -68.8486 -136.721
c-22.4033 -43.4297 -106.95 -41.9297 -76.5244 17.5244c16.9639 33.1484 33.8633 66.3818 50.667 99.7012c-63.4834 -15.3096 -126.204 -34.3281 -187.729 -55.8613c-141.828 -49.6426 -285.221 -113.916 -409.247 -200.77c5.26855 1.60156 10.3018 3.37891 14.8389 4.95898
c19.5898 6.82227 15.8691 -20.1826 1.69727 -25.4082c-23.0762 -8.51367 -46.333 -9.39941 -69.6221 -15.9277c-18.9551 -5.31152 -21.042 13.377 -11.6104 24.9385c30.3457 37.2051 73.8604 63.1045 114.381 87.7441c43.5732 26.4971 88.4434 50.9131 134.023 73.7803
c90.4561 45.3828 184.27 83.9229 280.245 115.987c52.9258 17.6787 106.748 33.9385 161.28 46.915c106.999 214.467 208.857 432.702 294.499 655.972c42.8633 111.744 75.6172 248.624 5.78125 357.112c-65.2881 101.421 -205.003 134.596 -317.916 131.174
c-233.913 -7.08887 -458.036 -147.001 -584.198 -340.88c-124.843 -191.851 -186.923 -483.387 -46.7383 -683.74c69.6494 -99.5361 177.545 -147.845 297.771 -146.761c62.1816 0.560547 123.766 11.792 183.956 26.7275c53.4863 13.2705 112.15 29.6104 144.407 77.9824
c8.43945 12.6504 36.1484 12.4531 24.4688 -5.60547c-34.2217 -52.9092 -92.6934 -78.4453 -151.469 -94.582c-68.7148 -18.8691 -140.563 -32.6299 -211.995 -33.4629c-139.421 -1.62305 -263.373 59.8701 -334.906 181.543
c-130.277 221.588 -52.1572 525.561 91.4805 721.174c144.535 196.83 392.903 339.657 641.581 328.026c120.562 -5.64258 248.982 -54.25 314.062 -162.022z" />
    <glyph glyph-name="R" unicode="R" horiz-adv-x="1070" 
d="M974.114 -114.901c-113.03 25.9854 -213.688 87.4863 -306.573 154.931c-47.5557 34.5312 -93.4141 71.2725 -139.955 107.148c-23.7861 18.3359 -47.7432 36.4531 -72.1533 53.9512c-7.88379 5.64746 -22.584 18.9121 -37.1084 28.4668
c-0.0537109 -2.60449 -0.123047 -5.2041 -0.166016 -7.80859c-1.43066 -86.9971 -0.0478516 -174.342 6.73633 -261.109c6.04297 -77.3301 10.5371 -169.943 52.7178 -237.484c14.6846 -23.5078 -32.3643 -57.8359 -49.5254 -35.9824
c-57.2168 72.8682 -68.2344 175.303 -78.6963 264.302c-5.90332 50.251 -9.83691 100.919 -12.1855 151.763c-7.00879 19.2061 -16.8037 37.499 -29.2461 54.292c-32.791 44.2568 -76.9355 66.7344 -128.879 81.1201c-41.5234 11.5029 -90.2695 23.3262 -114.322 62.8799
c-27.1699 44.6836 -11.5029 100.198 4.62305 145.8c64.1777 181.463 189.053 336.657 339.822 454.23c0.0429688 0.0322266 0.0800781 0.0585938 0.123047 0.0908203c9.43164 42.1904 19.793 84.168 31.1895 125.884c11.5352 42.2227 100.993 63.4199 86.1221 3.27734
c-4.62305 -18.6992 -9.10156 -37.4297 -13.4951 -56.1816c52.4609 32.9453 107.645 61.6904 164.952 83.9814c91.0381 35.4121 200.055 60.9863 297.093 35.8604c36.5537 -9.46387 75.9746 -25.1416 99.3389 -56.2725c29.9346 -39.8848 26.5713 -92.335 13.6592 -137.787
c-28.8672 -101.607 -101.223 -189.213 -170.034 -266.698c-74.71 -84.1309 -158.227 -160.885 -246.58 -230.47c-43.2529 -34.0664 -87.9473 -66.2705 -134.137 -96.2432c-12.2715 -7.96387 -24.6982 -15.9062 -37.3652 -23.4277
c20.4551 -14.9297 40.7129 -30.0947 60.623 -45.7617c47.2246 -37.1523 93.3604 -75.6709 140.131 -113.389c94.2412 -76.001 193.58 -145.367 310.39 -181.382c39.6504 -12.2236 -7.79297 -64.7168 -37.0986 -57.9805zM537.888 958.423
c-11.2314 -6.82715 -22.3096 -13.8984 -33.3271 -21.0938c-14.7598 -65.5547 -28.0244 -131.451 -39.25 -197.7c-23.0977 -136.277 -37.4883 -274.113 -43.835 -412.237c41.4062 13.8623 77.2393 37.5361 114.263 62.1758c47.1494 31.3818 93.0771 64.5195 137.393 99.8027
c86.1807 68.6191 166.729 145.389 239.245 228.351c31.2646 35.7637 60.0146 73.7266 85.0117 114.161c25.3281 40.9629 53.4375 91.9238 45.9746 141.951c-15 100.599 -139.635 103.684 -217.435 94.4492c-102.846 -12.208 -200.316 -56.5127 -288.04 -109.859z
M300.086 219.673c12.9766 -10.9316 24.5439 -23.2354 34.7285 -36.5156c-1.40918 103.3 3.35742 206.871 12.1494 308.852c10.6758 123.829 28.1895 247.135 53.5342 368.808c-24.9922 -20.6523 -49.1035 -42.3506 -72.1475 -65.1436
c-63.8096 -63.1104 -119.692 -134.046 -164.237 -212.033c-21.8691 -38.2783 -40.707 -78.2217 -56.3262 -119.446c-16.3711 -43.2109 -38.4863 -100.204 -10.3398 -143.223c22.5479 -34.4512 67.0234 -43.4883 104.016 -53.8809
c35.9453 -10.0996 69.7129 -23.0654 98.623 -47.417z" />
    <glyph glyph-name="S" unicode="S" horiz-adv-x="993" 
d="M660.259 535.94c95.25 -75.4893 182.202 -171.999 222.989 -288.232c80.6289 -229.829 -102.904 -453.259 -318.566 -514.597c-194.349 -55.2744 -456.574 25.1357 -507.098 243.228c-26.0918 112.641 18.1699 234.89 86.8525 324.07
c64.583 83.8584 154.826 145.484 256.828 173.903c21.5811 6.01074 13.0293 -21.8369 -2.33887 -26.1504c-121.651 -34.1465 -226.056 -122.024 -279.302 -236.939c-30.2822 -65.3525 -46.4775 -140.692 -31.9209 -212.193
c11.8076 -57.9912 43.8408 -109.651 86.2666 -150.363c163.66 -157.053 442.155 -128.74 591.841 32.9609c87.1523 94.1504 109.919 227.38 50.9883 342.022c-54.8467 106.705 -146.499 190.916 -244.055 258.147c-101.495 69.9482 -215.257 116.649 -321.103 178.879
c-49.5303 29.1182 -105.493 66.6221 -132.519 119.158c-28.9688 56.3203 -11.4707 118.422 28.6602 164.605c38.4492 44.251 94.625 68.501 148.484 88.3633c54.2812 20.0176 113.147 32.4492 171.171 25.916c98.3623 -11.0762 196.308 -97.8916 174.673 -204.261
c-3.14941 -15.4795 -38.5879 -29.2402 -34.7285 -9.05176c12.4697 65.2773 -28.3174 127.362 -85.4014 156.907c-67.792 35.0811 -149.1 20.4873 -216.416 -7.85742c-52.6475 -22.168 -134.456 -64.6523 -114.338 -134.878
c18.3145 -63.9111 96.0078 -101.735 149.019 -132.477c108.21 -62.7471 221.267 -112.907 320.013 -191.161z" />
    <glyph glyph-name="T" unicode="T" horiz-adv-x="964" 
d="M1424.9 1161.59c56.9287 3.71484 283.411 11.0674 235.231 -102.764c-6.59766 -15.5918 -23.5938 -30.0898 -41.3154 -30.0205c-14.7324 0.0537109 -27.25 12.5176 -20.1133 27.6826c24.1865 51.3779 -123.178 55.4297 -147.166 55.8193
c-64.8184 1.05664 -129.279 -7.50586 -192.747 -20.0391c-144.124 -28.4619 -284.372 -72.8623 -421.834 -124.598c-6.44824 -60.3506 -12.6406 -120.723 -17.9941 -181.19c-15.9922 -180.528 -23.4756 -361.366 -18.4424 -542.572
c4.97461 -178.933 27.5273 -356.066 60.1416 -531.919c3.29395 -17.7539 -33.3506 -47.3311 -44.6406 -26.6309c-15.0635 27.6074 -26.834 56.9551 -36.3301 87.248c-2.83984 1.48926 -4.74023 4.3877 -4.75586 9.22949
c-0.00488281 2.31641 -0.0693359 4.62793 -0.0849609 6.94434c-17.2256 60.5 -26.1777 124.187 -34.4297 185.081c-11.4922 84.7764 -18.8799 169.97 -22.9424 255.371c-37.3711 134.681 -95.5488 264.162 -183.427 373.168
c-53.1016 65.875 -123.392 129.535 -209.188 145.346c-1.51074 0.283203 -3.02637 0.507812 -4.53711 0.75293c-41.3691 -18.2773 -82.8018 -36.4053 -124.442 -54.042c-44.6787 -18.9229 -89.0635 -36.6816 -138.429 -31.1885
c-15.1221 1.68652 -3.44824 19.9902 1.97461 24.6289c76.1455 65.1494 176.786 106.283 277.907 95.9863c37.5527 16.7715 75.0732 33.6182 112.583 50.4971c99.6592 44.8438 199.142 90.2744 299.782 132.77c3.78418 33.3457 7.77734 66.6328 11.9463 99.8457
c2.98926 23.8174 25.2324 43.6152 47.6787 49.3105c18.6289 4.72949 43.5039 -2.78613 40.9365 -26.2031c-3.12793 -28.4883 -6.25098 -56.9717 -9.3418 -85.46c80.7842 32.1553 162.566 61.7598 246.041 86.9814c109.641 33.1221 223.258 62.4756 337.938 69.9648z
M185.374 717.287c25.9746 11.0439 51.8574 22.3018 77.7041 33.6504c-55.8984 -4.17969 -109.796 -26.6953 -156.449 -58.5625c27.2607 3.1709 53.1816 14.0391 78.7451 24.9121zM713.769 363.09c-1.63379 189.961 11.541 380.422 32.0547 569.134
c-33.7998 -13.5371 -67.4502 -27.3779 -100.951 -41.4541c-88.2305 -37.0723 -175.569 -76.1084 -262.994 -115c168.086 -45.0361 262.524 -240.335 322.528 -388.494c3.25098 -8.01758 6.28809 -16.1094 9.3623 -24.1855z" />
    <glyph glyph-name="U" unicode="U" horiz-adv-x="1167" 
d="M714.691 -187.262c-92.6445 -97.2725 -256.846 -221.666 -379.645 -99.5771c-53.6191 53.3203 -70.2471 131.639 -80.0098 203.909c-11.2949 83.6025 -11.2471 168.112 -4.83594 252.104c12.8428 168.219 49.7549 333.358 64.7754 501.263
c3.76855 42.1211 6.42676 84.8086 5.33203 127.096c-0.827148 32.0059 1.12109 79.2568 -27.7939 100.913c-31.5469 23.626 -81.3926 10.3291 -114.866 -1.36621c-38.1719 -13.3398 -72.9111 -34.7129 -102.724 -61.915
c-12.7842 -11.6689 -35.3691 -2.80273 -19.4463 11.9775c50.8486 47.209 116.505 83.6455 186.475 90.9375c69.0674 7.20117 114.162 -35.3955 129.481 -100.24c19.2061 -81.2969 14.3594 -168.529 7.89551 -251.054c-6.88086 -87.8564 -18.2666 -175.152 -27.8691 -262.721
c-16.1523 -147.315 -28.1094 -304.458 12.5117 -449.046c16.6172 -59.1445 54.7998 -130.048 122.298 -139.955c69.3662 -10.1846 134.382 41.5664 182.461 85.1934c98.2334 89.1328 174.773 204.667 235.252 322.635c-4.16895 27.9658 -7.53223 55.8242 -10.3984 83.1973
c-19.6699 188.098 -18.3193 380.007 12 566.93c12.042 74.2559 28.7549 155.205 68.1436 220.418c24.6719 40.8457 83.2822 81.5576 119.34 28.3438c19.9375 -29.417 24.2344 -71.0205 27.6826 -105.327c3.6084 -35.8711 3.66211 -71.9932 1.70801 -107.971
c-4.14746 -76.3428 -14.8711 -152.573 -29.2832 -227.619c-25.2373 -131.425 -64.1025 -260.207 -118.379 -382.547c1.31836 -8.19922 2.6582 -16.3926 4.06738 -24.5811c22.4404 -130.176 61.1348 -257.608 151.121 -357.662
c28.707 -31.9209 -48.4365 -89.3193 -78.2754 -56.8701c-78.8086 85.7061 -117.562 198.353 -139.186 312.809c-54.5 -100.588 -119.483 -197.012 -197.833 -279.274zM947.974 666.77c-4.70312 -129.936 0.953125 -259.525 17.9814 -388.158
c37.291 92.5752 66.292 188.567 86.9658 286.097c14.6797 69.2539 25.083 139.485 31.4883 209.983c6.67285 73.4395 12.4805 157.314 -14.3799 227.674c-6.20312 16.2598 -21.293 41.834 -43.0879 32.2207c-16.7393 -7.38281 -24.6016 -30.79 -30.3613 -46.4092
c-12.6133 -34.2051 -20.9883 -69.7393 -27.7568 -105.509c-13.4355 -71.0215 -18.2393 -143.772 -20.8496 -215.898z" />
    <glyph glyph-name="U" unicode="&#xdc;" horiz-adv-x="1167" 
d="M714.691 -187.262c-92.6445 -97.2725 -256.846 -221.666 -379.645 -99.5771c-53.6191 53.3203 -70.2471 131.639 -80.0098 203.909c-11.2949 83.6025 -11.2471 168.112 -4.83594 252.104c12.8428 168.219 49.7549 333.358 64.7754 501.263
c3.76855 42.1211 6.42676 84.8086 5.33203 127.096c-0.827148 32.0059 1.12109 79.2568 -27.7939 100.913c-31.5469 23.626 -81.3926 10.3291 -114.866 -1.36621c-38.1719 -13.3398 -72.9111 -34.7129 -102.724 -61.915
c-12.7842 -11.6689 -35.3691 -2.80273 -19.4463 11.9775c50.8486 47.209 116.505 83.6455 186.475 90.9375c69.0674 7.20117 114.162 -35.3955 129.481 -100.24c19.2061 -81.2969 14.3594 -168.529 7.89551 -251.054c-6.88086 -87.8564 -18.2666 -175.152 -27.8691 -262.721
c-16.1523 -147.315 -28.1094 -304.458 12.5117 -449.046c16.6172 -59.1445 54.7998 -130.048 122.298 -139.955c69.3662 -10.1846 134.382 41.5664 182.461 85.1934c98.2334 89.1328 174.773 204.667 235.252 322.635c-4.16895 27.9658 -7.53223 55.8242 -10.3984 83.1973
c-19.6699 188.098 -18.3193 380.007 12 566.93c12.042 74.2559 28.7549 155.205 68.1436 220.418c24.6719 40.8457 83.2822 81.5576 119.34 28.3438c19.9375 -29.417 24.2344 -71.0205 27.6826 -105.327c3.6084 -35.8711 3.66211 -71.9932 1.70801 -107.971
c-4.14746 -76.3428 -14.8711 -152.573 -29.2832 -227.619c-25.2373 -131.425 -64.1025 -260.207 -118.379 -382.547c1.31836 -8.19922 2.6582 -16.3926 4.06738 -24.5811c22.4404 -130.176 61.1348 -257.608 151.121 -357.662
c28.707 -31.9209 -48.4365 -89.3193 -78.2754 -56.8701c-78.8086 85.7061 -117.562 198.353 -139.186 312.809c-54.5 -100.588 -119.483 -197.012 -197.833 -279.274zM947.974 666.77c-4.70312 -129.936 0.953125 -259.525 17.9814 -388.158
c37.291 92.5752 66.292 188.567 86.9658 286.097c14.6797 69.2539 25.083 139.485 31.4883 209.983c6.67285 73.4395 12.4805 157.314 -14.3799 227.674c-6.20312 16.2598 -21.293 41.834 -43.0879 32.2207c-16.7393 -7.38281 -24.6016 -30.79 -30.3613 -46.4092
c-12.6133 -34.2051 -20.9883 -69.7393 -27.7568 -105.509c-13.4355 -71.0215 -18.2393 -143.772 -20.8496 -215.898z" />
    <glyph glyph-name="U" unicode="&#xdb;" horiz-adv-x="1167" 
d="M714.691 -187.262c-92.6445 -97.2725 -256.846 -221.666 -379.645 -99.5771c-53.6191 53.3203 -70.2471 131.639 -80.0098 203.909c-11.2949 83.6025 -11.2471 168.112 -4.83594 252.104c12.8428 168.219 49.7549 333.358 64.7754 501.263
c3.76855 42.1211 6.42676 84.8086 5.33203 127.096c-0.827148 32.0059 1.12109 79.2568 -27.7939 100.913c-31.5469 23.626 -81.3926 10.3291 -114.866 -1.36621c-38.1719 -13.3398 -72.9111 -34.7129 -102.724 -61.915
c-12.7842 -11.6689 -35.3691 -2.80273 -19.4463 11.9775c50.8486 47.209 116.505 83.6455 186.475 90.9375c69.0674 7.20117 114.162 -35.3955 129.481 -100.24c19.2061 -81.2969 14.3594 -168.529 7.89551 -251.054c-6.88086 -87.8564 -18.2666 -175.152 -27.8691 -262.721
c-16.1523 -147.315 -28.1094 -304.458 12.5117 -449.046c16.6172 -59.1445 54.7998 -130.048 122.298 -139.955c69.3662 -10.1846 134.382 41.5664 182.461 85.1934c98.2334 89.1328 174.773 204.667 235.252 322.635c-4.16895 27.9658 -7.53223 55.8242 -10.3984 83.1973
c-19.6699 188.098 -18.3193 380.007 12 566.93c12.042 74.2559 28.7549 155.205 68.1436 220.418c24.6719 40.8457 83.2822 81.5576 119.34 28.3438c19.9375 -29.417 24.2344 -71.0205 27.6826 -105.327c3.6084 -35.8711 3.66211 -71.9932 1.70801 -107.971
c-4.14746 -76.3428 -14.8711 -152.573 -29.2832 -227.619c-25.2373 -131.425 -64.1025 -260.207 -118.379 -382.547c1.31836 -8.19922 2.6582 -16.3926 4.06738 -24.5811c22.4404 -130.176 61.1348 -257.608 151.121 -357.662
c28.707 -31.9209 -48.4365 -89.3193 -78.2754 -56.8701c-78.8086 85.7061 -117.562 198.353 -139.186 312.809c-54.5 -100.588 -119.483 -197.012 -197.833 -279.274zM947.974 666.77c-4.70312 -129.936 0.953125 -259.525 17.9814 -388.158
c37.291 92.5752 66.292 188.567 86.9658 286.097c14.6797 69.2539 25.083 139.485 31.4883 209.983c6.67285 73.4395 12.4805 157.314 -14.3799 227.674c-6.20312 16.2598 -21.293 41.834 -43.0879 32.2207c-16.7393 -7.38281 -24.6016 -30.79 -30.3613 -46.4092
c-12.6133 -34.2051 -20.9883 -69.7393 -27.7568 -105.509c-13.4355 -71.0215 -18.2393 -143.772 -20.8496 -215.898z" />
    <glyph glyph-name="U" unicode="&#xda;" horiz-adv-x="1167" 
d="M714.691 -187.262c-92.6445 -97.2725 -256.846 -221.666 -379.645 -99.5771c-53.6191 53.3203 -70.2471 131.639 -80.0098 203.909c-11.2949 83.6025 -11.2471 168.112 -4.83594 252.104c12.8428 168.219 49.7549 333.358 64.7754 501.263
c3.76855 42.1211 6.42676 84.8086 5.33203 127.096c-0.827148 32.0059 1.12109 79.2568 -27.7939 100.913c-31.5469 23.626 -81.3926 10.3291 -114.866 -1.36621c-38.1719 -13.3398 -72.9111 -34.7129 -102.724 -61.915
c-12.7842 -11.6689 -35.3691 -2.80273 -19.4463 11.9775c50.8486 47.209 116.505 83.6455 186.475 90.9375c69.0674 7.20117 114.162 -35.3955 129.481 -100.24c19.2061 -81.2969 14.3594 -168.529 7.89551 -251.054c-6.88086 -87.8564 -18.2666 -175.152 -27.8691 -262.721
c-16.1523 -147.315 -28.1094 -304.458 12.5117 -449.046c16.6172 -59.1445 54.7998 -130.048 122.298 -139.955c69.3662 -10.1846 134.382 41.5664 182.461 85.1934c98.2334 89.1328 174.773 204.667 235.252 322.635c-4.16895 27.9658 -7.53223 55.8242 -10.3984 83.1973
c-19.6699 188.098 -18.3193 380.007 12 566.93c12.042 74.2559 28.7549 155.205 68.1436 220.418c24.6719 40.8457 83.2822 81.5576 119.34 28.3438c19.9375 -29.417 24.2344 -71.0205 27.6826 -105.327c3.6084 -35.8711 3.66211 -71.9932 1.70801 -107.971
c-4.14746 -76.3428 -14.8711 -152.573 -29.2832 -227.619c-25.2373 -131.425 -64.1025 -260.207 -118.379 -382.547c1.31836 -8.19922 2.6582 -16.3926 4.06738 -24.5811c22.4404 -130.176 61.1348 -257.608 151.121 -357.662
c28.707 -31.9209 -48.4365 -89.3193 -78.2754 -56.8701c-78.8086 85.7061 -117.562 198.353 -139.186 312.809c-54.5 -100.588 -119.483 -197.012 -197.833 -279.274zM947.974 666.77c-4.70312 -129.936 0.953125 -259.525 17.9814 -388.158
c37.291 92.5752 66.292 188.567 86.9658 286.097c14.6797 69.2539 25.083 139.485 31.4883 209.983c6.67285 73.4395 12.4805 157.314 -14.3799 227.674c-6.20312 16.2598 -21.293 41.834 -43.0879 32.2207c-16.7393 -7.38281 -24.6016 -30.79 -30.3613 -46.4092
c-12.6133 -34.2051 -20.9883 -69.7393 -27.7568 -105.509c-13.4355 -71.0215 -18.2393 -143.772 -20.8496 -215.898z" />
    <glyph glyph-name="V" unicode="V" horiz-adv-x="1266" 
d="M660.411 -314.257c-164.227 -20.7646 -275.384 125.976 -337.538 257.566c-70.1611 148.544 -103.833 310.277 -135.06 470.597c-15.96 81.9375 -32.0645 164.094 -52.167 245.134c-9.7207 39.1641 -19.4941 78.5791 -31.4189 117.135
c-11.0439 35.7051 -23.5244 70.7695 -51.3193 96.9736c-12.0371 11.3486 16.4785 29.9189 27.6084 24.1543c68.2881 -35.374 96.9258 -118.891 120.983 -187.056c28.0137 -79.375 48.9062 -160.522 68.8809 -242.214c38.7529 -158.493 71.9277 -321.326 144.385 -468.781
c51.8955 -105.621 141.931 -263.453 281.929 -245.854c67.2578 8.45508 124.208 57.0518 169.527 104.143c52.9092 54.9863 95.0039 121.315 129.925 188.898c4.40332 8.51953 8.7002 17.0977 12.9014 25.7188c-13.0781 3.4541 -26.0283 7.28125 -38.7324 11.5566
c-306.615 103.198 -470.223 464.992 -405.164 772.163c30.0576 141.93 126.674 279.995 275.164 313.159c69.5371 15.5283 145.389 7.18555 205.862 -32.1553c60.9434 -39.6504 99.8301 -104.815 123.701 -172.047c59.7314 -168.219 35.5879 -354.854 -2.89355 -524.823
c-26.5029 -117.065 -60.5107 -232.354 -108.296 -342.08c12.5225 -1.81445 25.125 -3.05859 37.7969 -3.61914c29.8818 -1.32422 4.31836 -40.7871 -18.5283 -36.9014c-11.4873 1.9541 -23.0068 4.16895 -34.5098 6.61328
c-13.0029 -27.8262 -26.9561 -55.2578 -41.9717 -82.2354c-73.0703 -131.254 -180.624 -275.762 -341.065 -296.046zM731.715 300.501c71.6514 -91.6895 176.969 -168.741 292.486 -195.976c55.4453 122.414 92.165 253.679 118.625 384.949
c31.4346 155.953 46.4346 327.364 -14.1611 478.545c-26.4277 65.9336 -71.4961 127.698 -137.644 157.724c-69.4463 31.5254 -153.38 24.8105 -219.843 -10.916c-138.877 -74.6455 -186.326 -242.443 -183.443 -389.812
c2.95703 -151.186 50.3418 -304.688 143.979 -424.514z" />
    <glyph glyph-name="W" unicode="W" horiz-adv-x="1477" 
d="M1038.06 237.946c-228.97 89.3672 -264.013 408.776 -227.133 618.087c18.5225 105.13 55.3857 216.826 132.246 294.338c71.4531 72.0674 172.132 97.2734 267.456 59.5508c232.418 -91.9727 237.89 -396.068 218.396 -605.106
c-12.1221 -129.973 -40.627 -258.707 -80.4639 -382.915c-38.1123 -118.833 -85.1182 -236.673 -146.787 -345.374c-55.835 -98.4258 -126.402 -208.237 -224.674 -269.073c-50.3311 -31.1631 -110.905 -50.4219 -170.434 -40.6211
c-55.1943 9.08496 -100.438 42.5107 -136.801 83.5059c-50.4697 56.9023 -86.1592 128.644 -112.593 202.648c-17.8076 -26.583 -37.6162 -51.6709 -60.041 -74.4746c-38.2031 -38.8438 -88.6416 -68.8213 -144.85 -64.1719
c-49.8457 4.12598 -90.793 39.6016 -119.628 78.1895c-33.8906 45.3457 -52.9951 102.008 -68.8643 155.729c-17.7754 60.1748 -29.8604 121.833 -37.2109 184.116c-14.9512 126.738 -14.7695 254.293 -14.3369 381.698c0.21875 64.418 0.357422 128.793 -0.160156 193.211
c-0.255859 32.2305 0.956055 64.5146 0.235352 96.7559c-0.714844 32.0752 -10.2373 77.2178 -52.2197 72.3281c-21.6982 -2.52441 -4.24902 27.0205 10.6279 28.9209c44.4971 5.67383 70.8398 -34.0938 81.6279 -72.0781
c29.3477 -103.337 28.0078 -217.729 32.7158 -324.273c4.96387 -112.288 9.10645 -225.052 25.6484 -336.369c15.3193 -103.075 37.4668 -212.145 85.5986 -305.494c19.2588 -37.3438 44.7686 -77.3672 86.7139 -91.4912c49.3809 -16.6279 91.1719 25.8408 120.92 60.0352
c14.7969 17.0117 28.2373 35.4111 40.6211 54.7451c-8.98926 28.5205 -16.7617 57.0674 -23.5947 84.9316c-30.0254 122.463 -42.377 253.723 -41.79 379.714c0.31543 66.4893 9.17676 130.032 30.0107 193.303c16.1416 49.0283 39.6182 102.803 88.4658 127.202
c122.035 60.9541 143.813 -124.368 142.714 -202.003c-1.82031 -128.591 -32.8066 -259.812 -73.5615 -381.218c-12.9551 -38.5986 -27.2559 -77.7842 -43.8145 -116.089c9.1709 -28.9854 19.3926 -57.5859 30.96 -85.5996
c35.999 -87.168 87.7715 -185.295 175.394 -229.653c91.5664 -46.3545 184.425 27.8584 242 94.0967c72.7402 83.6768 126.402 181.451 171.241 282.364c95.2334 214.328 156.134 446.992 158.056 682.368c0.891602 109.779 -8.0498 227.379 -62.4111 325.281
c-46.4395 83.6396 -134.104 153.235 -233.48 152.755c-102.082 -0.491211 -172.03 -84.4678 -210.506 -170.638c-46.2373 -103.551 -63.9111 -221.268 -58.915 -334.095c4.77246 -107.89 30.7949 -222.095 95.4854 -310.57
c59.7148 -81.665 162.715 -139.507 265.518 -113.746c34.4131 8.62598 21.1328 -35.3691 -3.69922 -41.4541c-52.0664 -12.7578 -104.773 -8.84473 -154.683 10.6338zM569.472 209.024c10.4199 -62.7148 23.167 -125.753 40.2002 -187.459
c15.8906 40.7178 29.2461 82.1289 41.2461 121.827c33.6934 111.456 60.8262 233.311 56.9189 350.44c-1.55371 46.4668 -6.57715 122.186 -47.1982 153.455c-29.4229 22.6484 -65.7793 5.89844 -82.4551 -23.332c-13.3818 -23.4551 -19.7871 -51.5537 -24.3408 -77.9336
c-19.0674 -110.441 -2.54688 -227.587 15.6289 -336.998z" />
    <glyph glyph-name="X" unicode="X" horiz-adv-x="1181" 
d="M759.946 277.292c8.58301 16.1895 17.21 32.3477 25.9268 48.4893c75.1367 138.973 156.396 274.833 247.663 403.872c42.9326 60.6973 87.0186 122.195 140.553 174.123c15.9395 15.4639 47.4385 53.1279 72.6494 49.0928
c20.5723 -3.29395 15.2236 -25.1318 1.70801 -34.1367c-8.57227 -5.71191 -16.0508 -4.43652 -19.585 -0.198242c-0.400391 -0.192383 -0.725586 -0.368164 -1.16895 -0.56543c-5.8877 -4.98535 -11.7109 -10.0459 -17.4814 -15.1699
c-6.96582 -6.28809 -13.7236 -12.8105 -20.3477 -19.4561c-15.4961 -15.5439 -30.1221 -31.9424 -44.1768 -48.7998c-29.7324 -35.668 -56.9238 -73.498 -83.6885 -111.413c-53.1279 -75.2598 -102.872 -152.873 -149.963 -232.034
c-48.7725 -81.9854 -93.5205 -165.796 -136.571 -250.503c33.9434 -79.3213 70.6094 -157.394 114.812 -231.644c68.3311 -114.781 165.006 -250.979 308.009 -270.771c28.3066 -3.91797 -3.04297 -44.2354 -21.9072 -43.6211
c-158.376 5.15625 -263.127 140.462 -339.502 264.585c-39.0469 63.4629 -72.542 129.894 -103.433 197.605c-24.293 -49.0771 -48.2705 -98.3516 -72.3711 -147.663c-33.3301 -68.2021 -68.3359 -135.679 -107.426 -200.785
c-38.0225 -63.3291 -78.9639 -131.873 -134.895 -181.174c-48.5801 -42.8262 -117.349 -70.6582 -181.115 -46.002c-65.1016 25.168 -98.5654 100.817 -123.648 160.794c-60.1797 143.895 -71.2607 305.825 -60.1797 459.926
c11.2471 156.38 49.3438 317.841 119.569 458.575c33.8955 67.9248 80.6396 140.915 148.88 178.553c66.9697 36.9385 139.197 17.9463 188.835 -37.5469c48.7139 -54.4736 78.7236 -127.913 109.422 -193.431c30.3672 -64.8027 57.9219 -130.827 84.8838 -197.098
c18.1064 -44.5078 36.0254 -89.1865 54.5479 -133.604zM571.765 -81.9023c49.7764 91.2783 96.8887 183.986 144.775 276.295c-28.1523 63.916 -54.4473 128.708 -81.249 193.02c-28.0078 67.21 -56.4053 134.403 -88.8174 199.638
c-16.6221 33.4473 -34.5947 66.3076 -53.7041 98.3936c-17.1934 28.8672 -35.7109 59.1328 -63.8574 78.541c-25.6328 17.6689 -58.4824 29.332 -85.957 10.3184c-26.1504 -18.0957 -46.0283 -47.001 -63.1572 -73.2686
c-40.7871 -62.5391 -67.4336 -133.683 -89.8213 -204.549c-46.8564 -148.346 -68.4219 -306.209 -62.6406 -461.697c2.86621 -77.085 12.7305 -154.164 34.6104 -228.286c17.7754 -60.2061 46.0449 -154.677 108.963 -183.144
c75.1738 -34.0186 139.997 44.748 178.318 97.4336c45.5908 62.6729 85.4541 129.312 122.537 197.306z" />
    <glyph glyph-name="Y" unicode="Y" horiz-adv-x="1051" 
d="M160.997 682.066c-12.2451 -86.5654 -19.4395 -174.18 -20.6836 -261.62c-1.25488 -87.6758 1.7666 -176.659 17.748 -263.069c13.4141 -72.5693 36.6123 -155.873 88.8701 -210.646c118.865 -124.593 217.606 163.612 246.021 240.708
c54.623 148.229 91.1348 301.827 132.813 453.963c20.1719 73.6367 38.7051 149.958 69.1104 220.173c16.2539 37.5312 54.249 122.18 108.781 97.8711c30.4531 -13.5742 46.4131 -52.3164 60.5957 -80.0518c15.2451 -29.8174 30.5811 -59.4424 43.5205 -90.3652
c27.2021 -64.9893 46.5791 -133.416 57.8203 -202.953c23.7646 -146.958 19.5371 -297.845 -13.9268 -442.913c-16.2324 -70.3643 -39.8311 -138.791 -71.1221 -203.914c-31.9424 -66.4678 -70.584 -134.185 -140.537 -166.458
c-32.4541 -14.9678 -71.2979 -20.9463 -105.418 -8.38574c-29.166 10.7402 -42.5059 37.4248 -55.4287 63.8955c-28.0938 57.543 -10.6924 122.922 16.3867 177.502c58.2207 117.359 157.404 213.042 274.513 270.718c19.7715 9.73633 21.373 -14.5674 5.46582 -22.5371
c-67.0713 -33.5967 -126.647 -79.9248 -175.26 -137.126c-46.3174 -54.5 -102.724 -135.018 -88.6045 -210.384c6.41113 -34.2432 23.6689 -58.3809 57.7354 -67.8076c31.5898 -8.73828 58.7861 -3.27734 81.6533 20.6045c24.9443 26.0547 41.8975 61.7705 57.2549 93.9902
c16.3184 34.2324 30.5332 69.4785 42.7891 105.365c46.2793 135.477 65.501 279.296 61.9141 422.262c-3.49609 139.341 -27.6338 291.093 -99.6104 412.573c-10.7666 18.165 -32.6416 54.6338 -53.6094 26.8555c-9.69922 -12.8486 -17.9512 -27.0264 -25.0723 -41.4229
c-14.4072 -29.1396 -24.3467 -60.3506 -33.8643 -91.3477c-22.0986 -71.9814 -41.2676 -144.828 -60.1104 -217.718c-37.5312 -145.17 -72.9746 -291.771 -125.174 -432.548c-23.1348 -62.3896 -50.0811 -124.134 -88.1514 -179.029
c-35.0488 -50.5342 -82.375 -100.791 -146.761 -107.965c-140.729 -15.6826 -198.244 171.689 -215.267 277.973c-23.5879 147.235 -17.9346 304.858 2.60547 452.115c10.2812 73.7002 24.2617 147.551 43.9102 219.346c10.6279 38.8223 21.9551 77.9541 38.5029 114.743
c11.29 25.1045 26.9941 43.1572 53.5127 52.2959c10.2217 3.52344 21.6123 -1.16895 22.9199 -12.1543c1.35547 -11.3594 -8.92578 -21.752 -18.3096 -27.0361c-0.426758 -1.00391 -1.1416 -2.46094 -2.21484 -4.50488
c-1.52148 -5.25293 -2.70605 -10.5801 -3.5498 -15.9873c-1.87891 -9.42676 -3.04297 -18.9873 -4.91699 -28.4141c-4.50488 -22.7285 -9.92773 -45.2754 -14.3691 -68.0312c-8.33203 -42.7197 -16.3818 -85.4502 -22.4834 -128.564z" />
    <glyph glyph-name="Y" unicode="&#x178;" horiz-adv-x="1051" 
d="M160.997 682.066c-12.2451 -86.5654 -19.4395 -174.18 -20.6836 -261.62c-1.25488 -87.6758 1.7666 -176.659 17.748 -263.069c13.4141 -72.5693 36.6123 -155.873 88.8701 -210.646c118.865 -124.593 217.606 163.612 246.021 240.708
c54.623 148.229 91.1348 301.827 132.813 453.963c20.1719 73.6367 38.7051 149.958 69.1104 220.173c16.2539 37.5312 54.249 122.18 108.781 97.8711c30.4531 -13.5742 46.4131 -52.3164 60.5957 -80.0518c15.2451 -29.8174 30.5811 -59.4424 43.5205 -90.3652
c27.2021 -64.9893 46.5791 -133.416 57.8203 -202.953c23.7646 -146.958 19.5371 -297.845 -13.9268 -442.913c-16.2324 -70.3643 -39.8311 -138.791 -71.1221 -203.914c-31.9424 -66.4678 -70.584 -134.185 -140.537 -166.458
c-32.4541 -14.9678 -71.2979 -20.9463 -105.418 -8.38574c-29.166 10.7402 -42.5059 37.4248 -55.4287 63.8955c-28.0938 57.543 -10.6924 122.922 16.3867 177.502c58.2207 117.359 157.404 213.042 274.513 270.718c19.7715 9.73633 21.373 -14.5674 5.46582 -22.5371
c-67.0713 -33.5967 -126.647 -79.9248 -175.26 -137.126c-46.3174 -54.5 -102.724 -135.018 -88.6045 -210.384c6.41113 -34.2432 23.6689 -58.3809 57.7354 -67.8076c31.5898 -8.73828 58.7861 -3.27734 81.6533 20.6045c24.9443 26.0547 41.8975 61.7705 57.2549 93.9902
c16.3184 34.2324 30.5332 69.4785 42.7891 105.365c46.2793 135.477 65.501 279.296 61.9141 422.262c-3.49609 139.341 -27.6338 291.093 -99.6104 412.573c-10.7666 18.165 -32.6416 54.6338 -53.6094 26.8555c-9.69922 -12.8486 -17.9512 -27.0264 -25.0723 -41.4229
c-14.4072 -29.1396 -24.3467 -60.3506 -33.8643 -91.3477c-22.0986 -71.9814 -41.2676 -144.828 -60.1104 -217.718c-37.5312 -145.17 -72.9746 -291.771 -125.174 -432.548c-23.1348 -62.3896 -50.0811 -124.134 -88.1514 -179.029
c-35.0488 -50.5342 -82.375 -100.791 -146.761 -107.965c-140.729 -15.6826 -198.244 171.689 -215.267 277.973c-23.5879 147.235 -17.9346 304.858 2.60547 452.115c10.2812 73.7002 24.2617 147.551 43.9102 219.346c10.6279 38.8223 21.9551 77.9541 38.5029 114.743
c11.29 25.1045 26.9941 43.1572 53.5127 52.2959c10.2217 3.52344 21.6123 -1.16895 22.9199 -12.1543c1.35547 -11.3594 -8.92578 -21.752 -18.3096 -27.0361c-0.426758 -1.00391 -1.1416 -2.46094 -2.21484 -4.50488
c-1.52148 -5.25293 -2.70605 -10.5801 -3.5498 -15.9873c-1.87891 -9.42676 -3.04297 -18.9873 -4.91699 -28.4141c-4.50488 -22.7285 -9.92773 -45.2754 -14.3691 -68.0312c-8.33203 -42.7197 -16.3818 -85.4502 -22.4834 -128.564z" />
    <glyph glyph-name="Y" unicode="&#xdd;" horiz-adv-x="1051" 
d="M160.997 682.066c-12.2451 -86.5654 -19.4395 -174.18 -20.6836 -261.62c-1.25488 -87.6758 1.7666 -176.659 17.748 -263.069c13.4141 -72.5693 36.6123 -155.873 88.8701 -210.646c118.865 -124.593 217.606 163.612 246.021 240.708
c54.623 148.229 91.1348 301.827 132.813 453.963c20.1719 73.6367 38.7051 149.958 69.1104 220.173c16.2539 37.5312 54.249 122.18 108.781 97.8711c30.4531 -13.5742 46.4131 -52.3164 60.5957 -80.0518c15.2451 -29.8174 30.5811 -59.4424 43.5205 -90.3652
c27.2021 -64.9893 46.5791 -133.416 57.8203 -202.953c23.7646 -146.958 19.5371 -297.845 -13.9268 -442.913c-16.2324 -70.3643 -39.8311 -138.791 -71.1221 -203.914c-31.9424 -66.4678 -70.584 -134.185 -140.537 -166.458
c-32.4541 -14.9678 -71.2979 -20.9463 -105.418 -8.38574c-29.166 10.7402 -42.5059 37.4248 -55.4287 63.8955c-28.0938 57.543 -10.6924 122.922 16.3867 177.502c58.2207 117.359 157.404 213.042 274.513 270.718c19.7715 9.73633 21.373 -14.5674 5.46582 -22.5371
c-67.0713 -33.5967 -126.647 -79.9248 -175.26 -137.126c-46.3174 -54.5 -102.724 -135.018 -88.6045 -210.384c6.41113 -34.2432 23.6689 -58.3809 57.7354 -67.8076c31.5898 -8.73828 58.7861 -3.27734 81.6533 20.6045c24.9443 26.0547 41.8975 61.7705 57.2549 93.9902
c16.3184 34.2324 30.5332 69.4785 42.7891 105.365c46.2793 135.477 65.501 279.296 61.9141 422.262c-3.49609 139.341 -27.6338 291.093 -99.6104 412.573c-10.7666 18.165 -32.6416 54.6338 -53.6094 26.8555c-9.69922 -12.8486 -17.9512 -27.0264 -25.0723 -41.4229
c-14.4072 -29.1396 -24.3467 -60.3506 -33.8643 -91.3477c-22.0986 -71.9814 -41.2676 -144.828 -60.1104 -217.718c-37.5312 -145.17 -72.9746 -291.771 -125.174 -432.548c-23.1348 -62.3896 -50.0811 -124.134 -88.1514 -179.029
c-35.0488 -50.5342 -82.375 -100.791 -146.761 -107.965c-140.729 -15.6826 -198.244 171.689 -215.267 277.973c-23.5879 147.235 -17.9346 304.858 2.60547 452.115c10.2812 73.7002 24.2617 147.551 43.9102 219.346c10.6279 38.8223 21.9551 77.9541 38.5029 114.743
c11.29 25.1045 26.9941 43.1572 53.5127 52.2959c10.2217 3.52344 21.6123 -1.16895 22.9199 -12.1543c1.35547 -11.3594 -8.92578 -21.752 -18.3096 -27.0361c-0.426758 -1.00391 -1.1416 -2.46094 -2.21484 -4.50488
c-1.52148 -5.25293 -2.70605 -10.5801 -3.5498 -15.9873c-1.87891 -9.42676 -3.04297 -18.9873 -4.91699 -28.4141c-4.50488 -22.7285 -9.92773 -45.2754 -14.3691 -68.0312c-8.33203 -42.7197 -16.3818 -85.4502 -22.4834 -128.564z" />
    <glyph glyph-name="Z" unicode="Z" horiz-adv-x="1084" 
d="M359.821 -288.096c-78.1787 -6.78418 -185.247 3.44336 -220.104 86.7793c-35.7266 85.417 25.2861 194.001 68.7852 265.305c83.0264 136.085 189.277 259.022 300.898 373.91c-48.292 0.672852 -102.947 4.09473 -139.405 34.6113
c-14.0391 11.749 12.8535 35.9463 24.7891 26.0869c36.8906 -30.4746 93.1631 -32.2471 143.329 -31.4307c16.8896 17.0547 33.8594 33.9492 50.8604 50.6836c69.5215 68.4219 141.851 135.647 199.617 214.702c24.7627 33.8799 61.8877 82.6738 26.1289 121.79
c-30.6719 33.5439 -85.0869 45.207 -127.881 52.8613c-102.841 18.3945 -209.477 19.126 -313.017 6.35742c-95.9277 -11.8291 -205.958 -31.5479 -286.443 -88.3271c-30.085 -21.2236 -53.374 10.873 -23.5195 32.3691c89.7461 64.6104 205.739 89.3252 313.389 104.234
c113.965 15.7842 232.53 15.1221 345.833 -5.87695c76.0117 -14.0918 188.94 -52.7705 164.589 -150.902c-10.9316 -44.0703 -40.4717 -83.7842 -67.1875 -119.607c-29.1074 -39.0254 -61.2686 -75.6865 -94.4922 -111.227
c-33.4102 -35.7432 -67.2578 -71.0166 -101.015 -106.327c46.3975 -0.480469 92.5918 -3.22949 137.852 -15.1279c20.6631 -5.42871 -3.73145 -34.8887 -19.5908 -30.6182c-48.4521 13.041 -97.8008 14.9199 -147.379 15.2354
c-94.8545 -99.6748 -187.739 -200.765 -266.778 -314.505c-27.5547 -39.6504 -54.8525 -80.1973 -76.2842 -123.558c-19.0781 -38.5986 -40.9424 -87.0938 -35.8125 -131.308c11.1406 -95.9756 152.425 -85.7803 219.048 -73.583
c100.77 18.4482 197.273 56.3906 292.277 93.5957c95.0732 37.2324 190.131 73.0068 289.149 98.5273c12.7471 3.2832 26.4814 -1.75 26.001 -16.6426c-0.512695 -15.8428 -17.0977 -26.6523 -30.2822 -31.3174c-108.701 -38.4814 -213.058 -88.7539 -320.179 -131.361
c-106.55 -42.3779 -218.006 -85.332 -333.177 -95.3301z" />
    <glyph glyph-name="bracketleft" unicode="[" horiz-adv-x="293" 
d="M199.209 -243.831c29.7852 18.1914 58.9512 -0.283203 34.2314 -31.4512c-26.876 -33.8535 -77.127 -40.9473 -113.691 -18.7471c-42.1904 25.6162 -48.1631 76.0811 -52.7109 120.647c-20.4121 199.895 -15.752 403.322 -16.8672 604.033
c-0.56543 101.762 0.304688 203.652 2.97852 305.388c1.0459 39.9863 -11.3545 103.513 28.1514 128.559c28.6914 18.1914 74.9766 15.3252 102.402 -3.83789c13.3506 -9.33105 -8.78613 -30.1172 -20.3906 -25.8838c-13.708 5.00195 -26.9727 3.50781 -39.7734 -0.895508
c0.320312 -5.06543 0.634766 -10.1367 0.955078 -15.2021c0.768555 -12.2666 1.53711 -24.5381 2.31152 -36.8047c1.43066 -22.793 2.96777 -45.5801 4.16309 -68.3887c2.57324 -49.248 4.73535 -98.5225 7.10547 -147.781
c4.75098 -98.8584 7.22266 -197.92 9.20801 -296.869c1.95898 -97.6787 2.67383 -195.496 7.75 -293.073c2.47656 -47.5605 7.06738 -94.8115 12.5498 -142.105c2.0498 -17.6846 3.27734 -38.4277 10.9639 -54.6709c2.49316 -5.2793 6.06445 -10.6543 10.7031 -14.2363
c4.45703 -3.4375 17.4385 -4.11035 9.95996 -8.67969z" />
    <glyph glyph-name="backslash" unicode="\" horiz-adv-x="471" 
d="M420.271 -201.128c11.6211 -41.9238 -72.7021 -90.8613 -90.4824 -43.2207c-60.415 161.947 -108.686 329.317 -156.369 495.412c-23.9883 83.5703 -47.9932 167.151 -70.1348 251.234c-10.8682 41.2783 -22.1152 82.4873 -32.3857 123.915
c-9.93359 40.0713 -25.2158 86.1641 -19.75 127.763c1.70312 12.9443 21.2451 26.417 32.167 15.4902c28.4189 -28.4355 41.0752 -80.1758 54.3828 -117.146c14.2842 -39.6768 27.8848 -79.6045 41.9023 -119.372c28.0771 -79.668 54.708 -159.844 81.8242 -239.843
c55.4717 -163.634 112.688 -327.711 158.846 -494.232z" />
    <glyph glyph-name="bracketright" unicode="]" horiz-adv-x="294" 
d="M242.619 703.03c2.55176 -202.734 1.37598 -405.322 -2.45117 -608.035c-1.78809 -94.2627 0.646484 -194.872 -19.7021 -287.352c-9.49121 -43.1201 -33.5068 -83.6826 -74.6777 -103.369c-30.666 -14.6631 -70.9033 -18.6934 -92.0039 12.79
c-17.2842 25.793 29.0332 56.4805 51.3828 44.9502c3.81152 -1.96973 8.17773 -3.03711 12.4854 -2.8291c0.400391 0.93457 2.47168 3.41699 3.79004 8.18945c5.24707 18.9922 6.06934 39.6875 8.27344 59.1865c5.43945 48.0996 8.7168 96.418 10.8789 144.764
c4.38281 97.9131 5.20996 196.003 7.17383 293.985c2.00195 99.7012 5.08691 199.456 9.7998 299.062c2.45508 51.8369 4.42969 103.732 7.61133 155.531c1.54297 25.1094 3.08594 50.2246 4.62891 75.334c0.592773 9.67188 4.79883 23.7324 -1.02441 32.0859
c-6.4375 9.24023 -34.6484 12.7744 -43.2803 9.33105c-17.8877 -7.13672 -24.7949 11.541 -9.68848 21.1816c18.8857 12.0527 38.001 17.2461 60.4258 17.8496c17.8604 0.480469 46.0713 2.05469 57.6973 -14.2744c11.9307 -16.75 6.03809 -49.3965 6.56152 -68.9229
c0.800781 -29.8174 1.74512 -59.6299 2.11914 -89.458z" />
    <glyph glyph-name="asciicircum" unicode="^" horiz-adv-x="327" 
d="M276.792 499.517c8.32227 -44.8701 -81.6416 -99.2734 -97.1113 -46.3906c-10.4199 35.6143 -18.4375 72.0029 -28.0195 107.857c-4.39844 16.457 -9.08008 32.834 -13.9854 49.1465c-3.20801 -9.3623 -6.24512 -18.7783 -9.23438 -28.2158
c-10.7021 -33.7842 -15.6133 -71.0322 -30.2979 -103.278c-4.04102 -8.88184 -29.5293 -30.6074 -37.5098 -14.0176c-19.457 40.4453 -8.23145 96.7441 2.23047 138.46c11.9033 47.459 26.46 104.639 76.5938 124.49c19.5264 7.73438 43.5684 8.69531 59.1123 -7.41992
c15.6992 -16.2695 22.6016 -45.8311 30.624 -66.5742c19.3018 -49.915 37.8135 -101.303 47.5977 -154.058z" />
    <glyph glyph-name="underscore" unicode="_" horiz-adv-x="366" 
d="M289.455 -102.675c20.252 1.96973 30.3623 -16.084 24.4375 -33.624c-7.08887 -20.9883 -29.2949 -33.9697 -50.1924 -36.4678c-63.0303 -7.52637 -126.578 -12.1914 -190.02 -14.332c-18.0635 -0.608398 -27.7256 13.6328 -22.0674 30.3672
c6.40039 18.9443 26.4551 30.6826 45.3242 32.9297c64.082 7.63281 128.286 14.8867 192.518 21.127z" />
    <glyph glyph-name="grave" unicode="`" horiz-adv-x="160" 
d="M110.124 654.119c2.11914 -14.2305 -9.17188 -26.8486 -21.3213 -32.6084c-9.29883 -4.41406 -28.6377 -6.50684 -31.0771 7.58496c-4.33398 25.0664 -11.583 54.6865 -5.21973 79.6523c3.45898 13.5742 29.2949 28.5254 40.0029 14.9453
c7.52148 -9.53906 8.72266 -21.6992 11.1729 -33.2715c2.55664 -12.0742 4.62793 -24.0898 6.44238 -36.3027z" />
    <glyph glyph-name="a" unicode="a" horiz-adv-x="427" 
d="M433.455 191.271c4.5957 12.0742 31.624 19.8184 26.5479 1.00781c-14.46 -53.4268 -39.8154 -111.583 -74.6396 -155.119c-27.4424 -34.3066 -83.1914 -58.29 -123.589 -32.2676c-46.8779 30.1914 -56.1396 101.629 -59.8389 152.185
c-0.694336 9.48047 -1.15918 18.9551 -1.52246 28.4404c-8.90918 -35.3848 -19.4199 -70.2627 -32.5029 -103.987c-11.2256 -28.9473 -25.4404 -58.2578 -52.0176 -76.0967c-21.3887 -14.3594 -58.8877 -27.7256 -83.8047 -17.6641
c-31.5361 12.7305 -47.208 55.1562 -53.7256 85.748c-8.06543 37.8623 -6.5498 76.4658 1.34473 114.199c15.3896 73.5723 51.3457 134.537 118.528 171.411c28.6055 15.7041 63.1045 25.1045 95.3984 16.6758c6.3252 -1.64941 12.0479 -3.9502 17.2949 -6.7793
c23.9512 32.6738 86.7998 50.166 88.8975 1.09961c3.89648 -91.1982 -11.8291 -181.441 3.70996 -272.245c3.1543 -18.4268 7.1582 -35.7646 18.2236 -51.1855c20.748 -28.9209 39.5059 -1.23828 52.5732 19.4141c24.8584 39.2822 42.6279 81.8633 59.1221 125.164z
M201.407 326.603c0.015625 0.645508 0.0292969 1.29199 0.0449219 1.93262c-16.3125 15.1758 -37.2959 22.4355 -62.6084 10.3184c-26.6201 -12.7412 -40.5098 -43.21 -52.6748 -68.3887c-27.7305 -57.4043 -39.1963 -125.479 -26.7217 -188.242
c5.21484 -26.2363 22.707 -80.998 54.6221 -45.3516c22.2432 24.8428 32.166 64.6904 41.8486 95.8584c19.7236 63.4941 31.0879 129.06 45.4893 193.873z" />
    <glyph glyph-name="a" unicode="&#xe5;" horiz-adv-x="427" 
d="M433.455 191.271c4.5957 12.0742 31.624 19.8184 26.5479 1.00781c-14.46 -53.4268 -39.8154 -111.583 -74.6396 -155.119c-27.4424 -34.3066 -83.1914 -58.29 -123.589 -32.2676c-46.8779 30.1914 -56.1396 101.629 -59.8389 152.185
c-0.694336 9.48047 -1.15918 18.9551 -1.52246 28.4404c-8.90918 -35.3848 -19.4199 -70.2627 -32.5029 -103.987c-11.2256 -28.9473 -25.4404 -58.2578 -52.0176 -76.0967c-21.3887 -14.3594 -58.8877 -27.7256 -83.8047 -17.6641
c-31.5361 12.7305 -47.208 55.1562 -53.7256 85.748c-8.06543 37.8623 -6.5498 76.4658 1.34473 114.199c15.3896 73.5723 51.3457 134.537 118.528 171.411c28.6055 15.7041 63.1045 25.1045 95.3984 16.6758c6.3252 -1.64941 12.0479 -3.9502 17.2949 -6.7793
c23.9512 32.6738 86.7998 50.166 88.8975 1.09961c3.89648 -91.1982 -11.8291 -181.441 3.70996 -272.245c3.1543 -18.4268 7.1582 -35.7646 18.2236 -51.1855c20.748 -28.9209 39.5059 -1.23828 52.5732 19.4141c24.8584 39.2822 42.6279 81.8633 59.1221 125.164z
M201.407 326.603c0.015625 0.645508 0.0292969 1.29199 0.0449219 1.93262c-16.3125 15.1758 -37.2959 22.4355 -62.6084 10.3184c-26.6201 -12.7412 -40.5098 -43.21 -52.6748 -68.3887c-27.7305 -57.4043 -39.1963 -125.479 -26.7217 -188.242
c5.21484 -26.2363 22.707 -80.998 54.6221 -45.3516c22.2432 24.8428 32.166 64.6904 41.8486 95.8584c19.7236 63.4941 31.0879 129.06 45.4893 193.873z" />
    <glyph glyph-name="a" unicode="&#xe4;" horiz-adv-x="427" 
d="M433.455 191.271c4.5957 12.0742 31.624 19.8184 26.5479 1.00781c-14.46 -53.4268 -39.8154 -111.583 -74.6396 -155.119c-27.4424 -34.3066 -83.1914 -58.29 -123.589 -32.2676c-46.8779 30.1914 -56.1396 101.629 -59.8389 152.185
c-0.694336 9.48047 -1.15918 18.9551 -1.52246 28.4404c-8.90918 -35.3848 -19.4199 -70.2627 -32.5029 -103.987c-11.2256 -28.9473 -25.4404 -58.2578 -52.0176 -76.0967c-21.3887 -14.3594 -58.8877 -27.7256 -83.8047 -17.6641
c-31.5361 12.7305 -47.208 55.1562 -53.7256 85.748c-8.06543 37.8623 -6.5498 76.4658 1.34473 114.199c15.3896 73.5723 51.3457 134.537 118.528 171.411c28.6055 15.7041 63.1045 25.1045 95.3984 16.6758c6.3252 -1.64941 12.0479 -3.9502 17.2949 -6.7793
c23.9512 32.6738 86.7998 50.166 88.8975 1.09961c3.89648 -91.1982 -11.8291 -181.441 3.70996 -272.245c3.1543 -18.4268 7.1582 -35.7646 18.2236 -51.1855c20.748 -28.9209 39.5059 -1.23828 52.5732 19.4141c24.8584 39.2822 42.6279 81.8633 59.1221 125.164z
M201.407 326.603c0.015625 0.645508 0.0292969 1.29199 0.0449219 1.93262c-16.3125 15.1758 -37.2959 22.4355 -62.6084 10.3184c-26.6201 -12.7412 -40.5098 -43.21 -52.6748 -68.3887c-27.7305 -57.4043 -39.1963 -125.479 -26.7217 -188.242
c5.21484 -26.2363 22.707 -80.998 54.6221 -45.3516c22.2432 24.8428 32.166 64.6904 41.8486 95.8584c19.7236 63.4941 31.0879 129.06 45.4893 193.873z" />
    <glyph glyph-name="a" unicode="&#xe3;" horiz-adv-x="427" 
d="M433.455 191.271c4.5957 12.0742 31.624 19.8184 26.5479 1.00781c-14.46 -53.4268 -39.8154 -111.583 -74.6396 -155.119c-27.4424 -34.3066 -83.1914 -58.29 -123.589 -32.2676c-46.8779 30.1914 -56.1396 101.629 -59.8389 152.185
c-0.694336 9.48047 -1.15918 18.9551 -1.52246 28.4404c-8.90918 -35.3848 -19.4199 -70.2627 -32.5029 -103.987c-11.2256 -28.9473 -25.4404 -58.2578 -52.0176 -76.0967c-21.3887 -14.3594 -58.8877 -27.7256 -83.8047 -17.6641
c-31.5361 12.7305 -47.208 55.1562 -53.7256 85.748c-8.06543 37.8623 -6.5498 76.4658 1.34473 114.199c15.3896 73.5723 51.3457 134.537 118.528 171.411c28.6055 15.7041 63.1045 25.1045 95.3984 16.6758c6.3252 -1.64941 12.0479 -3.9502 17.2949 -6.7793
c23.9512 32.6738 86.7998 50.166 88.8975 1.09961c3.89648 -91.1982 -11.8291 -181.441 3.70996 -272.245c3.1543 -18.4268 7.1582 -35.7646 18.2236 -51.1855c20.748 -28.9209 39.5059 -1.23828 52.5732 19.4141c24.8584 39.2822 42.6279 81.8633 59.1221 125.164z
M201.407 326.603c0.015625 0.645508 0.0292969 1.29199 0.0449219 1.93262c-16.3125 15.1758 -37.2959 22.4355 -62.6084 10.3184c-26.6201 -12.7412 -40.5098 -43.21 -52.6748 -68.3887c-27.7305 -57.4043 -39.1963 -125.479 -26.7217 -188.242
c5.21484 -26.2363 22.707 -80.998 54.6221 -45.3516c22.2432 24.8428 32.166 64.6904 41.8486 95.8584c19.7236 63.4941 31.0879 129.06 45.4893 193.873z" />
    <glyph glyph-name="a" unicode="&#xe2;" horiz-adv-x="427" 
d="M433.455 191.271c4.5957 12.0742 31.624 19.8184 26.5479 1.00781c-14.46 -53.4268 -39.8154 -111.583 -74.6396 -155.119c-27.4424 -34.3066 -83.1914 -58.29 -123.589 -32.2676c-46.8779 30.1914 -56.1396 101.629 -59.8389 152.185
c-0.694336 9.48047 -1.15918 18.9551 -1.52246 28.4404c-8.90918 -35.3848 -19.4199 -70.2627 -32.5029 -103.987c-11.2256 -28.9473 -25.4404 -58.2578 -52.0176 -76.0967c-21.3887 -14.3594 -58.8877 -27.7256 -83.8047 -17.6641
c-31.5361 12.7305 -47.208 55.1562 -53.7256 85.748c-8.06543 37.8623 -6.5498 76.4658 1.34473 114.199c15.3896 73.5723 51.3457 134.537 118.528 171.411c28.6055 15.7041 63.1045 25.1045 95.3984 16.6758c6.3252 -1.64941 12.0479 -3.9502 17.2949 -6.7793
c23.9512 32.6738 86.7998 50.166 88.8975 1.09961c3.89648 -91.1982 -11.8291 -181.441 3.70996 -272.245c3.1543 -18.4268 7.1582 -35.7646 18.2236 -51.1855c20.748 -28.9209 39.5059 -1.23828 52.5732 19.4141c24.8584 39.2822 42.6279 81.8633 59.1221 125.164z
M201.407 326.603c0.015625 0.645508 0.0292969 1.29199 0.0449219 1.93262c-16.3125 15.1758 -37.2959 22.4355 -62.6084 10.3184c-26.6201 -12.7412 -40.5098 -43.21 -52.6748 -68.3887c-27.7305 -57.4043 -39.1963 -125.479 -26.7217 -188.242
c5.21484 -26.2363 22.707 -80.998 54.6221 -45.3516c22.2432 24.8428 32.166 64.6904 41.8486 95.8584c19.7236 63.4941 31.0879 129.06 45.4893 193.873z" />
    <glyph glyph-name="a" unicode="&#xe1;" horiz-adv-x="427" 
d="M433.455 191.271c4.5957 12.0742 31.624 19.8184 26.5479 1.00781c-14.46 -53.4268 -39.8154 -111.583 -74.6396 -155.119c-27.4424 -34.3066 -83.1914 -58.29 -123.589 -32.2676c-46.8779 30.1914 -56.1396 101.629 -59.8389 152.185
c-0.694336 9.48047 -1.15918 18.9551 -1.52246 28.4404c-8.90918 -35.3848 -19.4199 -70.2627 -32.5029 -103.987c-11.2256 -28.9473 -25.4404 -58.2578 -52.0176 -76.0967c-21.3887 -14.3594 -58.8877 -27.7256 -83.8047 -17.6641
c-31.5361 12.7305 -47.208 55.1562 -53.7256 85.748c-8.06543 37.8623 -6.5498 76.4658 1.34473 114.199c15.3896 73.5723 51.3457 134.537 118.528 171.411c28.6055 15.7041 63.1045 25.1045 95.3984 16.6758c6.3252 -1.64941 12.0479 -3.9502 17.2949 -6.7793
c23.9512 32.6738 86.7998 50.166 88.8975 1.09961c3.89648 -91.1982 -11.8291 -181.441 3.70996 -272.245c3.1543 -18.4268 7.1582 -35.7646 18.2236 -51.1855c20.748 -28.9209 39.5059 -1.23828 52.5732 19.4141c24.8584 39.2822 42.6279 81.8633 59.1221 125.164z
M201.407 326.603c0.015625 0.645508 0.0292969 1.29199 0.0449219 1.93262c-16.3125 15.1758 -37.2959 22.4355 -62.6084 10.3184c-26.6201 -12.7412 -40.5098 -43.21 -52.6748 -68.3887c-27.7305 -57.4043 -39.1963 -125.479 -26.7217 -188.242
c5.21484 -26.2363 22.707 -80.998 54.6221 -45.3516c22.2432 24.8428 32.166 64.6904 41.8486 95.8584c19.7236 63.4941 31.0879 129.06 45.4893 193.873z" />
    <glyph glyph-name="b" unicode="b" horiz-adv-x="470" 
d="M482.084 198.062c11.5088 13.2646 33.0127 4.2207 19.1553 -11.7822c-34.4131 -39.7568 -86.5967 -67.4551 -136.917 -89.4688c-16.8789 -75.7295 -59.3262 -145.565 -134.847 -170.302c-38.0645 -12.4697 -110.996 -7.35645 -112.581 46.9727
c-1.50488 51.7188 57.2227 76.4121 97.1338 91.0645c20.9248 7.68164 41.9297 14.9463 62.833 22.4512c0.170898 0.742188 0.357422 1.48926 0.52832 2.22559c9.46387 41.1445 15.709 83.9756 16.6914 126.215c0.779297 33.6289 5.83398 114.45 -34.8574 127.512
c-46.8828 15.0479 -77.9922 -53.4326 -94.2783 -85.7168c-20.3057 -40.2529 -35.4551 -82.9834 -47.8711 -126.264c-9.12207 -31.7871 -18.9648 -64.9893 -24.2383 -98.2764c1.08887 -15.6826 1.2168 -31.3066 -2.17773 -46.8828
c-4.0459 -18.5488 -36.0791 -47.2881 -53.5127 -25.7705c-23.3164 28.7822 -29.2627 75.4141 -35.2949 111.205c-6.27734 37.248 -11.2471 74.9443 -14.5303 112.571c-6.89648 79.0439 -8.81836 158.675 -6.18652 237.964c4.22754 127.31 20.7109 256.29 93.8516 364.148
c30.335 44.7266 72.6436 89.5762 128.345 99.1416c45.7832 7.8623 94.7002 -3.58789 127.561 -37.8311c75.0244 -78.1895 41.1611 -221.24 -10.1465 -302.302c-50.1768 -79.2686 -149.057 -156.407 -247.861 -163.592
c-0.133789 -14.8604 -0.128906 -29.71 0.015625 -44.5439c0.56543 -57.708 3.74121 -115.438 8.46484 -172.948c1.03516 -12.6348 2.21973 -25.2539 3.4043 -37.8672c6.66211 21.5117 13.959 42.5215 21.1865 62.501c19.2695 53.251 44.374 115.608 86.2344 155.43
c30.1162 28.6543 77.752 42.5381 111.269 11.6738c40.5469 -37.3389 61.2148 -85.6152 67.332 -139.929c3.24023 -28.793 2.8877 -60.0039 -1.47363 -91.0381c39.5322 18.9121 83.7139 39.9648 112.769 73.4385zM99.1602 657.948
c-15.7197 -76.4395 -22.9854 -154.41 -25.4033 -232.472c46.9521 7.44141 92.335 16.0303 134.713 40.5312c50.9717 29.4707 89.5596 80.5439 111.53 134.451c31.7129 77.8057 43.707 226.467 -64.3965 251.443c-104.276 24.0898 -140.793 -117.846 -156.443 -193.954z
M226.922 0.935547c21.4268 12.624 33.8828 34.8389 42.0234 58.2461c-22.3662 -8.18262 -44.6836 -16.4941 -66.3711 -26.4443c-12.7578 -5.85059 -30.832 -11.5244 -32.8867 -26.6357c-1.60645 -11.8018 5.33301 -15.2393 16.8525 -16.1143
c12.8008 -0.976562 29.2305 4.38281 40.3818 10.9482z" />
    <glyph glyph-name="c" unicode="c" horiz-adv-x="277" 
d="M280.676 197.837c6.2832 12.8213 38.3955 20.1074 29.5078 1.11523c-34.915 -74.5811 -75.8887 -161.173 -153.277 -200.268c-35.9727 -18.1699 -84.0088 -27.0039 -118.502 -1.44043c-38.1768 28.291 -54.5586 75.4941 -59.6719 120.994
c-10.2754 91.4863 6.02148 213.66 90.6865 268.171c26.2041 16.873 76.0713 35.3799 99.3447 4.12109c27.0527 -36.335 13.9746 -93.4932 6.05859 -133.629c-2.78613 -14.1133 -35.2197 -27.3408 -32.0332 -8.34863c5.00684 29.8545 18.9766 85.7637 -3.09082 111.979
c-21.5332 25.5742 -40.9102 -31.2959 -46.3018 -46.8242c-20.3164 -58.5088 -28.8574 -118.496 -23.0762 -180.453c2.80762 -30.0947 8.38574 -65.7578 25.0508 -91.5137c22.585 -34.9043 50.9502 -24.2334 79.46 -1.09375c49.5195 40.1943 78.376 101.132 105.845 157.19z
" />
    <glyph glyph-name="d" unicode="d" horiz-adv-x="558" 
d="M561.268 201.91c5.02832 13.9961 36.584 20.9756 29.5215 1.13477c-26.9561 -75.6328 -55.7432 -167.872 -115.501 -224.881c-53.3262 -50.876 -136.523 -48.2021 -188.969 2.94043c-54.9004 53.5342 -68.9922 143.419 -77.0361 216.25
c-0.662109 6.01074 -1.16406 12.0371 -1.72461 18.0586c-10.334 -45.6289 -22.8994 -90.6914 -39.6494 -133.875c-11.2256 -28.9473 -25.4404 -58.2578 -52.0176 -76.0967c-21.3887 -14.3594 -58.8877 -27.7256 -83.8047 -17.6641
c-31.5361 12.7305 -47.208 55.1562 -53.7256 85.748c-8.06543 37.8623 -6.5498 76.4658 1.34473 114.199c15.3896 73.5723 51.3457 134.537 118.528 171.411c28.6055 15.7041 63.1045 25.1045 95.3984 16.6758c3.55469 -0.928711 6.89062 -2.09277 10.0938 -3.40625
c1.09473 26.5615 2.92578 53.0967 5.62109 79.5137c8.0332 78.7188 19.7129 158.596 49.4561 232.425c27.752 68.8857 74.9121 140.189 146.28 169.238c63.8838 26.001 130.207 0.277344 163.574 -59.3633c29.7539 -53.1924 29.5088 -120.61 6.68945 -176.274
c-25.1572 -61.3701 -74.0684 -112.95 -126.817 -151.832c-32.374 -23.8662 -67.9512 -42.8535 -103.892 -60.7197c-15.0049 -7.45703 -30.0684 -14.957 -45.3613 -21.9014c-2.29492 -54.2598 -1.28613 -108.413 3.96094 -162.609
c6.01074 -62.1387 14.0283 -128.398 38.417 -186.433c10.3984 -24.7412 30.0684 -65.0957 60.9746 -65.5332c32.9727 -0.464844 58.3438 25.7979 75.5635 50.9072c37.6592 54.9219 60.7188 119.847 83.0742 182.087zM382.67 765.806
c-61.1035 -94.7852 -72.9209 -220.547 -80.4844 -331.848c39.0625 18.7734 79.7959 34.9736 116.979 56.71c55.8613 32.6572 105.899 77.373 126.493 140.499c16.6328 50.9824 11.2627 110.623 -22.6914 153.428c-22.0459 27.7891 -56.4971 44.2031 -90.9961 29.5557
c-22.5371 -9.56543 -36.458 -28.4238 -49.3008 -48.3447zM155.905 132.733c19.8945 64.0283 31.2803 130.16 45.8584 195.496c-16.3604 15.3838 -37.4561 22.8252 -62.9336 10.6279c-26.6201 -12.7412 -40.5098 -43.21 -52.6748 -68.3887
c-27.7305 -57.4043 -39.1963 -125.479 -26.7217 -188.242c5.21484 -26.2363 22.7021 -80.998 54.623 -45.3516c22.2432 24.8428 32.166 64.6904 41.8486 95.8584z" />
    <glyph glyph-name="e" unicode="e" horiz-adv-x="303" 
d="M306.858 191.603c5.40723 13.75 37.124 20.7119 29.502 1.12695c-28.1895 -72.5205 -73.4873 -146.27 -135.044 -194.946c-56.9346 -45.0254 -163.618 -66.5801 -203.183 11.7109c-22.3447 44.2139 -25.2383 98.6709 -22.0518 147.369
c3.21875 49.1357 14.4814 99.3975 36.1533 143.739c21.3252 43.6318 62.6992 90.5098 110.917 104.26c45.8203 13.0674 81.873 -9.12207 85.8447 -57.1309c6.40039 -77.3574 -69.2754 -148.176 -144.086 -166.309c-2.89355 -30.2871 -2.73828 -60.5479 -0.554688 -88.5186
c2.60449 -33.3516 11.5293 -79.0439 42.623 -98.2764c32.7109 -20.2363 77.4854 17.8711 99.6699 39.8955c43.7705 43.4502 77.7041 99.8242 100.209 157.079zM118.738 333.816c-23.8018 -30.1484 -38.4854 -67.4189 -46.8447 -106.6
c29.6523 10.0195 57.6816 22.0088 75.2324 51.7627c9.54395 16.1797 18.1484 43.1416 8.41699 61.2314c-11.5137 21.4053 -26.3848 6.80566 -36.8047 -6.39453z" />
    <glyph glyph-name="e" unicode="&#xeb;" horiz-adv-x="303" 
d="M306.858 191.603c5.40723 13.75 37.124 20.7119 29.502 1.12695c-28.1895 -72.5205 -73.4873 -146.27 -135.044 -194.946c-56.9346 -45.0254 -163.618 -66.5801 -203.183 11.7109c-22.3447 44.2139 -25.2383 98.6709 -22.0518 147.369
c3.21875 49.1357 14.4814 99.3975 36.1533 143.739c21.3252 43.6318 62.6992 90.5098 110.917 104.26c45.8203 13.0674 81.873 -9.12207 85.8447 -57.1309c6.40039 -77.3574 -69.2754 -148.176 -144.086 -166.309c-2.89355 -30.2871 -2.73828 -60.5479 -0.554688 -88.5186
c2.60449 -33.3516 11.5293 -79.0439 42.623 -98.2764c32.7109 -20.2363 77.4854 17.8711 99.6699 39.8955c43.7705 43.4502 77.7041 99.8242 100.209 157.079zM118.738 333.816c-23.8018 -30.1484 -38.4854 -67.4189 -46.8447 -106.6
c29.6523 10.0195 57.6816 22.0088 75.2324 51.7627c9.54395 16.1797 18.1484 43.1416 8.41699 61.2314c-11.5137 21.4053 -26.3848 6.80566 -36.8047 -6.39453z" />
    <glyph glyph-name="e" unicode="&#xea;" horiz-adv-x="303" 
d="M306.858 191.603c5.40723 13.75 37.124 20.7119 29.502 1.12695c-28.1895 -72.5205 -73.4873 -146.27 -135.044 -194.946c-56.9346 -45.0254 -163.618 -66.5801 -203.183 11.7109c-22.3447 44.2139 -25.2383 98.6709 -22.0518 147.369
c3.21875 49.1357 14.4814 99.3975 36.1533 143.739c21.3252 43.6318 62.6992 90.5098 110.917 104.26c45.8203 13.0674 81.873 -9.12207 85.8447 -57.1309c6.40039 -77.3574 -69.2754 -148.176 -144.086 -166.309c-2.89355 -30.2871 -2.73828 -60.5479 -0.554688 -88.5186
c2.60449 -33.3516 11.5293 -79.0439 42.623 -98.2764c32.7109 -20.2363 77.4854 17.8711 99.6699 39.8955c43.7705 43.4502 77.7041 99.8242 100.209 157.079zM118.738 333.816c-23.8018 -30.1484 -38.4854 -67.4189 -46.8447 -106.6
c29.6523 10.0195 57.6816 22.0088 75.2324 51.7627c9.54395 16.1797 18.1484 43.1416 8.41699 61.2314c-11.5137 21.4053 -26.3848 6.80566 -36.8047 -6.39453z" />
    <glyph glyph-name="e" unicode="&#xe9;" horiz-adv-x="303" 
d="M306.858 191.603c5.40723 13.75 37.124 20.7119 29.502 1.12695c-28.1895 -72.5205 -73.4873 -146.27 -135.044 -194.946c-56.9346 -45.0254 -163.618 -66.5801 -203.183 11.7109c-22.3447 44.2139 -25.2383 98.6709 -22.0518 147.369
c3.21875 49.1357 14.4814 99.3975 36.1533 143.739c21.3252 43.6318 62.6992 90.5098 110.917 104.26c45.8203 13.0674 81.873 -9.12207 85.8447 -57.1309c6.40039 -77.3574 -69.2754 -148.176 -144.086 -166.309c-2.89355 -30.2871 -2.73828 -60.5479 -0.554688 -88.5186
c2.60449 -33.3516 11.5293 -79.0439 42.623 -98.2764c32.7109 -20.2363 77.4854 17.8711 99.6699 39.8955c43.7705 43.4502 77.7041 99.8242 100.209 157.079zM118.738 333.816c-23.8018 -30.1484 -38.4854 -67.4189 -46.8447 -106.6
c29.6523 10.0195 57.6816 22.0088 75.2324 51.7627c9.54395 16.1797 18.1484 43.1416 8.41699 61.2314c-11.5137 21.4053 -26.3848 6.80566 -36.8047 -6.39453z" />
    <glyph glyph-name="f" unicode="f" horiz-adv-x="403" 
d="M429.142 205.822c18.8057 2.62109 6.75195 -24.7363 -6.19238 -26.7432c-93.4141 -14.418 -187.351 -38.5879 -277.343 -70.0391c25.4619 -1.63379 50.5879 -4.83691 75.5049 -14.4502c38.0273 -14.6738 72.0244 -40.1299 93.8779 -74.8633
c42.7246 -67.8984 30.5166 -148.138 -24.7148 -204.196c-47.3418 -48.0469 -133.522 -71.251 -191.519 -26.626c-32.2305 24.8057 -48.8477 60.4844 -63.3184 97.4385c-16.2432 41.4814 -28.3545 84.0889 -36.041 127.961
c-29.9453 170.974 -29.0059 369.331 45.8848 529.292c32.4971 69.4141 84.0078 140.029 158.723 166.927c32.9082 11.8506 67.8184 19.959 100.893 3.87598c31.376 -15.2559 50.5654 -47.5664 56.25 -81.2432c12.373 -73.2842 -30.416 -147.38 -80.4854 -197.338
c-55.1143 -54.9912 -125.275 -89.7949 -195.549 -121.315c-0.426758 -20.1348 -0.533203 -40.2695 -0.479492 -60.3398c0.123047 -46.3223 1.3291 -92.415 5.57812 -138.343c108.798 41.999 223.515 73.9307 338.931 90.0029zM96.1826 448.083
c-5.81836 -34.7656 -8.72168 -69.958 -10.1787 -105.226c63.1475 28.2158 127.176 59.2607 175.719 109.469c46.1406 47.7207 94.8916 135.85 51.9531 200.033c-22.1094 33.0469 -62.6299 41.6572 -96.6328 20.8926c-21.709 -13.2598 -41.582 -35.3906 -56.3467 -55.8506
c-35.3369 -48.9697 -54.6387 -110.34 -64.5137 -169.318zM170.018 75.8975c-25.0244 5.49805 -50.6104 5.13477 -76.0879 6.04199c1.3291 -10.3076 2.78125 -20.6152 4.50586 -30.9121c6.02637 -36.0205 13.1523 -72.0674 22.9365 -107.266
c7.5957 -27.3359 15.4482 -57.2334 31.5312 -80.9766c31.6807 -46.7656 102.952 -60.0566 136.698 -8.37988c36.2393 55.4932 16.7988 129.69 -28.3115 173.803c-24.875 24.3252 -57.4893 40.2695 -91.2725 47.6895z" />
    <glyph glyph-name="g" unicode="g" horiz-adv-x="422" 
d="M426.285 195.179c9.64551 13.0674 39.9629 12.4746 26.335 -6.03223c-40.584 -55.1191 -92.1318 -99.1357 -146.952 -139.154c-1.87891 -77.0049 -7.09961 -153.748 -18.2773 -229.333c-17.6523 -119.34 -59.6455 -286.63 -200.443 -309.161
c-54.0039 -8.6416 -114.21 7.77246 -151.447 49.1357c-42.2705 46.958 -32.833 114.856 -10.6543 168.908c54.8525 133.693 172.548 207.133 287.927 283.492c-1.09473 66.6064 -3.63574 133.202 -4.64453 199.793c-10.2168 -44.748 -22.6377 -88.9297 -39.0732 -131.302
c-11.2256 -28.9473 -25.4404 -58.2578 -52.0176 -76.0967c-21.3887 -14.3594 -58.8877 -27.7256 -83.8047 -17.6641c-31.5361 12.7305 -47.208 55.1562 -53.7256 85.748c-8.06543 37.8623 -6.5498 76.4658 1.34473 114.199c15.3896 73.5723 51.3457 134.537 118.528 171.411
c28.6055 15.7041 63.1045 25.1045 95.3984 16.6758c10.8682 -2.83398 19.9805 -7.58496 27.8535 -13.6865c25.5264 26.8125 77.2295 38.4385 78.6816 -4.89453c3.09082 -92.2021 6.20801 -185.76 4.88379 -279.083c44.9775 34.1035 86.5439 71.624 120.088 117.044z
M157.055 132.73c19.8945 64.0283 31.2803 130.16 45.8584 195.496c-16.3604 15.3838 -37.4561 22.8252 -62.9336 10.6279c-26.6201 -12.7412 -40.5098 -43.21 -52.6748 -68.3887c-27.7305 -57.4043 -39.1963 -125.479 -26.7217 -188.242
c5.21484 -26.2363 22.7021 -80.998 54.623 -45.3516c22.2432 24.8428 32.166 64.6904 41.8486 95.8584zM212.905 -88.6328c0.448242 24.9277 0.458984 49.8496 0.213867 74.7725c-4.53711 -3.05371 -9.07422 -6.10156 -13.5957 -9.15527
c-85.3428 -57.6279 -172.858 -118.362 -225.362 -209.459c-30.6553 -53.1924 -56.1221 -129.76 -11.2725 -182.392c35.8389 -42.0518 114.37 -63.6807 163.911 -33.7461c48.6387 29.3906 61.9355 110.415 70.5186 161.003c11.1084 65.4482 14.4023 132.695 15.5869 198.977z
" />
    <glyph glyph-name="h" unicode="h" horiz-adv-x="489" 
d="M493.016 157.045c6.13281 12.5713 37.3701 19.3379 28.6426 1.08789c-20.6631 -43.291 -41.3262 -87.0303 -68.7734 -126.542c-23.2412 -33.4531 -50.3203 -66.2764 -91.9238 -75.5859c-39.0254 -8.73242 -78.0566 4.80469 -99.5361 38.3799
c-25.4775 39.8213 -19.6377 92.3682 -15.5859 137.383c4.58496 50.9561 14.5566 101.346 17.9941 152.414c0.891602 13.2432 1.16406 26.4814 1.48438 39.7354c0.203125 8.2627 3.83789 29.5771 -1.80469 36.041c-22.3496 25.6221 -54.9268 -38.1719 -62.5068 -51.7725
c-50.9873 -91.4756 -79.4326 -193.691 -107.516 -293.985c-0.0537109 -9.48535 -0.768555 -18.9492 -2.8291 -28.3916c-4.0459 -18.5488 -36.0791 -47.2881 -53.5127 -25.7705c-23.3164 28.7822 -29.2627 75.4141 -35.2949 111.205
c-6.27734 37.248 -11.2412 74.9443 -14.5293 112.571c-6.89648 79.0439 -8.81836 158.675 -6.18652 237.964c4.22754 127.31 20.7109 256.29 93.8516 364.148c30.335 44.7266 72.6436 89.5762 128.345 99.1416c45.7832 7.8623 94.7002 -3.58789 127.561 -37.8311
c75.0303 -78.1895 41.167 -221.24 -10.1406 -302.302c-50.1768 -79.2686 -149.057 -156.407 -247.861 -163.592c-0.133789 -14.8604 -0.128906 -29.71 0.015625 -44.5439c0.56543 -57.708 3.74121 -115.438 8.46484 -172.948
c1.84668 -22.5312 4.13672 -45.0039 6.12793 -67.5137c20.7217 68.8164 44.4648 136.65 77.6455 200.657c18.0635 34.835 41.2832 79.5186 79.6738 95.7188c30.2178 12.752 69.2002 -4.6709 83.1592 -33.4688c20.0176 -41.2998 17.9893 -95.5547 16.5957 -140.158
c-1.6123 -51.6816 -4.19629 -102.435 -3.1875 -154.175c0.389648 -20.1777 -2.6748 -39.9062 5.69531 -59.0586c14.8555 -33.9707 49.1943 -6.03711 65.7471 13.665c34.0342 40.5146 57.1582 90.3496 80.1855 137.526zM99.1787 657.942
c-15.7197 -76.4395 -22.9854 -154.41 -25.4033 -232.472c46.9521 7.44141 92.335 16.0303 134.713 40.5312c50.9717 29.4707 89.5596 80.5439 111.53 134.451c31.7129 77.8057 43.707 226.467 -64.3965 251.443c-104.276 24.0898 -140.793 -117.846 -156.443 -193.954z" />
    <glyph glyph-name="i" unicode="i" horiz-adv-x="249" 
d="M249.409 191.282c5.85547 13.9102 38.6201 21.084 30.3574 1.15234c-36.0684 -87.0508 -90.9951 -241.018 -212.742 -220.002c-63.2334 10.9111 -75.7988 86.7305 -81.8252 139.405c-7.74023 67.6953 -6.13379 139.352 0.661133 207.063
c2.33301 23.2256 23.2148 41.6465 43.8408 49.3438c13.9102 5.19336 46.2949 6.95508 48.1689 -15.4424c8.36426 -99.9951 -21.7305 -206.887 4.47852 -305.265c6.45898 -24.2393 20.7969 -52.8135 51.2178 -39.6934c21.3301 9.19727 36.2812 30.1006 48.7617 48.6924
c28.0879 41.8438 47.6084 88.4863 67.0811 134.745zM17.5361 427.875c-27.7627 9.61328 -44.6357 28.8789 -57.7773 54.6934c-9.80078 19.2432 -20.5352 40.7119 -4.69238 59.7793c31.3018 37.6748 59 -3.34668 76.4072 -40.9844
c7.05664 13.8789 15.7949 26.9297 26.4707 38.9131c15.6084 17.5244 48.4795 50.2988 75.0566 39.2979c57.6016 -23.8447 -75.0137 -134.318 -94.6309 -149.398c-7.51562 -5.77539 -14.3271 -5.7002 -18.5498 -2.69531
c-0.800781 0.0322266 -1.56934 0.149414 -2.28418 0.394531z" />
    <glyph glyph-name="i" unicode="&#xef;" horiz-adv-x="249" 
d="M249.409 191.282c5.85547 13.9102 38.6201 21.084 30.3574 1.15234c-36.0684 -87.0508 -90.9951 -241.018 -212.742 -220.002c-63.2334 10.9111 -75.7988 86.7305 -81.8252 139.405c-7.74023 67.6953 -6.13379 139.352 0.661133 207.063
c2.33301 23.2256 23.2148 41.6465 43.8408 49.3438c13.9102 5.19336 46.2949 6.95508 48.1689 -15.4424c8.36426 -99.9951 -21.7305 -206.887 4.47852 -305.265c6.45898 -24.2393 20.7969 -52.8135 51.2178 -39.6934c21.3301 9.19727 36.2812 30.1006 48.7617 48.6924
c28.0879 41.8438 47.6084 88.4863 67.0811 134.745zM17.5361 427.875c-27.7627 9.61328 -44.6357 28.8789 -57.7773 54.6934c-9.80078 19.2432 -20.5352 40.7119 -4.69238 59.7793c31.3018 37.6748 59 -3.34668 76.4072 -40.9844
c7.05664 13.8789 15.7949 26.9297 26.4707 38.9131c15.6084 17.5244 48.4795 50.2988 75.0566 39.2979c57.6016 -23.8447 -75.0137 -134.318 -94.6309 -149.398c-7.51562 -5.77539 -14.3271 -5.7002 -18.5498 -2.69531
c-0.800781 0.0322266 -1.56934 0.149414 -2.28418 0.394531z" />
    <glyph glyph-name="i" unicode="&#xee;" horiz-adv-x="249" 
d="M249.409 191.282c5.85547 13.9102 38.6201 21.084 30.3574 1.15234c-36.0684 -87.0508 -90.9951 -241.018 -212.742 -220.002c-63.2334 10.9111 -75.7988 86.7305 -81.8252 139.405c-7.74023 67.6953 -6.13379 139.352 0.661133 207.063
c2.33301 23.2256 23.2148 41.6465 43.8408 49.3438c13.9102 5.19336 46.2949 6.95508 48.1689 -15.4424c8.36426 -99.9951 -21.7305 -206.887 4.47852 -305.265c6.45898 -24.2393 20.7969 -52.8135 51.2178 -39.6934c21.3301 9.19727 36.2812 30.1006 48.7617 48.6924
c28.0879 41.8438 47.6084 88.4863 67.0811 134.745zM17.5361 427.875c-27.7627 9.61328 -44.6357 28.8789 -57.7773 54.6934c-9.80078 19.2432 -20.5352 40.7119 -4.69238 59.7793c31.3018 37.6748 59 -3.34668 76.4072 -40.9844
c7.05664 13.8789 15.7949 26.9297 26.4707 38.9131c15.6084 17.5244 48.4795 50.2988 75.0566 39.2979c57.6016 -23.8447 -75.0137 -134.318 -94.6309 -149.398c-7.51562 -5.77539 -14.3271 -5.7002 -18.5498 -2.69531
c-0.800781 0.0322266 -1.56934 0.149414 -2.28418 0.394531z" />
    <glyph glyph-name="i" unicode="&#xed;" horiz-adv-x="249" 
d="M249.409 191.282c5.85547 13.9102 38.6201 21.084 30.3574 1.15234c-36.0684 -87.0508 -90.9951 -241.018 -212.742 -220.002c-63.2334 10.9111 -75.7988 86.7305 -81.8252 139.405c-7.74023 67.6953 -6.13379 139.352 0.661133 207.063
c2.33301 23.2256 23.2148 41.6465 43.8408 49.3438c13.9102 5.19336 46.2949 6.95508 48.1689 -15.4424c8.36426 -99.9951 -21.7305 -206.887 4.47852 -305.265c6.45898 -24.2393 20.7969 -52.8135 51.2178 -39.6934c21.3301 9.19727 36.2812 30.1006 48.7617 48.6924
c28.0879 41.8438 47.6084 88.4863 67.0811 134.745zM17.5361 427.875c-27.7627 9.61328 -44.6357 28.8789 -57.7773 54.6934c-9.80078 19.2432 -20.5352 40.7119 -4.69238 59.7793c31.3018 37.6748 59 -3.34668 76.4072 -40.9844
c7.05664 13.8789 15.7949 26.9297 26.4707 38.9131c15.6084 17.5244 48.4795 50.2988 75.0566 39.2979c57.6016 -23.8447 -75.0137 -134.318 -94.6309 -149.398c-7.51562 -5.77539 -14.3271 -5.7002 -18.5498 -2.69531
c-0.800781 0.0322266 -1.56934 0.149414 -2.28418 0.394531z" />
    <glyph glyph-name="j" unicode="j" horiz-adv-x="203" 
d="M208.278 195.179c9.64551 13.0674 39.9629 12.4756 26.3408 -6.03613c-40.584 -55.1191 -92.1318 -99.1357 -146.952 -139.154c-1.87891 -77.0049 -7.09961 -153.748 -18.2773 -229.333c-17.6523 -119.34 -59.6455 -286.63 -200.443 -309.161
c-54.0039 -8.64258 -114.21 7.77148 -151.447 49.1348c-42.2705 46.958 -32.833 114.856 -10.6543 168.908c54.8525 133.693 172.548 207.133 287.927 283.492c-1.75586 106.705 -7.29102 213.373 -4.12012 320.03c1.27539 42.8418 90.7393 81.3438 92.6553 24.1582
c3.09082 -92.2021 6.20801 -185.76 4.88379 -279.083c44.9775 34.1035 86.5439 71.624 120.088 117.044zM-5.10156 -88.6318c0.448242 24.9277 0.458984 49.8496 0.213867 74.7725c-4.53711 -3.05371 -9.07422 -6.10156 -13.5957 -9.15527
c-85.3428 -57.6279 -172.858 -118.362 -225.362 -209.459c-30.6553 -53.1924 -56.1221 -129.76 -11.2725 -182.392c35.8389 -42.0518 114.37 -63.6807 163.911 -33.7461c48.6387 29.3906 61.9355 110.415 70.5186 161.003c11.1084 65.4482 14.4023 132.695 15.5869 198.977z
M25.9492 427.875c-27.7676 9.61328 -44.6357 28.8789 -57.7773 54.6934c-9.80078 19.2432 -20.5352 40.7119 -4.69238 59.7793c31.3018 37.6748 59 -3.34668 76.4072 -40.9844c7.05664 13.8789 15.7949 26.9297 26.4707 38.9131
c15.6084 17.5244 48.4795 50.2988 75.0566 39.2979c57.6016 -23.8447 -75.0137 -134.318 -94.6309 -149.398c-7.51562 -5.77539 -14.3271 -5.7002 -18.5498 -2.69531c-0.800781 0.0322266 -1.56934 0.149414 -2.28418 0.394531z" />
    <glyph glyph-name="k" unicode="k" horiz-adv-x="416" 
d="M422.465 190.855c8.09766 14.3379 36.9404 13.9619 25.9766 -5.94824c-40.627 -73.7383 -99.2695 -186.79 -194.866 -193.602c-55.6797 -3.97168 -88.748 26.8496 -112.203 74.3301c-11.001 22.2646 -22.5576 44.1719 -34.5625 65.9082
c-8.90332 16.1201 -15.0576 30.6875 -26.1875 42.2871c0.261719 -3.3252 0.475586 -6.65625 0.748047 -9.97656c2.59375 -31.5898 6.06348 -63.0566 8.34766 -94.6729c2.01758 -27.9707 6.9707 -55.749 0.944336 -83.373
c-4.0459 -18.5488 -36.0791 -47.2881 -53.5127 -25.7705c-23.3164 28.7822 -29.2627 75.4141 -35.2949 111.205c-6.2832 37.248 -11.2529 74.9443 -14.5361 112.571c-6.89648 79.0439 -8.81836 158.675 -6.18652 237.964c4.22754 127.31 20.7109 256.29 93.8516 364.148
c30.335 44.7266 72.6436 89.5762 128.345 99.1416c45.7783 7.8623 94.6953 -3.58789 127.556 -37.8311c75.0244 -78.1895 41.166 -221.24 -10.1475 -302.302c-50.1709 -79.2686 -149.051 -156.407 -247.855 -163.592c-0.133789 -14.8604 -0.128906 -29.71 0.015625 -44.5439
c0.272461 -27.752 1.17969 -55.5088 2.54102 -83.2441c14.3857 25.542 31.376 49.627 50.9238 71.8164c31.3652 35.6094 78.7607 81.04 131.206 69.1631c20.3643 -4.6123 33.9863 -19.8203 29.3154 -41.3477c-5.2627 -24.2666 -29.6299 -42.8213 -47.3838 -58.125
c-41.4219 -35.7002 -89.4209 -62.3418 -138.647 -85.7588c15.9443 -0.790039 31.3545 0.629883 46.749 -9.54395c15.5225 -10.2598 29.5928 -27.0742 40.2578 -42.0576c22.8623 -32.1074 36.3623 -70.0176 60.6982 -101.356
c14.9199 -19.2002 27.6133 -36.127 53.4648 -20.3369c18.0312 11.0176 33.3135 26.4873 47.0742 42.3564c29.3691 33.8633 51.4199 73.6465 73.3691 112.49zM99.1602 657.942c-15.7197 -76.4395 -22.9902 -154.41 -25.4033 -232.472
c46.9521 7.44141 92.335 16.0303 134.713 40.5312c50.9717 29.4707 89.5596 80.5439 111.53 134.451c31.7129 77.8057 43.707 226.467 -64.3965 251.443c-104.276 24.0898 -140.793 -117.846 -156.443 -193.954zM121.377 282.863
c-11.4609 -16.1738 -21.4463 -33.1338 -30.1631 -50.7119c32.9775 14.9297 65.4854 31.1299 95.6504 51.1787c17.5244 11.6416 34.4512 24.3027 49.8242 38.6992c9.84277 9.21289 33.5596 27.1055 14.0117 43.6533c-7.96973 6.74707 -27.0371 4.47266 -35.6367 2.08105
c-38.7158 -10.751 -71.5391 -53.6309 -93.6865 -84.9004z" />
    <glyph glyph-name="l" unicode="l" horiz-adv-x="334" 
d="M336.695 201.91c5.02832 13.9961 36.5859 20.9756 29.5186 1.12891c-26.9512 -75.6328 -55.7441 -167.872 -115.502 -224.881c-53.3262 -50.876 -136.523 -48.2021 -188.969 2.94043c-54.9004 53.5342 -68.9922 143.419 -77.0361 216.25
c-9.33594 84.499 -8.56152 170.065 0.0644531 254.57c8.0332 78.7188 19.7129 158.596 49.4561 232.425c27.752 68.8857 74.9121 140.189 146.28 169.238c63.8838 26.001 130.207 0.277344 163.574 -59.3633c29.7588 -53.1924 29.5078 -120.61 6.68848 -176.274
c-25.1572 -61.3701 -74.0684 -112.95 -126.817 -151.832c-32.374 -23.8662 -67.9512 -42.8535 -103.892 -60.7197c-15.0049 -7.45703 -30.0684 -14.957 -45.3613 -21.9014c-2.29004 -54.2598 -1.28613 -108.413 3.96094 -162.609
c6.01562 -62.1387 14.0332 -128.398 38.4219 -186.433c10.3984 -24.7412 30.0684 -65.0957 60.9746 -65.5332c32.9727 -0.464844 58.3438 25.7979 75.5635 50.9072c37.6592 54.9219 60.7188 119.847 83.0742 182.087zM158.1 765.806
c-61.1035 -94.7852 -72.9209 -220.547 -80.4844 -331.848c39.0625 18.7734 79.7959 34.9736 116.979 56.71c55.8613 32.6572 105.899 77.373 126.493 140.499c16.6328 50.9824 11.2627 110.623 -22.6914 153.428c-22.0459 27.7891 -56.4971 44.2031 -90.9961 29.5557
c-22.5371 -9.56543 -36.458 -28.4238 -49.3008 -48.3447z" />
    <glyph glyph-name="m" unicode="m" horiz-adv-x="625" 
d="M630.056 179.256c5.51367 12.6992 35.6387 19.0889 27.7969 1.07324c-18.2559 -42.0361 -36.7842 -84.2803 -59.4014 -124.208c-18.9658 -33.4795 -42.8584 -67.8877 -81.1523 -80.667c-34.7021 -11.5781 -71.3359 -9.51758 -95.5117 21.4531
c-28.5684 36.5967 -24.9336 91.6787 -22.5479 135.519c2.8291 51.9062 9.62402 103.77 13.9961 155.558c1.77734 21.0898 8.8125 47.4219 2.8877 68.042c-10.873 37.835 -39.6074 -4.06738 -49.2158 -19.5264c-50.417 -81.1367 -77.1973 -176.088 -94.8281 -269.256
c-0.0263672 -2.63672 0 -5.28418 -0.0585938 -7.91602c-0.491211 -22.4033 -24.0264 -41.3105 -42.9863 -48.3887c-13.959 -5.20996 -44.9834 -6.74707 -47.2363 15.1436c-8.63184 83.9971 2.48145 168.325 -2.47168 252.27
c-1.04102 17.6416 1.99609 46.6904 -7.83105 62.5703c-13.0029 21.0098 -25.3926 7.44629 -33.3887 -5.60449c-10.8096 -17.6523 -18.0264 -37.5576 -24.5918 -57.0996c-25.1523 -74.875 -35.7432 -152.819 -51.3135 -229.829
c-2.10352 -18.6885 -5.1084 -37.2803 -9.64062 -55.7285c-2.85547 -11.626 -33.7461 -32.5508 -41.6621 -15.5713c-25.5469 54.7773 -25.6533 116.905 -27.9697 176.429c-2.49316 64.0547 0.202148 129.076 6.25488 192.864
c2.34375 24.6982 26.8604 45.5371 49.6104 51.3076c19.8779 5.04395 44.582 -2.96289 42.5967 -27.2666c-3.29883 -40.4717 -6.09082 -80.9014 -8.50879 -121.368c7.56934 25.6162 16.7881 50.6729 28.5527 74.8213c9.70996 19.9316 21.9766 40.376 41.4551 52.0928
c32.3369 19.4463 60.4033 -6.49609 80.9111 -31.291c28.7236 -34.7285 32.7969 -80.25 37.8682 -123.301c1.85254 -15.6934 3.58203 -31.5791 5.11914 -47.5449c14.0176 47.6514 32.4443 94.0059 55.2803 138.172c16.7451 32.3906 37.1523 69.9482 71.502 86.7783
c33.1055 16.2217 62.1973 -8.57812 77.6289 -37.3652c21.4268 -39.9814 20.6211 -90.0088 20.9355 -134.201c0.357422 -50.7852 0.411133 -101.287 1.83594 -152.045c0.491211 -17.375 -4.78809 -43.3174 7.48926 -58.125c21.1807 -25.5527 48.7354 12.6084 60.1533 28.916
c28.7979 41.1289 48.5371 87.457 68.4424 133.294z" />
    <glyph glyph-name="n" unicode="n" horiz-adv-x="401" 
d="M401.618 177.431c5.68457 14.8125 39.6465 22.2764 31.6396 1.20215c-25.2217 -66.4355 -56.2139 -169.067 -132.071 -193.696c-35.4229 -11.498 -71.71 -8.61035 -95.2236 24.7139c-26.1025 36.9971 -19.6758 93.4775 -16.8574 136.031
c3.44824 52.0176 10.542 104.126 17.2891 155.803c2.21484 16.9746 12.293 78.0889 -19.1582 48.5225c-14.7803 -13.8945 -24.8906 -42.2549 -33.9541 -60.4941c-37.0664 -74.6299 -62.2295 -154.399 -85.8125 -234.19
c-1.15332 -16.2803 -3.75293 -32.3584 -9.71582 -47.6621c-6.00488 -15.4102 -32.1553 -33.0303 -46.2314 -17.2725c-19.6387 21.9814 -22.5215 57.0566 -25.249 85.2412c-2.93555 30.3945 -5.00098 60.8525 -5.23047 91.3857
c-0.245117 32.9238 0.540039 65.8584 2.38184 98.7344c1.76172 31.4668 2.7334 63.8359 14.9043 93.2959c8.62598 20.8818 66.9209 61.333 76.5664 20.0762c7.18457 -30.7246 -0.0537109 -64.1455 -2.25293 -95.2285c-2.09277 -29.5449 -3.36328 -59.1494 -3.78516 -88.7695
c-0.192383 -13.3604 -0.288086 -26.7207 -0.368164 -40.0811c15.2188 45.4258 32.3857 90.1465 53.4121 133.282c14.9941 30.7627 30.3564 70.0391 58.2627 91.375c25.3975 19.4141 64.2412 12.1914 84.4346 -12.2773c28.2324 -34.2158 23.4873 -94.8066 22.8203 -135.93
c-0.75293 -46.6484 -4.68164 -93.5205 -1.28711 -140.152c1.39844 -19.2324 3.82715 -41.417 14.7217 -57.7188c-0.0371094 0.0537109 11.3008 -15.6934 10.3936 -15.4316c6.78418 -1.95898 26.3477 26.6846 29.6895 31.4297
c27.2559 38.7217 43.8516 83.918 60.6816 127.812z" />
    <glyph glyph-name="o" unicode="o" horiz-adv-x="314" 
d="M335.728 219.028c22.5742 4.68164 13.9414 -23.5342 -2.39844 -26.9238c-33.624 -6.94434 -75.5264 -11.9883 -117.536 -10.6855c-0.160156 -1.93262 -0.255859 -3.8916 -0.4375 -5.81836c-7.24316 -77.4209 -57.1797 -214.019 -159.796 -189.966
c-46.627 10.9316 -67.4287 63.2275 -75.7236 105.61c-10.793 55.1357 -2.14551 113.441 12.4326 167.061c4.45703 16.3877 21.085 29.748 37.6543 35.8711c-7.35547 29.7051 -4.40918 62.2021 10.7188 88.9453c17.9033 31.6641 53.5713 55.8018 90.915 45.6436
c45.7725 -12.4482 65.6191 -62.251 75.1523 -104.181c8.40234 -36.9434 11.6533 -76.4551 10.6289 -115.011c42.0361 -2.49805 84.8145 2.49316 118.39 9.4541zM181.775 166.855c0.582031 5.62598 1.06152 11.2822 1.44629 16.9512
c-43.9795 5.20996 -85.6904 18.8857 -115.46 46.4082c-6.50684 -34.6748 -11.0225 -69.4141 -7.03516 -105.167c3.20801 -28.75 16.2168 -105.274 58.6377 -93.8828c24.4639 6.57129 38.7744 43.5527 46.584 64.7178c8.43945 22.8779 13.3232 46.749 15.8271 70.9727z
M76.2754 273.682c23.8232 -35.209 63.9434 -53.0596 108.023 -60.4521c0.229492 29.2891 -2.13477 58.7334 -7.41895 87.2217c-6.93945 37.4131 -28.8838 113.479 -81.2324 102.37c-45.3887 -9.63477 -43.3926 -72.6436 -28.9375 -110.526
c6.20312 -3.9502 10.3506 -10.126 9.56543 -18.6133z" />
    <glyph glyph-name="o" unicode="&#xf6;" horiz-adv-x="314" 
d="M335.728 219.028c22.5742 4.68164 13.9414 -23.5342 -2.39844 -26.9238c-33.624 -6.94434 -75.5264 -11.9883 -117.536 -10.6855c-0.160156 -1.93262 -0.255859 -3.8916 -0.4375 -5.81836c-7.24316 -77.4209 -57.1797 -214.019 -159.796 -189.966
c-46.627 10.9316 -67.4287 63.2275 -75.7236 105.61c-10.793 55.1357 -2.14551 113.441 12.4326 167.061c4.45703 16.3877 21.085 29.748 37.6543 35.8711c-7.35547 29.7051 -4.40918 62.2021 10.7188 88.9453c17.9033 31.6641 53.5713 55.8018 90.915 45.6436
c45.7725 -12.4482 65.6191 -62.251 75.1523 -104.181c8.40234 -36.9434 11.6533 -76.4551 10.6289 -115.011c42.0361 -2.49805 84.8145 2.49316 118.39 9.4541zM181.775 166.855c0.582031 5.62598 1.06152 11.2822 1.44629 16.9512
c-43.9795 5.20996 -85.6904 18.8857 -115.46 46.4082c-6.50684 -34.6748 -11.0225 -69.4141 -7.03516 -105.167c3.20801 -28.75 16.2168 -105.274 58.6377 -93.8828c24.4639 6.57129 38.7744 43.5527 46.584 64.7178c8.43945 22.8779 13.3232 46.749 15.8271 70.9727z
M76.2754 273.682c23.8232 -35.209 63.9434 -53.0596 108.023 -60.4521c0.229492 29.2891 -2.13477 58.7334 -7.41895 87.2217c-6.93945 37.4131 -28.8838 113.479 -81.2324 102.37c-45.3887 -9.63477 -43.3926 -72.6436 -28.9375 -110.526
c6.20312 -3.9502 10.3506 -10.126 9.56543 -18.6133z" />
    <glyph glyph-name="o" unicode="&#xf5;" horiz-adv-x="314" 
d="M335.728 219.028c22.5742 4.68164 13.9414 -23.5342 -2.39844 -26.9238c-33.624 -6.94434 -75.5264 -11.9883 -117.536 -10.6855c-0.160156 -1.93262 -0.255859 -3.8916 -0.4375 -5.81836c-7.24316 -77.4209 -57.1797 -214.019 -159.796 -189.966
c-46.627 10.9316 -67.4287 63.2275 -75.7236 105.61c-10.793 55.1357 -2.14551 113.441 12.4326 167.061c4.45703 16.3877 21.085 29.748 37.6543 35.8711c-7.35547 29.7051 -4.40918 62.2021 10.7188 88.9453c17.9033 31.6641 53.5713 55.8018 90.915 45.6436
c45.7725 -12.4482 65.6191 -62.251 75.1523 -104.181c8.40234 -36.9434 11.6533 -76.4551 10.6289 -115.011c42.0361 -2.49805 84.8145 2.49316 118.39 9.4541zM181.775 166.855c0.582031 5.62598 1.06152 11.2822 1.44629 16.9512
c-43.9795 5.20996 -85.6904 18.8857 -115.46 46.4082c-6.50684 -34.6748 -11.0225 -69.4141 -7.03516 -105.167c3.20801 -28.75 16.2168 -105.274 58.6377 -93.8828c24.4639 6.57129 38.7744 43.5527 46.584 64.7178c8.43945 22.8779 13.3232 46.749 15.8271 70.9727z
M76.2754 273.682c23.8232 -35.209 63.9434 -53.0596 108.023 -60.4521c0.229492 29.2891 -2.13477 58.7334 -7.41895 87.2217c-6.93945 37.4131 -28.8838 113.479 -81.2324 102.37c-45.3887 -9.63477 -43.3926 -72.6436 -28.9375 -110.526
c6.20312 -3.9502 10.3506 -10.126 9.56543 -18.6133z" />
    <glyph glyph-name="o" unicode="&#xf4;" horiz-adv-x="314" 
d="M335.728 219.028c22.5742 4.68164 13.9414 -23.5342 -2.39844 -26.9238c-33.624 -6.94434 -75.5264 -11.9883 -117.536 -10.6855c-0.160156 -1.93262 -0.255859 -3.8916 -0.4375 -5.81836c-7.24316 -77.4209 -57.1797 -214.019 -159.796 -189.966
c-46.627 10.9316 -67.4287 63.2275 -75.7236 105.61c-10.793 55.1357 -2.14551 113.441 12.4326 167.061c4.45703 16.3877 21.085 29.748 37.6543 35.8711c-7.35547 29.7051 -4.40918 62.2021 10.7188 88.9453c17.9033 31.6641 53.5713 55.8018 90.915 45.6436
c45.7725 -12.4482 65.6191 -62.251 75.1523 -104.181c8.40234 -36.9434 11.6533 -76.4551 10.6289 -115.011c42.0361 -2.49805 84.8145 2.49316 118.39 9.4541zM181.775 166.855c0.582031 5.62598 1.06152 11.2822 1.44629 16.9512
c-43.9795 5.20996 -85.6904 18.8857 -115.46 46.4082c-6.50684 -34.6748 -11.0225 -69.4141 -7.03516 -105.167c3.20801 -28.75 16.2168 -105.274 58.6377 -93.8828c24.4639 6.57129 38.7744 43.5527 46.584 64.7178c8.43945 22.8779 13.3232 46.749 15.8271 70.9727z
M76.2754 273.682c23.8232 -35.209 63.9434 -53.0596 108.023 -60.4521c0.229492 29.2891 -2.13477 58.7334 -7.41895 87.2217c-6.93945 37.4131 -28.8838 113.479 -81.2324 102.37c-45.3887 -9.63477 -43.3926 -72.6436 -28.9375 -110.526
c6.20312 -3.9502 10.3506 -10.126 9.56543 -18.6133z" />
    <glyph glyph-name="o" unicode="&#xf3;" horiz-adv-x="314" 
d="M335.728 219.028c22.5742 4.68164 13.9414 -23.5342 -2.39844 -26.9238c-33.624 -6.94434 -75.5264 -11.9883 -117.536 -10.6855c-0.160156 -1.93262 -0.255859 -3.8916 -0.4375 -5.81836c-7.24316 -77.4209 -57.1797 -214.019 -159.796 -189.966
c-46.627 10.9316 -67.4287 63.2275 -75.7236 105.61c-10.793 55.1357 -2.14551 113.441 12.4326 167.061c4.45703 16.3877 21.085 29.748 37.6543 35.8711c-7.35547 29.7051 -4.40918 62.2021 10.7188 88.9453c17.9033 31.6641 53.5713 55.8018 90.915 45.6436
c45.7725 -12.4482 65.6191 -62.251 75.1523 -104.181c8.40234 -36.9434 11.6533 -76.4551 10.6289 -115.011c42.0361 -2.49805 84.8145 2.49316 118.39 9.4541zM181.775 166.855c0.582031 5.62598 1.06152 11.2822 1.44629 16.9512
c-43.9795 5.20996 -85.6904 18.8857 -115.46 46.4082c-6.50684 -34.6748 -11.0225 -69.4141 -7.03516 -105.167c3.20801 -28.75 16.2168 -105.274 58.6377 -93.8828c24.4639 6.57129 38.7744 43.5527 46.584 64.7178c8.43945 22.8779 13.3232 46.749 15.8271 70.9727z
M76.2754 273.682c23.8232 -35.209 63.9434 -53.0596 108.023 -60.4521c0.229492 29.2891 -2.13477 58.7334 -7.41895 87.2217c-6.93945 37.4131 -28.8838 113.479 -81.2324 102.37c-45.3887 -9.63477 -43.3926 -72.6436 -28.9375 -110.526
c6.20312 -3.9502 10.3506 -10.126 9.56543 -18.6133z" />
    <glyph glyph-name="p" unicode="p" horiz-adv-x="451" 
d="M473.706 189.59c21.8965 7.05176 13.0664 -21.9111 -2.39746 -26.918c-34.5039 -11.1611 -69.3496 -21.042 -104.543 -29.5938c-5.96777 -30.1807 -15.7578 -58.8613 -28.2754 -83.4639c-25.8359 -50.7686 -86.2129 -114.226 -150.06 -97.208
c-44.7422 11.9248 -67.375 66.1631 -47.7959 107.121c24.0469 50.2988 85.1016 70.2412 135.534 80.9756c6.83301 1.45703 13.6494 2.90918 20.4658 4.36621c1.54297 8.57812 2.83496 17.2041 3.72656 25.8516c4.6543 45.0947 0.500977 91.9619 -11.9844 135.557
c-6.27246 21.9072 -20.418 52.5146 -49.0449 46.0664c-23.7373 -5.34863 -39.5371 -36.6982 -49.3965 -56.251c-43.8672 -87.0029 -52.8564 -192.571 -63.458 -288.024c-9.92285 -89.3457 -17.4385 -178.938 -25.1406 -268.497
c2.14062 -23.2471 2.58887 -46.3604 -0.93457 -68.7744c-2.30566 -14.7002 -24.9121 -31.5195 -37.7129 -18.1592c-38.8018 40.5039 -48.0146 111.53 -58.1943 164.338c-11.1885 58.0176 -16.9482 117.6 -19.7129 176.595c-5.6582 120.754 -3.73145 246.072 15.7891 365.562
c4.04102 24.7363 25.3818 44.9668 49.3701 51.0576c20.5137 5.20996 43.3438 -3.07422 42.3887 -27.1318c-4.71289 -118.764 -18.2236 -236.251 -15.4424 -355.383c0.928711 -39.8477 2.74316 -79.54 5.45996 -119.212c7.5 86.9492 18.0527 173.637 35.8281 258.184
c12.5547 59.7051 28.4561 122.794 66.2002 172.127c26.3799 34.4775 70.0703 59.4375 110.436 31.8779c66.4092 -45.335 85.3105 -129.626 76.3584 -209.155c34.4033 8.15137 68.582 17.1562 102.536 28.0938zM261.282 50.0205
c13.0615 20.6367 22.3975 43.2246 28.9102 66.6475c-18.5811 -3.57129 -37.1787 -7.3291 -55.125 -13.2861c-24.875 -8.25781 -69.5215 -27.6289 -65.1602 -61.0332c3.20312 -24.5166 30.7949 -29.1445 50.5723 -24.5322c19.5684 4.55859 30.335 15.667 40.8027 32.2041z
" />
    <glyph glyph-name="q" unicode="q" horiz-adv-x="464" 
d="M483.313 202.694c16.2383 8.63184 22.7139 -11.3809 8.99023 -19.6602c-63.3613 -38.1768 -127.673 -74.7842 -191.915 -111.482c65.1758 -16.0723 119.719 -81.958 142.389 -141.129c16.2109 -42.3086 15.9707 -87.2383 7.25391 -131.229
c-6.31445 -31.8516 -15.9062 -65.043 -39.5801 -88.5674c-23.5938 -23.4443 -59.2666 -35.3057 -92.1211 -30.1123c-40.9043 6.46973 -68.6777 38.3906 -85.7168 74.0215c-40.9521 85.6416 -43.1191 186.357 -42.4736 279.435
c0.272461 39.2119 0.614258 78.627 2.24219 117.962c-6.84277 -23.8662 -14.5508 -47.4062 -23.4707 -70.4072c-11.2256 -28.9473 -25.4404 -58.2578 -52.0176 -76.0967c-21.3887 -14.3594 -58.8877 -27.7256 -83.8047 -17.6641
c-31.5361 12.7305 -47.208 55.1562 -53.7256 85.748c-8.06543 37.8623 -6.5498 76.4658 1.34473 114.199c15.3896 73.5723 51.3457 134.537 118.528 171.411c28.6055 15.7041 63.1045 25.1045 95.3984 16.6758c12.8535 -3.35254 23.2676 -9.37402 32.0537 -17.167
c9.84863 13.0244 23.9248 22.7393 40.6162 26.9727c20.6367 5.24219 49.8613 -3.11133 46.3271 -29.6572c-11.4502 -85.9941 -17.8291 -172.17 -21.0586 -258.746c63.3242 35.6309 126.595 71.3945 190.74 105.493zM156.917 132.735
c19.8945 64.0283 31.2812 130.16 45.8594 195.496c-16.3604 15.3838 -37.4561 22.8252 -62.9336 10.6279c-26.6201 -12.7412 -40.5098 -43.21 -52.6748 -68.3887c-27.7305 -57.4043 -39.1963 -125.479 -26.7217 -188.242c5.21484 -26.2363 22.707 -80.998 54.6221 -45.3516
c22.2432 24.8428 32.166 64.6904 41.8486 95.8584zM420.099 -124.926c-9.74219 62.1709 -62.8076 143.643 -129.334 164.05c-2.63184 -85.46 -5.85547 -180.314 23.8184 -260.287c10.5908 -28.5469 51.6982 -85.3525 80.9873 -44.5283
c25.6006 35.6836 31.0723 99.0068 24.5283 140.766z" />
    <glyph glyph-name="r" unicode="r" horiz-adv-x="348" 
d="M355.998 209.036c13.7822 14.0811 38.0879 4.73145 21.8281 -13.4385c-38.3418 -42.8633 -96.8984 -62.79 -153.608 -49.499c-69.1738 16.2168 -63.959 106.651 -54.4092 159.571c1.7832 9.88086 3.91797 19.5957 6.25586 29.3535
c0.982422 4.08398 7.8418 20.9463 6.35742 24.5918c1.12109 -2.74414 -21.3564 -33.9551 -23.6572 -38.1455c-16.7607 -30.5439 -29.4492 -63.2383 -40.1465 -96.3438c-20.7324 -64.1836 -33.4951 -130.576 -50.5869 -195.769
c-0.0908203 -15.5117 -1.35547 -31.2217 -7.07812 -43.1201c-11.9355 -24.8105 -43.4717 -24.3994 -57.3926 -2.17773c-17.4658 27.8857 -16.8096 72.6279 -18.9238 104.303c-5.39648 80.9336 -5.59961 162.588 5.02246 243.116
c3.10645 23.5879 24.8535 43.1406 47.1924 48.8096c19.291 4.89453 41.8701 -2.88281 40.5195 -25.9424c-3.76367 -64.2256 -7.90039 -128.254 -9.18164 -192.598c-0.0537109 -2.69043 -0.0644531 -5.38086 -0.107422 -8.07129
c6.66699 26.5352 13.8896 52.915 22.5371 78.8945c9.96582 29.9512 21.9492 59.208 36.5859 87.1895c11.6309 22.2324 26.2568 54.7139 48.2441 68.6299c56.8965 36.0205 56.1914 -80.0312 57.542 -105.995c1.62793 -31.2744 11.2471 -59.3252 32.5029 -82.4385
c11.9941 -13.041 21.7354 -20.4072 40.5088 -18.7207c19.9688 1.79395 36.4365 13.9482 49.9951 27.7998z" />
    <glyph glyph-name="s" unicode="s" horiz-adv-x="295" 
d="M314.098 195.895c16.0293 8.49805 22.2178 -11.0537 8.8623 -19.3594c-39.0098 -24.2021 -83.0898 -41.6309 -125.398 -61.6855c33.4473 -45.1318 55.792 -96.584 25.9316 -146.691c-31.1465 -52.2686 -123.546 -120.866 -180.769 -65.9814
c-59.4854 57.0566 2.72266 140.456 50.9238 179.007c1.50488 1.20605 3.06348 2.32129 4.58984 3.49609c-25.707 25.2002 -52.4502 49.6367 -75.2168 77.4736c-53.2617 65.1172 -75.9639 156.951 -17.7588 226.397c19.1582 22.8574 49.4131 39.3672 79.6094 30.0156
c33.4424 -10.3555 48.6875 -43.7764 60.7676 -73.541c5.70605 -14.0498 -24.3945 -31.2539 -31.585 -15.0908c-8.32715 18.7256 -33.6504 72.9912 -63.9541 55.7393c-17.375 -9.8916 -8.4873 -48.8477 -4.53711 -63.4521c13.4404 -49.707 49.0498 -90.8408 82.7959 -128.19
c15.4746 -17.1289 35.1934 -37.2744 53.6035 -59.3896c43.7441 21.0957 89.5645 38.6846 132.135 61.2529zM138.402 -78.7881c17.8711 9.04199 46.5312 28.0723 47.6309 50.1445c0.976562 19.708 -18.8857 38.2842 -30.8164 52.3496
c-12.7207 14.9941 -25.8945 29.3691 -39.5752 43.4502c-8.75391 -6.7041 -17.1504 -13.9268 -25.0723 -21.7998c-29.0654 -28.873 -53.7051 -75.7188 -25.0352 -113.655c17.5566 -23.2256 48.9707 -22.5801 72.8682 -10.4893z" />
    <glyph glyph-name="t" unicode="t" horiz-adv-x="249" 
d="M253.38 202.551c4.36621 12.9014 32.4932 20.2656 27.3896 1.04883c-18.6992 -70.3428 -44.2354 -160.468 -100.871 -210.58c-24.0098 -21.2451 -55.7334 -31.873 -87.873 -28.8408c-35.2891 3.3252 -57.4365 30.9707 -71.4062 61.0762
c-35.748 77.0527 -35.5293 172.046 -39.2549 255.382c-1.94824 43.584 -2.49805 87.4619 -1.61719 131.318c-14.2578 -0.517578 -28.5312 -0.864258 -42.8154 -1.01367c-22.958 -0.245117 -5.0918 29.9092 11.0664 30.1172
c10.873 0.138672 21.7354 0.469727 32.5977 0.822266c1.3877 39.0684 3.90723 78.0674 7.79297 116.757c4.35547 43.3223 98.3887 84.083 95.7998 24.9766c-1.97461 -45.1484 -4.28027 -90.4248 -6.25 -135.76c11.8818 1.08398 23.7588 2.23145 35.625 3.56543
c22.7559 2.5625 4.77734 -28.75 -11.2148 -30.5166c-8.54102 -0.939453 -17.0928 -1.69238 -25.6387 -2.50391c-3.62402 -91.8604 -5.2627 -183.875 0.657227 -275.383c2.59375 -40.1572 18.3408 -202.275 89.9922 -126.658
c45.8203 48.3564 65.2236 124.716 86.0205 186.192z" />
    <glyph glyph-name="u" unicode="u" horiz-adv-x="438" 
d="M442.235 202.812c2.96777 11.0332 31.5586 20.0684 28.1426 4.27344c-12.3623 -57.0303 -31.8672 -115.924 -63.9912 -165.177c-25.376 -38.9131 -73.8018 -70.4814 -119.212 -43.7598c-48.9004 28.7764 -55.5566 104.489 -60.1416 154.692
c-1.1582 12.6611 -1.86328 25.3066 -2.38672 37.9473c-3.88086 -23.9082 -8.11426 -47.7578 -13.4092 -71.4053c-12.4053 -55.3545 -29.8232 -122.02 -95.3838 -132.711c-71.5068 -11.6631 -109.31 75.126 -122.89 131.42c-8.4873 35.1826 -12.1602 70.6211 -14.0498 106.7
c-2.06055 39.3457 -4.26465 80.709 3.87012 119.457c4.88965 23.2842 21.2295 40.584 43.4141 48.8682c14.7275 5.49805 44.6309 6.65137 47.7051 -15.293c8.375 -59.7744 -0.501953 -122.121 3.9502 -182.52c3.67773 -49.9092 7.1416 -121.522 43.6953 -159.625
c29.583 -30.8369 44.583 33.3838 50.4658 54.7197c8.42871 30.5703 14.3857 61.7549 19.8301 92.9766c9.87012 56.5762 18.2666 113.318 32.9941 168.907c0.506836 1.91113 1.50488 3.67285 2.80762 5.27441c5.14551 42.5859 95.874 74.1699 91.0381 21.2441
c-8.56738 -93.8193 -18.9766 -195.042 -2.07715 -288.413c3.20801 -17.7217 9.74707 -44.5498 26.5244 -54.8896c24.7676 -15.2607 40.4131 20.8984 49.5195 38.0273c21.709 40.8193 37.5947 84.708 49.584 129.285z" />
    <glyph glyph-name="u" unicode="&#xfc;" horiz-adv-x="438" 
d="M442.235 202.812c2.96777 11.0332 31.5586 20.0684 28.1426 4.27344c-12.3623 -57.0303 -31.8672 -115.924 -63.9912 -165.177c-25.376 -38.9131 -73.8018 -70.4814 -119.212 -43.7598c-48.9004 28.7764 -55.5566 104.489 -60.1416 154.692
c-1.1582 12.6611 -1.86328 25.3066 -2.38672 37.9473c-3.88086 -23.9082 -8.11426 -47.7578 -13.4092 -71.4053c-12.4053 -55.3545 -29.8232 -122.02 -95.3838 -132.711c-71.5068 -11.6631 -109.31 75.126 -122.89 131.42c-8.4873 35.1826 -12.1602 70.6211 -14.0498 106.7
c-2.06055 39.3457 -4.26465 80.709 3.87012 119.457c4.88965 23.2842 21.2295 40.584 43.4141 48.8682c14.7275 5.49805 44.6309 6.65137 47.7051 -15.293c8.375 -59.7744 -0.501953 -122.121 3.9502 -182.52c3.67773 -49.9092 7.1416 -121.522 43.6953 -159.625
c29.583 -30.8369 44.583 33.3838 50.4658 54.7197c8.42871 30.5703 14.3857 61.7549 19.8301 92.9766c9.87012 56.5762 18.2666 113.318 32.9941 168.907c0.506836 1.91113 1.50488 3.67285 2.80762 5.27441c5.14551 42.5859 95.874 74.1699 91.0381 21.2441
c-8.56738 -93.8193 -18.9766 -195.042 -2.07715 -288.413c3.20801 -17.7217 9.74707 -44.5498 26.5244 -54.8896c24.7676 -15.2607 40.4131 20.8984 49.5195 38.0273c21.709 40.8193 37.5947 84.708 49.584 129.285z" />
    <glyph glyph-name="u" unicode="&#xfb;" horiz-adv-x="438" 
d="M442.235 202.812c2.96777 11.0332 31.5586 20.0684 28.1426 4.27344c-12.3623 -57.0303 -31.8672 -115.924 -63.9912 -165.177c-25.376 -38.9131 -73.8018 -70.4814 -119.212 -43.7598c-48.9004 28.7764 -55.5566 104.489 -60.1416 154.692
c-1.1582 12.6611 -1.86328 25.3066 -2.38672 37.9473c-3.88086 -23.9082 -8.11426 -47.7578 -13.4092 -71.4053c-12.4053 -55.3545 -29.8232 -122.02 -95.3838 -132.711c-71.5068 -11.6631 -109.31 75.126 -122.89 131.42c-8.4873 35.1826 -12.1602 70.6211 -14.0498 106.7
c-2.06055 39.3457 -4.26465 80.709 3.87012 119.457c4.88965 23.2842 21.2295 40.584 43.4141 48.8682c14.7275 5.49805 44.6309 6.65137 47.7051 -15.293c8.375 -59.7744 -0.501953 -122.121 3.9502 -182.52c3.67773 -49.9092 7.1416 -121.522 43.6953 -159.625
c29.583 -30.8369 44.583 33.3838 50.4658 54.7197c8.42871 30.5703 14.3857 61.7549 19.8301 92.9766c9.87012 56.5762 18.2666 113.318 32.9941 168.907c0.506836 1.91113 1.50488 3.67285 2.80762 5.27441c5.14551 42.5859 95.874 74.1699 91.0381 21.2441
c-8.56738 -93.8193 -18.9766 -195.042 -2.07715 -288.413c3.20801 -17.7217 9.74707 -44.5498 26.5244 -54.8896c24.7676 -15.2607 40.4131 20.8984 49.5195 38.0273c21.709 40.8193 37.5947 84.708 49.584 129.285z" />
    <glyph glyph-name="u" unicode="&#xfa;" horiz-adv-x="438" 
d="M442.235 202.812c2.96777 11.0332 31.5586 20.0684 28.1426 4.27344c-12.3623 -57.0303 -31.8672 -115.924 -63.9912 -165.177c-25.376 -38.9131 -73.8018 -70.4814 -119.212 -43.7598c-48.9004 28.7764 -55.5566 104.489 -60.1416 154.692
c-1.1582 12.6611 -1.86328 25.3066 -2.38672 37.9473c-3.88086 -23.9082 -8.11426 -47.7578 -13.4092 -71.4053c-12.4053 -55.3545 -29.8232 -122.02 -95.3838 -132.711c-71.5068 -11.6631 -109.31 75.126 -122.89 131.42c-8.4873 35.1826 -12.1602 70.6211 -14.0498 106.7
c-2.06055 39.3457 -4.26465 80.709 3.87012 119.457c4.88965 23.2842 21.2295 40.584 43.4141 48.8682c14.7275 5.49805 44.6309 6.65137 47.7051 -15.293c8.375 -59.7744 -0.501953 -122.121 3.9502 -182.52c3.67773 -49.9092 7.1416 -121.522 43.6953 -159.625
c29.583 -30.8369 44.583 33.3838 50.4658 54.7197c8.42871 30.5703 14.3857 61.7549 19.8301 92.9766c9.87012 56.5762 18.2666 113.318 32.9941 168.907c0.506836 1.91113 1.50488 3.67285 2.80762 5.27441c5.14551 42.5859 95.874 74.1699 91.0381 21.2441
c-8.56738 -93.8193 -18.9766 -195.042 -2.07715 -288.413c3.20801 -17.7217 9.74707 -44.5498 26.5244 -54.8896c24.7676 -15.2607 40.4131 20.8984 49.5195 38.0273c21.709 40.8193 37.5947 84.708 49.584 129.285z" />
    <glyph glyph-name="v" unicode="v" horiz-adv-x="382" 
d="M404.487 219.061c22.0459 5.16699 12.915 -21.9805 -2.33008 -26.1436c-42.0098 -11.4922 -87.3232 -15.085 -128.857 -2.32715c-7.78809 -28.0986 -16.8623 -55.8555 -27.0576 -82.999c-15.8164 -42.1006 -36.7627 -85.0283 -73.7656 -112.545
c-39.9111 -29.6846 -85.7314 -17.1777 -117.423 16.9424c-34.7764 37.4453 -50.8271 93.0186 -62.2236 141.562c-13.5635 57.7617 -19.5264 118.208 -15.6777 177.464c2.82422 43.5146 95.7256 83.2666 94.8984 24.7412
c-0.714844 -50.3418 0.432617 -100.192 7.43555 -150.123c6.47461 -46.1729 14.3271 -96.8506 35.6357 -138.865c7.16309 -14.1348 22.4453 -41.5557 40.5459 -43.6592c23.252 -2.70605 41.625 41.7109 48.7188 57.2285c17.6309 38.5449 30.4316 80.4258 41.043 121.73
c-1.68652 0.885742 -3.38379 1.71875 -5.04883 2.67383c-41.3906 23.7373 -66.2383 66.248 -69.6123 113.488c-2.72266 38.1396 7.68066 80.9658 33.5801 110.121c23.957 26.9727 69.9697 37.8779 87.7285 -1.37207c20.5459 -45.4102 8.08691 -109.278 -0.374023 -156.183
c-2.90918 -16.1309 -6.35254 -32.2139 -10.1797 -48.2275c38.668 -15.501 82.3584 -13.0244 122.964 -3.50684zM254.066 237.45c10.3506 45.25 18.4092 94.3643 13.915 139.827c-1.1748 11.8555 -2.85059 27.9336 -10.5049 37.7451
c-12.8008 16.4141 -29.8018 1.39844 -38.5986 -10.916c-12.0742 -16.9053 -15.8428 -42.5488 -16.0078 -62.7266c-0.335938 -40.8135 17.7383 -80.2129 51.1963 -103.93z" />
    <glyph glyph-name="w" unicode="w" horiz-adv-x="592" 
d="M610.011 218.484c21.7256 9.01562 23.8076 -16.7744 5.88281 -24.2266c-34.7178 -14.4551 -73.6309 -22.0938 -110.708 -15.416c-5.12988 -23.209 -11.3057 -46.1406 -18.9121 -68.3193c-14.6953 -42.8633 -35.6201 -93.4131 -75.1797 -118.843
c-38.5557 -24.7891 -91.4814 -20.8604 -125.463 10.2598c-34.1094 31.2373 -50.1338 77.9443 -59.5068 123.055c-1.72461 -7.59082 -3.56055 -15.1436 -5.58887 -22.6377c-14.1562 -52.2529 -46.8613 -117.226 -107.073 -126.161
c-68.9814 -10.2432 -108.327 70.877 -121.421 125.591c-17.6475 73.7324 -15.4639 151.073 -10.542 226.193c2.77051 42.3242 93.7549 80.1113 91.7529 23.9248c-2.08691 -58.4238 -5.61035 -116.692 -1.98047 -175.132c2.84473 -45.874 7.12598 -115.865 43.6689 -149.131
c50.79 -46.2373 78.9531 90.1572 83.9492 118.907c7.90527 45.4844 12.3789 91.6465 15.043 137.782c0.21875 11.3164 0.539062 22.6172 0.97168 33.8486c1.71387 44.6201 97.7695 82.1299 94.8975 24.7422c-2.55176 -51.0039 -2.96289 -101.672 2.39648 -152.505
c4.40918 -41.833 9.04297 -93.835 32.7002 -129.951c9.41602 -14.375 25.6484 -32.9238 44.7314 -33.1748c22.1152 -0.293945 38.9141 25.0771 48.3408 42.3564c19.4619 35.6572 29.6738 77.4639 37.3662 117.989c-44.5879 18.9385 -71.4375 62.1494 -78.0889 109.155
c-5.55664 39.2979 0.335938 83.875 25.1729 115.978c23.375 30.207 62.8438 41.3154 84.6865 3.2666c24.3086 -42.3506 18.2344 -99.4668 13.0303 -145.789c-2.26367 -20.1826 -5.14648 -40.5684 -8.78711 -60.874c32.209 -8.8125 67.9619 -3.61914 98.6602 9.11133z
M481.58 222.549c7.80957 45.3193 15.3789 96.2061 6.22461 141.338c-3.96582 19.5791 -23.0967 70.252 -45.3877 32.2461c-10.9854 -18.7256 -14.5088 -41.9727 -14.4932 -63.415c0.0263672 -41.2246 16.1465 -84.8945 51.3076 -108.718
c0.768555 -0.517578 1.56934 -0.955078 2.34863 -1.45117z" />
    <glyph glyph-name="x" unicode="x" horiz-adv-x="311" 
d="M314.959 200.464c4.66504 13.1738 33.9297 20.7959 28.2393 1.07715c-17.1992 -59.5547 -39.2666 -120.514 -78.623 -169.361c-33.6338 -41.7422 -94.1074 -71.6768 -145.047 -43.1025c-30.2715 16.9795 -52.3438 48.4844 -68.7793 82.8125
c-15.6348 -23.7803 -31.5898 -48.127 -40.9473 -74.0957c-11.6104 -32.2246 -62.7793 -20.1934 -36.2871 8.38574c25.8994 27.9443 44.3848 63.7031 64.2363 96.2275c-6.62988 17.3691 -12.1016 34.5996 -16.623 50.25c-18.0586 62.4746 -25.9961 130.72 -25.7295 195.623
c0.0957031 23.0703 25.1572 42.8477 44.4756 50.0596c14.3428 5.35352 46.6689 7.00293 48.8682 -15.667c5.41797 -55.8184 10.2119 -110.569 19.4678 -164.578c34.2217 57.0996 67.541 114.755 102.473 171.411c8.27344 13.4199 35.7852 13.8096 25.2158 -5.77539
c-35.1074 -65.0586 -73.54 -128.409 -111.52 -191.823c-2.78125 -4.63867 -5.61523 -9.24023 -8.39648 -13.874c6.69336 -30.4258 15.2393 -60.6387 26.5771 -90.6963c8.42871 -22.3389 17.6689 -47.5713 37.8408 -61.9834c31.2539 -22.3232 56.3418 10.916 72.5635 35.0859
c28.6436 42.6768 44.9727 91.9512 61.9951 140.024z" />
    <glyph glyph-name="y" unicode="y" horiz-adv-x="465" 
d="M469.289 195.179c9.65137 13.0674 39.9688 12.4727 26.3408 -6.02832c-40.5898 -55.1191 -92.1377 -99.1357 -146.958 -139.154c-1.87891 -77.0049 -7.09961 -153.748 -18.2773 -229.333c-17.6523 -119.34 -59.6455 -286.63 -200.443 -309.161
c-54.0039 -8.6416 -114.21 7.77246 -151.447 49.1357c-42.2705 46.958 -32.833 114.856 -10.6543 168.908c54.8525 133.693 172.548 207.133 287.927 283.492c-0.993164 60.3242 -3.17676 120.643 -4.33008 180.956c-5.93555 -22.2695 -12.4531 -44.3848 -20.001 -66.2061
c-18.1865 -52.584 -45.0312 -112.4 -105.99 -123.823c-62.8271 -11.7754 -101.778 37.3496 -121.357 90.3125c-25.9424 70.1719 -30.0156 148.906 -26.0762 222.896c2.26855 42.6182 94.2725 76.5088 89.5107 23.3379
c-5.16699 -57.6709 -5.07617 -115.87 -0.688477 -173.595c2.59375 -34.1143 7.7666 -127.138 54.041 -134.114c58.1562 -8.77051 82.2783 97.5986 93.9893 136.576c14.54 48.3936 25.6748 97.7324 36.3936 147.103c0.123047 5.52441 0.224609 11.0547 0.389648 16.5791
c1.27539 42.8418 90.7393 81.3438 92.6553 24.1582c3.09082 -92.2021 6.20801 -185.76 4.88379 -279.083c44.9824 34.1035 86.5488 71.624 120.093 117.044zM255.919 -88.6348c0.448242 24.9277 0.454102 49.8496 0.208984 74.7725
c-4.53711 -3.05371 -9.07422 -6.10156 -13.5957 -9.15527c-85.3428 -57.6279 -172.858 -118.362 -225.362 -209.459c-30.6553 -53.1924 -56.1221 -129.76 -11.2725 -182.392c35.8438 -42.0518 114.375 -63.6807 163.916 -33.7461
c48.6445 29.3906 61.9355 110.415 70.5186 161.003c11.1084 65.4482 14.4023 132.695 15.5869 198.977z" />
    <glyph glyph-name="y" unicode="&#xff;" horiz-adv-x="465" 
d="M469.289 195.179c9.65137 13.0674 39.9688 12.4727 26.3408 -6.02832c-40.5898 -55.1191 -92.1377 -99.1357 -146.958 -139.154c-1.87891 -77.0049 -7.09961 -153.748 -18.2773 -229.333c-17.6523 -119.34 -59.6455 -286.63 -200.443 -309.161
c-54.0039 -8.6416 -114.21 7.77246 -151.447 49.1357c-42.2705 46.958 -32.833 114.856 -10.6543 168.908c54.8525 133.693 172.548 207.133 287.927 283.492c-0.993164 60.3242 -3.17676 120.643 -4.33008 180.956c-5.93555 -22.2695 -12.4531 -44.3848 -20.001 -66.2061
c-18.1865 -52.584 -45.0312 -112.4 -105.99 -123.823c-62.8271 -11.7754 -101.778 37.3496 -121.357 90.3125c-25.9424 70.1719 -30.0156 148.906 -26.0762 222.896c2.26855 42.6182 94.2725 76.5088 89.5107 23.3379
c-5.16699 -57.6709 -5.07617 -115.87 -0.688477 -173.595c2.59375 -34.1143 7.7666 -127.138 54.041 -134.114c58.1562 -8.77051 82.2783 97.5986 93.9893 136.576c14.54 48.3936 25.6748 97.7324 36.3936 147.103c0.123047 5.52441 0.224609 11.0547 0.389648 16.5791
c1.27539 42.8418 90.7393 81.3438 92.6553 24.1582c3.09082 -92.2021 6.20801 -185.76 4.88379 -279.083c44.9824 34.1035 86.5488 71.624 120.093 117.044zM255.919 -88.6348c0.448242 24.9277 0.454102 49.8496 0.208984 74.7725
c-4.53711 -3.05371 -9.07422 -6.10156 -13.5957 -9.15527c-85.3428 -57.6279 -172.858 -118.362 -225.362 -209.459c-30.6553 -53.1924 -56.1221 -129.76 -11.2725 -182.392c35.8438 -42.0518 114.375 -63.6807 163.916 -33.7461
c48.6445 29.3906 61.9355 110.415 70.5186 161.003c11.1084 65.4482 14.4023 132.695 15.5869 198.977z" />
    <glyph glyph-name="y" unicode="&#xfd;" horiz-adv-x="465" 
d="M469.289 195.179c9.65137 13.0674 39.9688 12.4727 26.3408 -6.02832c-40.5898 -55.1191 -92.1377 -99.1357 -146.958 -139.154c-1.87891 -77.0049 -7.09961 -153.748 -18.2773 -229.333c-17.6523 -119.34 -59.6455 -286.63 -200.443 -309.161
c-54.0039 -8.6416 -114.21 7.77246 -151.447 49.1357c-42.2705 46.958 -32.833 114.856 -10.6543 168.908c54.8525 133.693 172.548 207.133 287.927 283.492c-0.993164 60.3242 -3.17676 120.643 -4.33008 180.956c-5.93555 -22.2695 -12.4531 -44.3848 -20.001 -66.2061
c-18.1865 -52.584 -45.0312 -112.4 -105.99 -123.823c-62.8271 -11.7754 -101.778 37.3496 -121.357 90.3125c-25.9424 70.1719 -30.0156 148.906 -26.0762 222.896c2.26855 42.6182 94.2725 76.5088 89.5107 23.3379
c-5.16699 -57.6709 -5.07617 -115.87 -0.688477 -173.595c2.59375 -34.1143 7.7666 -127.138 54.041 -134.114c58.1562 -8.77051 82.2783 97.5986 93.9893 136.576c14.54 48.3936 25.6748 97.7324 36.3936 147.103c0.123047 5.52441 0.224609 11.0547 0.389648 16.5791
c1.27539 42.8418 90.7393 81.3438 92.6553 24.1582c3.09082 -92.2021 6.20801 -185.76 4.88379 -279.083c44.9824 34.1035 86.5488 71.624 120.093 117.044zM255.919 -88.6348c0.448242 24.9277 0.454102 49.8496 0.208984 74.7725
c-4.53711 -3.05371 -9.07422 -6.10156 -13.5957 -9.15527c-85.3428 -57.6279 -172.858 -118.362 -225.362 -209.459c-30.6553 -53.1924 -56.1221 -129.76 -11.2725 -182.392c35.8438 -42.0518 114.375 -63.6807 163.916 -33.7461
c48.6445 29.3906 61.9355 110.415 70.5186 161.003c11.1084 65.4482 14.4023 132.695 15.5869 198.977z" />
    <glyph glyph-name="z" unicode="z" horiz-adv-x="417" 
d="M435.105 186.28c21.7148 11.7383 23.5518 -15.834 6.12305 -25.2715c-39.1748 -21.1807 -76.8496 -44.9775 -112.838 -71.0693c25.6807 -38.9238 44.1182 -83.2236 53.2568 -128.719c27.6025 -137.436 -15.4209 -280.054 -117.141 -377.033
c-47.0596 -44.8652 -107.854 -85.9297 -174.588 -90.4561c-57.7139 -3.91797 -120.178 27.6348 -127.587 89.6885c-7.70215 64.5137 19.2598 134.568 48.624 190.633c31.4297 60.0039 72.585 115.513 116.756 166.709c30.5918 35.4541 63.5215 68.6455 98.3994 99.584
c-45.0195 61.2041 -112.561 101.911 -193.884 92.1318c-17.0068 -2.04395 -31.5635 9.74219 -33.1328 26.0977c-1.87891 19.6387 13.1689 36.9658 27.5762 48.2666c51.2764 40.2314 102.686 80.2607 146.28 129.022c8.50293 9.51172 31.6377 25.6963 12.0098 32.1875
c-14.332 4.74023 -37.4561 1.03613 -52.584 1.15918c-38.5664 0.30957 -77.1064 -0.629883 -115.625 -2.52441c-21.4531 -1.05664 -4.43066 27.1436 10.334 28.1201c52.7812 3.49121 105.792 5.49805 158.696 4.44629c28.5312 -0.56543 73.8184 3.44336 66.5156 -37.8135
c-6.91797 -39.1113 -48.1797 -80.4004 -73.3965 -108.932c-9.99805 -11.3115 -20.3857 -22.2539 -30.9922 -32.9775c66.4678 -13.2861 123.894 -54.3135 165.93 -109.112c38.7109 27.7842 79.2256 53.123 121.267 75.8623zM242.61 -344.871
c59.374 92.5059 61.8398 206.502 24.752 307.815c-7.09961 19.3984 -16.0723 38.1348 -26.7109 55.6592c-31.7021 -28.8252 -61.6582 -59.6094 -89.5439 -92.2451c-37.6641 -44.0801 -73.1504 -91.5557 -100.075 -143.045
c-24.7998 -47.4326 -51.8789 -111.877 -37.6484 -166.286c14.6904 -56.166 71.2617 -77.2773 122.746 -56.5771c44.0967 17.7275 81.2002 55.29 106.48 94.6787z" />
    <glyph glyph-name="braceleft" unicode="{" horiz-adv-x="508" 
d="M426.965 -184.569c19.6279 16.3555 42.5039 -2.23438 24.3281 -22.3477c-39.1963 -43.376 -103.31 -54.1162 -155.851 -30.6348c-56.1123 25.0771 -87.3496 82.9131 -109.742 136.954c-27.752 66.9746 -40.3174 141.022 -44.7207 213.047
c-3.22949 52.792 -0.378906 145.698 -71.0371 154.313c-24.9492 3.03711 -23.0811 33.7031 -12.8164 49.0977c36.4424 54.6494 67.4824 112.091 92.3945 172.9c23.5615 57.5107 40.4824 117.365 60.0088 176.296c19.2432 58.0762 42.8262 118.87 82.1777 166.602
c13.0303 15.8057 32.0117 40.3867 54.4795 42.1963c17.4443 1.4043 29.4121 -8.88184 29.8555 -25.8721c0.293945 -11.2256 -26.5342 -24.7256 -28.2422 -10.4043c-7.91113 6.38965 -12.5127 6.20801 -13.8047 -0.539062
c-1.03516 -2.47656 -2.00684 -4.97461 -2.90918 -7.50488c-2.06055 -5.14062 -4.20605 -10.2334 -6.35156 -15.3418c-4.39844 -10.4727 -8.34863 -21.0469 -12.0264 -31.792c-7.56348 -22.1045 -14.5566 -44.2939 -20.2578 -66.959
c-11.6631 -46.376 -20.999 -93.4297 -33.7295 -139.518c-23.3965 -84.7129 -56.9189 -166.746 -102.024 -242.192c34.8936 -20.7324 57.2383 -59.3311 65.1328 -99.7871c6.33105 -32.4492 5.46094 -65.8115 7.62305 -98.6611
c2.13477 -32.4863 6.875 -64.8662 13.5957 -96.7119c12.373 -58.6318 29.0322 -124.251 61.1768 -175.521c22.8887 -36.5059 80.5332 -82.791 122.74 -47.6191z" />
    </font>
</defs>
</svg>
