<?xml version="1.0" standalone="no"?>
<!DOCTYPE svg PUBLIC "-//W3C//DTD SVG 1.1//EN" "http://www.w3.org/Graphics/SVG/1.1/DTD/svg11.dtd" >
<svg xmlns="http://www.w3.org/2000/svg" xmlns:xlink="http://www.w3.org/1999/xlink" version="1.1">
<metadata>
Created by FontForge 20170812 at Tue Aug 30 18:19:37 2022
 By www-data
</metadata>
<defs>
<font id="OutlinedRegular" horiz-adv-x="0" >
  <font-face 
    font-family="Outlined"
    font-weight="400"
    font-stretch="normal"
    units-per-em="1000"
    panose-1="0 0 0 0 0 0 0 0 0 0"
    ascent="800"
    descent="-200"
    x-height="384.219"
    cap-height="866.266"
    bbox="-199.924 -590.123 1025.12 1034.51"
    underline-thickness="50"
    underline-position="-100"
    unicode-range="U+000A-20AC"
  />
<missing-glyph horiz-adv-x="527" 
d="M50 700h427v-700h-427v700zM78 680l185 -309l186 309h-371zM251 350l-180 300v-601zM264 329l-185 -308h370zM276 350l181 -303v605z" />
    <glyph glyph-name=".notdef" horiz-adv-x="527" 
d="M50 700h427v-700h-427v700zM78 680l185 -309l186 309h-371zM251 350l-180 300v-601zM264 329l-185 -308h370zM276 350l181 -303v605z" />
    <glyph glyph-name=".null" 
 />
    <glyph glyph-name=".null" 
 />
    <glyph glyph-name="LF" unicode="&#xa;" 
 />
    <glyph glyph-name="controlCR" unicode="&#xd;" 
 />
    <glyph glyph-name="space" unicode=" " horiz-adv-x="219" 
 />
    <glyph glyph-name="exclam" unicode="!" horiz-adv-x="153" 
d="M74.251 23.2256c-11.9463 0 -21.7158 9.59473 -21.8906 21.5791c-3.58887 245.439 -3.08496 494.347 1.50586 739.803c0.227539 12.0908 10.2432 21.6904 22.3037 21.4854c12.0938 -0.227539 21.7129 -10.2139 21.4883 -22.3047
c-4.58203 -244.974 -5.08887 -493.389 -1.50586 -738.344c0.174805 -12.0938 -9.48242 -22.041 -21.5762 -22.2158c-0.109375 -0.00292969 -0.21875 -0.00292969 -0.325195 -0.00292969zM101.071 -29.8848c1.4668 -19.9717 2.26953 -40.2656 2.38184 -60.3223
c0.0654297 -12.0967 -9.68262 -21.9541 -21.7764 -22.0225h-0.125977c-12.0361 0 -21.8301 9.72266 -21.8955 21.7754c-0.106445 19.0742 -0.867188 38.3701 -2.26367 57.3594c-0.886719 12.0605 8.17383 22.5586 20.2344 23.4453
c12.0469 0.883789 22.5586 -8.17188 23.4453 -20.2354z" />
    <glyph glyph-name="quotedbl" unicode="&#x22;" horiz-adv-x="229" 
d="M88.0488 778.01c10.8643 -5.31641 15.3623 -18.4297 10.0459 -29.2939c-1.41016 -2.87988 -1.73047 -9.65234 -1.94434 -14.1338c-1.95996 -41.0713 -2.70215 -82.75 -2.20117 -123.884c0.147461 -12.0938 -9.53711 -22.0166 -21.6309 -22.1641h-0.271484
c-11.9707 0 -21.748 9.62988 -21.8936 21.6328c-0.508789 42.002 0.24707 84.5625 2.24805 126.502c0.408203 8.55957 0.966797 20.2891 6.35156 31.2959c5.31348 10.8613 18.4258 15.3613 29.2959 10.0449zM178.705 626.597
c0.610352 -12.0771 -8.68555 -22.3643 -20.7656 -22.9775c-0.37793 -0.0195312 -0.75293 -0.0273438 -1.125 -0.0273438c-11.5869 -0.00292969 -21.2607 9.09082 -21.8516 20.793l-6.4082 126.715c-0.104492 0.763672 -0.172852 1.54102 -0.197266 2.3291l-0.15332 4.68652
c-0.391602 12.0088 8.97266 22.0908 20.9785 22.5918c11.96 0.490234 22.1758 -8.77051 22.7803 -20.7734z" />
    <glyph glyph-name="quotedbl" unicode="&#x201d;" horiz-adv-x="229" 
d="M88.0488 778.01c10.8643 -5.31641 15.3623 -18.4297 10.0459 -29.2939c-1.41016 -2.87988 -1.73047 -9.65234 -1.94434 -14.1338c-1.95996 -41.0713 -2.70215 -82.75 -2.20117 -123.884c0.147461 -12.0938 -9.53711 -22.0166 -21.6309 -22.1641h-0.271484
c-11.9707 0 -21.748 9.62988 -21.8936 21.6328c-0.508789 42.002 0.24707 84.5625 2.24805 126.502c0.408203 8.55957 0.966797 20.2891 6.35156 31.2959c5.31348 10.8613 18.4258 15.3613 29.2959 10.0449zM178.705 626.597
c0.610352 -12.0771 -8.68555 -22.3643 -20.7656 -22.9775c-0.37793 -0.0195312 -0.75293 -0.0273438 -1.125 -0.0273438c-11.5869 -0.00292969 -21.2607 9.09082 -21.8516 20.793l-6.4082 126.715c-0.104492 0.763672 -0.172852 1.54102 -0.197266 2.3291l-0.15332 4.68652
c-0.391602 12.0088 8.97266 22.0908 20.9785 22.5918c11.96 0.490234 22.1758 -8.77051 22.7803 -20.7734z" />
    <glyph glyph-name="quotedbl" unicode="&#x201c;" horiz-adv-x="229" 
d="M88.0488 778.01c10.8643 -5.31641 15.3623 -18.4297 10.0459 -29.2939c-1.41016 -2.87988 -1.73047 -9.65234 -1.94434 -14.1338c-1.95996 -41.0713 -2.70215 -82.75 -2.20117 -123.884c0.147461 -12.0938 -9.53711 -22.0166 -21.6309 -22.1641h-0.271484
c-11.9707 0 -21.748 9.62988 -21.8936 21.6328c-0.508789 42.002 0.24707 84.5625 2.24805 126.502c0.408203 8.55957 0.966797 20.2891 6.35156 31.2959c5.31348 10.8613 18.4258 15.3613 29.2959 10.0449zM178.705 626.597
c0.610352 -12.0771 -8.68555 -22.3643 -20.7656 -22.9775c-0.37793 -0.0195312 -0.75293 -0.0273438 -1.125 -0.0273438c-11.5869 -0.00292969 -21.2607 9.09082 -21.8516 20.793l-6.4082 126.715c-0.104492 0.763672 -0.172852 1.54102 -0.197266 2.3291l-0.15332 4.68652
c-0.391602 12.0088 8.97266 22.0908 20.9785 22.5918c11.96 0.490234 22.1758 -8.77051 22.7803 -20.7734z" />
    <glyph glyph-name="numbersign" unicode="#" horiz-adv-x="499" 
d="M428.478 419.079c12.0635 -0.854492 21.1523 -11.332 20.2979 -23.4033c-0.818359 -11.5381 -10.4316 -20.3525 -21.8223 -20.3525c-0.520508 0 -1.04297 0.0195312 -1.56836 0.0576172c-30.2148 2.1377 -60.5498 3.99316 -90.9424 5.59766
c-1.22656 -13.0625 -2.42578 -26.1309 -3.56152 -39.207c22.1973 -1.64551 44.3701 -3.9668 66.4854 -7.03516c11.9785 -1.65918 20.3438 -12.7178 18.6826 -24.6992c-1.66113 -11.9785 -12.7197 -20.3438 -24.6982 -18.6826
c-21.3135 2.95605 -42.6816 5.1875 -64.0742 6.7666c-9.40234 -118.763 -15.1289 -237.952 -17.0615 -356.912c-0.123047 -7.57129 -0.331055 -20.2373 2.97559 -25.7773c6.19434 -10.3887 2.79688 -23.8291 -7.58887 -30.0264
c-3.51465 -2.09668 -7.38281 -3.0957 -11.1982 -3.0957c-7.45898 0 -14.7266 3.81348 -18.8271 10.6846c-9.68457 16.2412 -9.36426 35.9121 -9.15332 48.9277c1.94043 119.475 7.67773 239.179 17.0967 358.462c-31.8984 0.955078 -63.8164 0.396484 -95.6797 -1.69531
c-11.0752 -126.279 -16.2402 -253.407 -15.3945 -380.688c0.0791016 -12.0938 -9.66016 -21.9648 -21.7539 -22.0439h-0.146484c-12.0283 0 -21.8174 9.70898 -21.8965 21.7529c-0.837891 126.058 4.14648 251.974 14.877 377.082
c-22.6436 -2.49609 -45.2402 -5.71484 -67.7549 -9.75195c-1.30859 -0.232422 -2.6084 -0.347656 -3.89258 -0.347656c-10.4023 0 -19.627 7.44043 -21.5293 18.0371c-2.13477 11.9043 5.78418 23.2861 17.6885 25.4209c26.4316 4.74121 52.9707 8.44238 79.5693 11.1445
c1.55176 16.0303 3.19922 32.0439 4.94043 48.041c-24.4639 0.421875 -48.8975 0.707031 -73.252 0.772461c-12.0938 0.0332031 -21.8711 9.86621 -21.8379 21.96c0.0351562 12.0742 9.83203 21.8379 21.8984 21.8379h0.0605469
c25.9717 -0.0712891 52.0254 -0.375 78.1123 -0.845703c13.8213 115.353 32.5615 229.807 56.1738 342.826c2.47461 11.8389 14.0674 19.4297 25.915 16.958c11.8389 -2.47461 19.4297 -14.0752 16.958 -25.9141c-23.0654 -110.4 -41.4189 -222.188 -55.04 -334.853
c31.124 -0.827148 62.2695 -1.91895 93.3877 -3.30957c10.6377 105.038 24.1055 209.566 40.4639 313.109c1.88574 11.9463 13.084 20.1064 25.0459 18.2148c11.9434 -1.88574 20.0977 -13.1006 18.2119 -25.0469c-16.1123 -101.994 -29.4053 -204.954 -39.9219 -308.415
c29.9932 -1.5957 59.9316 -3.44043 89.7549 -5.55078zM287.113 344.096c1.12793 13.0137 2.32617 26.0127 3.54199 39.0098c-31.376 1.3877 -62.7764 2.46875 -94.1543 3.2793c-1.59277 -14.4941 -3.12012 -28.999 -4.55469 -43.5176
c31.6982 1.86719 63.4434 2.25 95.167 1.22852z" />
    <glyph glyph-name="dollar" unicode="$" horiz-adv-x="377" 
d="M326.339 55.4629c3.52832 -50.1592 -9.56445 -119.393 -58.0732 -149.427c-13.9307 -8.625 -29.9355 -12.9717 -46.3291 -12.9717c-5.1377 0 -10.3145 0.432617 -15.4746 1.28906c0.408203 -25.3398 0.851562 -50.6631 1.36621 -75.9512
c0.246094 -12.0908 -9.35938 -22.0928 -21.4502 -22.3389c-0.150391 -0.00292969 -0.303711 -0.00292969 -0.454102 -0.00292969c-11.8887 0 -21.6416 9.5127 -21.8848 21.4531c-0.646484 31.8027 -1.18262 63.6543 -1.66211 95.5332
c-16.8125 11.8662 -32.3027 28.7363 -45.5 49.7129c-28.3125 45.0049 -42.6807 103.464 -39.418 160.393c0.689453 12.0742 11.0615 21.3096 23.1143 20.6084c12.0742 -0.692383 21.3018 -11.042 20.6094 -23.1162c-2.75391 -48.043 9.18945 -97.0908 32.7666 -134.562
c2.46094 -3.91211 5.00098 -7.61816 7.60449 -11.1113c-1.20996 104.348 -1.52246 208.997 -0.939453 313.668c-34.7998 43.751 -69.3867 89.7578 -91.1572 147.056c-23.7793 62.5811 -25.8594 127.272 -5.7041 177.483c19.2793 48.0352 59.8691 81.8555 103.773 86.7061
c1.05664 37.5459 2.21191 75.0508 3.50098 112.489c0.416016 12.085 10.5166 21.5508 22.6377 21.1318c12.0879 -0.416016 21.5479 -10.5527 21.1318 -22.6406c-1.32227 -38.4512 -2.51074 -76.9766 -3.58887 -115.543c29.7744 -9.55078 56.6904 -31.8193 74.0703 -62.9072
c5.89941 -10.5557 2.12695 -23.8975 -8.43066 -29.7988c-10.5527 -5.90137 -23.8975 -2.12695 -29.7988 8.42871c-9.375 16.7744 -22.4873 29.7168 -37.0742 37.4775c-2.9043 -114.635 -4.73828 -229.642 -5.47754 -344.66
c0.323242 -0.405273 0.643555 -0.810547 0.969727 -1.21582c7.80371 -9.75293 15.873 -19.8398 23.6963 -29.9102c41.9229 -53.9697 90.8555 -127.438 97.1758 -217.272zM161.145 360.084c0.936523 98.542 2.66797 197.034 5.18652 295.242
c-25.4902 -5.5625 -49.7734 -28.1562 -61.9385 -58.4668c-15.8652 -39.5303 -13.623 -93.9648 6.00391 -145.613c12.7725 -33.6143 30.5381 -62.9756 50.748 -91.1621zM245.205 -56.7344c25.0527 15.5127 40.8008 61.4072 37.4424 109.119
c-5.03418 71.5791 -42.832 133.287 -78.4668 180.882c-0.251953 -98.0742 0.268555 -196.091 1.5957 -293.806c13.9248 -4.56055 27.9814 -3.28223 39.4287 3.80469z" />
    <glyph glyph-name="percent" unicode="%" horiz-adv-x="567" 
d="M455.541 754.852c10.9658 -5.09668 15.7266 -18.1191 10.6328 -29.0879c-130.099 -279.952 -248.357 -572.627 -351.487 -869.893c-3.13965 -9.0498 -11.6201 -14.7275 -20.6895 -14.7275c-2.38379 0 -4.80371 0.391602 -7.17969 1.21582
c-11.4258 3.96387 -17.4756 16.4404 -13.5117 27.8662c103.614 298.653 222.429 592.708 353.148 873.993c5.09668 10.9688 18.1211 15.7295 29.0869 10.6328zM117.81 412.881c-41.917 11.6582 -63.9775 60.6621 -67.2461 104.058
c-3.16992 42.1416 7.65918 82.627 17.2129 118.347c3.12598 11.6826 15.124 18.625 26.8154 15.4961c2.26367 -0.604492 4.34961 -1.54297 6.21875 -2.75c5.32715 7.0625 11.3984 13.8564 18.2852 19.7363c22.6191 19.3125 50.1709 25.0557 73.7012 15.3623
c30.502 -12.5586 44.7852 -45.8916 50.5859 -64.6426c10.8184 -34.959 10.832 -75.0664 0.0410156 -110.036c-11.0566 -35.8379 -33.4561 -66.3594 -61.459 -83.7393c-15.1455 -9.40039 -31.0469 -14.2402 -46.1924 -14.2402c-6.14551 0 -12.165 0.796875 -17.9629 2.40918z
M99.0205 578.639c-3.86816 -19.3584 -6.22949 -39.1836 -4.78125 -58.4111c2.38672 -31.6875 17.8965 -60.3037 35.3086 -65.1484c10.9902 -3.06055 23.0869 2.97852 29.3223 6.84961c19.1533 11.8828 34.7178 33.5459 42.7031 59.4326
c8.25293 26.752 8.24219 57.4346 -0.0302734 84.1787c-5.82227 18.8164 -15.5615 33.0283 -25.4238 37.0879c-9.45801 3.89551 -20.9629 -1.66699 -28.5811 -8.1709c-13.375 -11.4199 -23.3691 -30.2637 -29.7256 -43.4443
c-3.62695 -7.52539 -10.9932 -12.0342 -18.792 -12.374zM512.189 131.9c9.26074 -35.6709 4.51758 -70.3867 -1.09375 -93.2246c-11.1816 -45.5361 -35.2842 -82.2549 -66.1289 -100.743c-13.29 -7.96582 -26.9795 -12.001 -40.1133 -12.001
c-8.37402 0 -16.5176 1.63965 -24.1875 4.94629c-16.9883 7.32227 -31.4746 23.0811 -40.79 44.375c-6.61035 15.1104 -10.7305 32.6016 -12.9639 55.0537c-3.79688 38.1455 -1.01855 77.7334 8.04199 114.485c1.97949 8.02637 8.14941 13.917 15.6055 15.918
c7.56836 14.1797 17.5928 26.2432 29.3057 34.9258c22.8545 16.9355 51.2598 20.6504 75.9834 9.93945c26.2568 -11.376 47.3184 -38.9189 56.3408 -73.6748zM468.565 49.1162c6.22754 25.3613 6.66406 50.8555 1.2334 71.7773
c-5.49121 21.1514 -17.8008 38.6152 -31.3594 44.4893c-10.21 4.42383 -22.3525 2.57617 -32.4893 -4.9375c-11.5459 -8.55664 -20.8115 -24.3809 -24.792 -42.3301c-1.28613 -5.79199 -4.75195 -10.5332 -9.34277 -13.5557
c-3.15332 -23.0596 -3.62109 -46.7871 -1.31934 -69.918c1.76855 -17.7549 4.79102 -31.0498 9.50977 -41.8379c4.71094 -10.7656 11.4395 -18.8818 18.001 -21.71c8.97852 -3.87109 20.0869 1.78711 24.4443 4.40137c20.585 12.3398 37.8252 39.8613 46.1143 73.6211z" />
    <glyph glyph-name="ampersand" unicode="&#x26;" horiz-adv-x="488" 
d="M419.899 234.886c-20.5908 -72.5645 -51.4092 -138.93 -91.5986 -197.249c-1.46973 -2.13477 -2.93652 -4.23438 -4.40332 -6.29785c20.6475 -15.042 42.0977 -25.2305 63.5859 -29.873c11.8203 -2.55371 19.334 -14.207 16.7803 -26.0293
c-2.55371 -11.8203 -14.2041 -19.334 -26.0293 -16.7803c-28.2031 6.09375 -55.6396 19.0059 -81.5381 38.0547c-19.3828 -21.9922 -38.8047 -38.2305 -59.4307 -49.8721c-24.2559 -13.6924 -51.2129 -21.0752 -77.96 -21.3545
c-0.385742 -0.00292969 -0.777344 -0.00585938 -1.16602 -0.00585938c-36.7656 0 -85.1592 18.0039 -102.317 69.0176c-11.7354 34.8877 -5.77051 76.7334 18.2393 127.93c20.1602 42.9961 44.208 82.9697 69.6572 121.235
c-23.5879 83.1035 -31.1865 173.423 -20.9219 260.61c7.80957 66.3398 29.6074 159.005 89.0928 223.722c29.873 32.501 63.2549 50.2393 96.5381 51.2988c41.6709 1.33594 80.0518 -25.624 95.3975 -67.0674c12.0117 -32.4375 10.4023 -72.4961 -4.91895 -122.469
c-34.0039 -110.901 -97.9023 -199.92 -159.695 -286.007c-15.877 -22.1201 -31.9424 -44.501 -47.5781 -67.3857c10.3311 -32.1689 23.2871 -62.9619 38.7422 -91.6689c17.8418 -33.1357 38.334 -61.5771 60.3916 -84.3301
c0.493164 0.703125 0.986328 1.41797 1.47656 2.12988c36.9404 53.6055 66.5146 117.351 85.5225 184.348c11.7627 41.4629 17.0049 75.5537 16.4902 107.291c-0.194336 12.0938 9.44922 22.0547 21.543 22.252c12.2305 0.166992 22.0547 -9.45215 22.249 -21.543
c0.585938 -36.1416 -5.18164 -74.2588 -18.1484 -119.956zM166.294 499.148c-8.13574 -69.1016 -4.29297 -140.233 10.4609 -207.507c8.95117 12.6631 17.9434 25.1924 26.8779 37.6367c62.4824 87.0537 121.503 169.275 153.401 273.309
c12.4004 40.4443 14.2725 71.3301 5.7207 94.4199c-8.47168 22.876 -29.4863 38.5283 -51.4648 38.5283c-0.490234 0 -0.977539 -0.0078125 -1.46777 -0.0244141c-20.9434 -0.665039 -44.2715 -13.8623 -65.6855 -37.1602
c-40.2285 -43.7617 -67.8701 -114.509 -77.8428 -199.202zM215.738 -15.0215c15.9531 9.00293 31.7539 22.3467 47.7451 40.375c-26.3936 26.3086 -50.6055 59.4502 -71.6689 98.5781c-11.4043 21.1787 -21.5459 43.4111 -30.377 66.4346
c-17.4092 -27.8145 -33.6523 -56.5352 -47.7197 -86.5342c-18.9893 -40.4941 -24.3467 -71.6914 -16.3809 -95.375c9.85156 -29.2871 39.3193 -39.4072 61.5166 -39.1777c19.375 0.200195 39.0459 5.63086 56.8848 15.6992z" />
    <glyph glyph-name="quotesingle" unicode="'" horiz-adv-x="146" 
d="M93.7686 751.181c1.70215 -32.6455 2.42578 -65.791 2.14648 -98.5107c-0.104492 -12.0283 -9.8877 -21.71 -21.8936 -21.71h-0.19043c-12.0938 0.104492 -21.8145 9.99219 -21.71 22.0859c0.270508 31.8379 -0.430664 64.0869 -2.08984 95.8516
c-0.629883 12.0771 8.64941 22.3809 20.7266 23.0107c12.0801 0.634766 22.3809 -8.64746 23.0107 -20.7275z" />
    <glyph glyph-name="quotesingle" unicode="&#x2019;" horiz-adv-x="146" 
d="M93.7686 751.181c1.70215 -32.6455 2.42578 -65.791 2.14648 -98.5107c-0.104492 -12.0283 -9.8877 -21.71 -21.8936 -21.71h-0.19043c-12.0938 0.104492 -21.8145 9.99219 -21.71 22.0859c0.270508 31.8379 -0.430664 64.0869 -2.08984 95.8516
c-0.629883 12.0771 8.64941 22.3809 20.7266 23.0107c12.0801 0.634766 22.3809 -8.64746 23.0107 -20.7275z" />
    <glyph glyph-name="quotesingle" unicode="&#x2018;" horiz-adv-x="146" 
d="M93.7686 751.181c1.70215 -32.6455 2.42578 -65.791 2.14648 -98.5107c-0.104492 -12.0283 -9.8877 -21.71 -21.8936 -21.71h-0.19043c-12.0938 0.104492 -21.8145 9.99219 -21.71 22.0859c0.270508 31.8379 -0.430664 64.0869 -2.08984 95.8516
c-0.629883 12.0771 8.64941 22.3809 20.7266 23.0107c12.0801 0.634766 22.3809 -8.64746 23.0107 -20.7275z" />
    <glyph glyph-name="parenleft" unicode="(" horiz-adv-x="351" 
d="M295.026 -90.041c8.12988 -8.9541 7.46191 -22.8037 -1.48926 -30.9365c-18.543 -16.8379 -41.6924 -25.0771 -65.6855 -25.0771c-30.7373 0 -62.8574 13.5254 -88.4521 39.8174c-32.5635 33.4502 -55.6504 84.0449 -70.585 154.672
c-26.292 124.353 -20.3877 253.395 -10.0957 374.32c12.0605 141.658 32.3193 289.533 98.3447 411.308c30.4805 56.2197 62.5869 56.5264 79.0088 51.7031c11.6035 -3.4082 18.25 -15.5781 14.8418 -27.1816s-15.5762 -18.25 -27.1826 -14.8418
c-3.26562 0.958008 -14.4453 -5.24805 -28.168 -30.5547c-62.1924 -114.706 -81.5508 -257.224 -93.2061 -394.146c-10.0078 -117.577 -15.8086 -242.754 9.30664 -361.544c13.167 -62.2773 32.5039 -105.843 59.1162 -133.181
c25.0576 -25.7451 65.1572 -38.4297 93.3105 -12.8652c8.95703 8.12988 22.8027 7.46191 30.9355 -1.49219z" />
    <glyph glyph-name="parenright" unicode=")" horiz-adv-x="351" 
d="M291.994 422.756c10.2949 -120.923 16.1992 -249.962 -10.0898 -374.314c-14.9346 -70.6289 -38.0215 -121.221 -70.585 -154.671c-25.5918 -26.292 -57.7178 -39.8174 -88.4531 -39.8174c-23.9961 -0.00292969 -47.1406 8.23633 -65.6865 25.0762
c-8.9541 8.12695 -9.62207 21.9775 -1.49219 30.9316c8.13281 8.9541 21.9814 9.62207 30.9355 1.49219c28.1533 -25.5645 68.25 -12.8799 93.3105 12.8652c26.6123 27.3379 45.9492 70.9033 59.1182 133.184c25.1123 118.787 19.3145 243.967 9.30664 361.544
c-11.6582 136.923 -31.0166 279.44 -93.209 394.144c-13.7227 25.3066 -24.877 31.5127 -28.1641 30.5576c-11.5986 -3.41113 -23.7744 3.23535 -27.1826 14.8389s3.23535 23.7734 14.8418 27.1816c16.4072 4.82031 48.5166 4.52148 79.0049 -51.7041
c66.0273 -121.774 86.2891 -269.649 98.3447 -411.308z" />
    <glyph glyph-name="asterisk" unicode="*" horiz-adv-x="342" 
d="M271.359 621.124c12.0693 -0.796875 21.208 -11.2275 20.417 -23.3018c-0.763672 -11.5762 -10.3936 -20.4561 -21.8301 -20.4561c-0.487305 0 -0.974609 0.0166016 -1.46484 0.0498047c-17.6777 1.16602 -35.5225 2.33496 -53.4385 3.25977
c14.5957 -19.3916 29.457 -38.4434 44.543 -57.0049c7.62891 -9.38379 6.20508 -23.1777 -3.18164 -30.8066c-4.05957 -3.29883 -8.94531 -4.90527 -13.7988 -4.90527c-6.36719 0 -12.6797 2.76172 -17.0078 8.08887c-12.2334 15.0498 -24.3213 30.417 -36.248 46.0146
c-0.952148 -29.4316 -0.976562 -58.9209 1.13379 -87.8682c0.881836 -12.0605 -8.18457 -22.5527 -20.248 -23.4316c-0.541992 -0.0410156 -1.08105 -0.0605469 -1.61523 -0.0605469c-11.374 0 -20.9795 8.78711 -21.8203 20.3086
c-2.14062 29.3555 -2.21973 58.8145 -1.36328 88.0469c-13.3936 -16.9473 -26.8066 -33.8203 -40.2119 -50.5811c-4.3252 -5.40625 -10.6895 -8.2207 -17.1143 -8.2207c-4.79883 0 -9.62793 1.56543 -13.665 4.7959c-9.44434 7.55469 -10.9775 21.335 -3.42285 30.7812
c17.4863 21.8633 34.9805 43.9238 52.4365 66.0908c-16.3828 -0.632812 -32.6924 -1.84863 -48.8564 -3.85742c-12.0029 -1.48926 -22.9414 7.0293 -24.4336 19.0322c-1.49219 12.001 7.0293 22.9395 19.0303 24.4316c19.7852 2.46094 39.5898 3.79688 59.3564 4.38574
c-1.29785 1.8916 -2.61426 3.76953 -3.90625 5.66406c-6.12891 8.98438 -13.9902 16.6904 -22.3174 24.8447c-7.5498 7.39355 -15.3564 15.042 -22.5527 24.2588c-7.44531 9.53125 -5.75098 23.292 3.78027 30.7373c9.52832 7.44531 23.292 5.75098 30.7373 -3.78027
c5.40625 -6.92285 11.8555 -13.2402 18.6826 -19.9307c6.32031 -6.18945 12.7754 -12.543 18.9209 -19.7969c0.979492 22.2959 1.58203 44.6709 1.25586 66.7207c-0.180664 12.0938 9.47656 22.041 21.5703 22.2217c12.0166 0.194336 22.0439 -9.47949 22.2217 -21.5732
c0.295898 -20.0566 -0.12793 -40.1787 -0.905273 -60.1777c10.4863 13.6074 20.9404 27.2178 31.3262 40.8223c7.33887 9.61328 21.0781 11.4551 30.6943 4.11621c9.61133 -7.33887 11.4561 -21.0801 4.11719 -30.6934c-16.46 -21.5625 -33.0703 -43.1387 -49.7598 -64.6758
c19.7969 -0.977539 39.4678 -2.26367 58.9385 -3.5498z" />
    <glyph glyph-name="plus" unicode="+" horiz-adv-x="355" 
d="M305.168 290.892c0.988281 -12.0557 -7.98633 -22.6299 -20.0439 -23.6182l-96.4531 -7.90527c1.01855 -81.6826 4.44531 -163.321 10.29 -244.33c0.873047 -12.0635 -8.20117 -22.5479 -20.2646 -23.418c-0.536133 -0.0380859 -1.07031 -0.0576172 -1.59863 -0.0576172
c-11.3789 0 -20.9873 8.79785 -21.8193 20.3252c-5.83301 80.8701 -9.29297 162.358 -10.3691 243.898l-71.2256 -5.83887c-0.607422 -0.0488281 -1.21191 -0.0732422 -1.81152 -0.0732422c-11.2832 0 -20.8613 8.66602 -21.7998 20.1113
c-0.988281 12.0527 7.98242 22.627 20.0381 23.6123l74.4805 6.10449c-0.177734 66.6299 1.20508 133.225 4.21387 199.469c0.547852 12.083 10.7881 21.4365 22.8682 20.8838c12.083 -0.549805 21.4336 -10.7871 20.8838 -22.8701
c-2.92383 -64.3936 -4.29492 -129.124 -4.1748 -193.893l93.1738 7.6377c12.0303 0.982422 22.624 -7.98242 23.6123 -20.0381z" />
    <glyph glyph-name="comma" unicode="," horiz-adv-x="186" 
d="M119.025 101.971c11.7539 -2.84668 18.9766 -14.6826 16.1299 -26.4395c-13.5059 -55.7871 -27.6582 -112.144 -42.0537 -167.507c-2.5625 -9.85742 -11.4482 -16.3945 -21.1797 -16.3945c-1.82324 0 -3.67871 0.229492 -5.52637 0.710938
c-11.7051 3.04395 -18.7266 15.001 -15.6826 26.7061c14.3359 55.1279 28.4248 111.244 41.876 166.793c2.84375 11.7539 14.6689 18.9775 26.4365 16.1309z" />
    <glyph glyph-name="hyphen" unicode="-" horiz-adv-x="233" 
d="M162.76 329.617c12.0605 -0.892578 21.1123 -11.3916 20.2256 -23.4492c-0.889648 -12.0635 -11.3818 -21.1104 -23.4531 -20.2266c-27.6387 2.04199 -55.4717 -0.0957031 -82.7275 -6.35352c-1.64746 -0.380859 -3.29785 -0.561523 -4.9209 -0.561523
c-9.97754 0 -18.9941 6.8623 -21.3232 17.001c-2.70996 11.7871 4.65332 23.5361 16.4404 26.2432c31.5293 7.24023 63.7451 9.71191 95.7588 7.34668z" />
    <glyph glyph-name="period" unicode="." horiz-adv-x="145" 
d="M74.2402 32.8691c12.083 -0.517578 21.459 -10.7314 20.9443 -22.8115l-1.40723 -32.9033c-0.503906 -11.7627 -10.1992 -20.9629 -21.8633 -20.9629c-0.317383 0 -0.631836 0.0078125 -0.952148 0.0214844c-12.085 0.514648 -21.46 10.7275 -20.9424 22.8125
l1.40723 32.9004c0.514648 12.083 10.709 21.4609 22.8135 20.9434z" />
    <glyph glyph-name="slash" unicode="/" horiz-adv-x="336" 
d="M270.701 758.861c11.4639 -3.85938 17.6299 -16.2803 13.7705 -27.7412c-91.7725 -272.613 -155.975 -559.343 -190.824 -852.226c-1.3252 -11.1328 -10.7803 -19.3145 -21.7188 -19.3145c-0.862305 0 -1.73535 0.0517578 -2.61426 0.15625
c-12.0117 1.43164 -20.5879 12.3232 -19.1592 24.335c35.2021 295.87 100.075 585.559 192.806 861.021c3.85742 11.4639 16.2793 17.626 27.7402 13.7686z" />
    <glyph glyph-name="zero" unicode="0" horiz-adv-x="408" 
d="M278.297 701.425c29.6729 -38.1338 44.3066 -87.584 53.7451 -126.402c33.2559 -136.838 34.835 -285.966 4.56836 -431.271c-8.51855 -40.8906 -20.8066 -87.6611 -47.373 -124.544c-23.9404 -33.2422 -57.5742 -52.0557 -89.8262 -52.0586
c-9.67969 -0.00292969 -19.2275 1.69141 -28.3594 5.19824c-19.0352 7.30566 -36.7354 22.2354 -52.6123 44.375c-19.501 27.1953 -34.6416 62.2441 -46.2783 107.153c-31.3535 120.975 -23.3525 252.937 -10.1201 371.467
c-4.25391 2.83008 -7.54102 7.15234 -8.98926 12.4688c-5.45312 20.0127 -2.64453 39.79 0.988281 59.9785c6.22461 34.5889 13.5254 71.0752 28.1514 103.573c17.8174 39.5957 44.3154 67.0566 74.6074 77.3213c40.7295 13.8047 88.417 -4.74609 121.498 -47.2598z
M293.732 152.681c28.9502 138.976 27.4795 281.437 -4.25195 411.989c-8.40137 34.5703 -21.1953 78.2969 -45.752 109.855c-16.2959 20.9434 -45.1582 42.0674 -72.8711 32.6758c-18.3789 -6.23047 -36.1387 -25.8438 -48.7246 -53.8164
c-12.5947 -27.9863 -19.0059 -60.1279 -24.9873 -93.3564c-0.525391 -2.9209 -1.02637 -5.78125 -1.47266 -8.57324c9.39746 -3.38379 15.5596 -12.9043 14.3057 -23.2383c-15.6904 -129.548 -28.2627 -266.632 4.58008 -393.357
c10.2598 -39.5879 23.1719 -69.8818 39.4727 -92.6152c10.6514 -14.8525 21.9648 -24.8848 32.7168 -29.0127c23.9268 -9.18359 50.8652 9.23926 66.9502 31.5703c21.7725 30.2256 32.4541 71.4941 40.0342 107.879z" />
    <glyph glyph-name="one" unicode="1" horiz-adv-x="349" 
d="M275.126 -12.5781c12.0527 0.985352 22.6211 -7.99512 23.6064 -20.0527c0.982422 -12.0557 -7.99023 -22.625 -20.0459 -23.6074c-45.0732 -3.67578 -90.7656 -7.90234 -135.806 -12.5645c-0.766602 -0.0761719 -1.52734 -0.117188 -2.28027 -0.117188
c-11.084 0 -20.5908 8.38184 -21.7568 19.6465c-1.24512 12.0303 7.49805 22.791 19.5283 24.0361c16.2188 1.67773 32.5303 3.2793 48.8584 4.83984c2.17383 82.2822 4.4707 170.853 6.77246 259.45c2.43652 93.8145 4.87305 187.643 7.15918 274.022
c1.33594 50.4854 2.71875 102.687 -4.3877 152.424c-3.62695 25.3887 -9.27148 34.3184 -13.3662 37.3408c-3.69824 2.72949 -9.66797 0.717773 -13.6592 -1.83301c-8.58691 -5.49121 -16.4102 -16.1367 -23.582 -26.8232
c-21.3955 -31.874 -39.4893 -67.1836 -53.7812 -104.939c-4.28125 -11.3105 -16.9219 -17.0098 -28.2324 -12.7285s-17.0098 16.9219 -12.7285 28.2324c15.4766 40.8877 35.1172 79.1914 58.377 113.847c9.81348 14.623 21.0117 29.5088 36.3574 39.3164
c20.9795 13.4102 45.2109 13.4785 63.2422 0.183594c21.0479 -15.5205 27.4775 -43.6357 30.7295 -66.3965c7.62891 -53.3945 6.19727 -107.474 4.81445 -159.773c-2.28613 -86.3721 -4.72266 -180.195 -7.15918 -274.005
c-2.25293 -86.7354 -4.50293 -173.452 -6.63574 -254.262c14.6914 1.30566 29.3691 2.57324 43.9756 3.76367z" />
    <glyph glyph-name="two" unicode="2" horiz-adv-x="379" 
d="M304.701 -37.4775c12.0195 1.15234 22.7324 -7.6709 23.8877 -19.7148c1.14941 -12.0391 -7.68164 -22.7314 -19.7207 -23.8809c-62.5596 -5.97266 -95.0742 -9.07715 -125.33 -9.07715c-17.7686 0 -34.7598 1.07031 -56.6016 3.25977
c-22.9805 2.30176 -30.0732 17.3926 -32.0547 23.7734c-3.71777 11.9736 0.349609 23.1172 1.68555 26.7793c5.07812 13.917 12.7705 25.3428 19.5596 35.4248l1.47266 2.1875c98.126 146.213 153.67 340.1 152.386 531.941
c-0.256836 38.3945 -2.66016 82.625 -18.5254 119.574c-7.99316 18.6143 -18.2969 31.7725 -29.0166 37.0527c-7.10938 3.50098 -16.0469 4.2373 -26.5635 2.18945c-24.8496 -4.83984 -49.4443 -23.3857 -67.4785 -50.8799
c-17.7764 -27.1055 -29.3496 -62.1084 -33.4668 -101.228c-2.2998 -21.8525 -1.07031 -38.3838 3.75879 -50.5352c1.67285 -4.20996 4.03809 -7.23438 5.65332 -8.71777c10.2324 2.5459 21.0967 -2.62207 25.3887 -12.627
c4.76855 -11.1133 -0.375 -23.9902 -11.4912 -28.7588c-9.33203 -4.00195 -19.8047 -3.98828 -29.4951 0.0351562c-12.9668 5.38672 -24.4639 18.0576 -30.7568 33.8984c-7.6123 19.1611 -9.71484 41.8096 -6.61328 71.2852
c4.84277 46.0283 18.8145 87.7539 40.4014 120.665c24.4688 37.3105 59.3594 62.7676 95.7275 69.8516c20.1328 3.91992 38.3965 1.93848 54.292 -5.89355c25.7285 -12.6768 41.3369 -39.1113 49.9023 -59.0586c18.9424 -44.1182 21.7891 -93.79 22.0762 -136.562
c1.34082 -200.421 -56.9102 -403.309 -159.815 -556.645l-1.50781 -2.24219c-4.31152 -6.40039 -8.44531 -12.54 -11.6289 -18.8438c47.9805 -4.31934 71.582 -2.06641 163.875 6.74512z" />
    <glyph glyph-name="three" unicode="3" horiz-adv-x="376" 
d="M295.748 276.193c27.7871 -53.8604 36.8389 -123.859 24.2119 -187.243c-9.81934 -49.2939 -32.082 -93.9727 -62.6855 -125.803c-27.5977 -28.7041 -60.627 -44.2715 -92.1338 -44.2715c-8.49414 0 -16.876 1.13086 -25.0117 3.44141
c-48.4131 13.7471 -84.7461 71.6289 -82.7119 131.776c2.04492 60.5225 42.5195 114.659 92.1396 123.246c11.916 2.06152 23.251 -5.92578 25.3125 -17.8438s-5.92578 -23.251 -17.8438 -25.3125c-28.9424 -5.00684 -54.5117 -42.3633 -55.8369 -81.5732
c-1.33887 -39.5742 21.9697 -79.9502 50.9004 -88.1621c22.4707 -6.37793 49.9863 4.48145 73.6074 29.0518c24.8799 25.876 43.0996 62.8135 51.3066 104.005c10.7549 53.9775 3.21094 113.269 -20.1768 158.607c-22.7998 44.1973 -61.5146 75.2002 -101.034 80.9023
c-8.72949 1.25879 -15.8496 7.63379 -18.0664 16.1689c-2.2168 8.53809 0.90332 17.5684 7.91602 22.917c61.251 46.7129 99.1006 142.865 92.0439 233.825c-3.53711 45.5879 -20.4131 82.3945 -41.9941 91.584c-21.707 9.24707 -45.8203 -10.1611 -52.6934 -16.3281
c-25.8682 -23.2158 -44.3232 -61.1172 -49.3652 -101.384c-1.50293 -12.001 -12.4355 -20.5137 -24.4502 -19.0078c-12.001 1.50293 -20.5117 12.4492 -19.0088 24.4502c6.4082 51.1826 29.5801 98.0322 63.5693 128.537c31.3428 28.126 68.3896 37.1104 99.1084 24.0283
c56.165 -23.916 66.6299 -104.395 68.499 -128.488c7.08105 -91.2607 -24.043 -184.509 -79.2852 -244.656c38.0762 -16.9961 71.5566 -49.5762 93.6826 -92.4678z" />
    <glyph glyph-name="four" unicode="4" horiz-adv-x="394" 
d="M131.784 280.576c-30.0645 0 -53.9932 5.78223 -67.9561 23.4873c-15.0176 19.0439 -14.6592 44.9365 -13.1094 58.6758c2.02051 17.9082 7.91113 33.8232 13.1094 47.8633c43.0391 116.267 88.9414 233.037 133.33 345.964
c4.42383 11.2559 17.1357 16.7939 28.3916 12.3701c11.2588 -4.42383 16.7939 -17.1357 12.3701 -28.3916c-44.3125 -112.725 -90.1328 -229.287 -133.019 -345.143c-4.54395 -12.2715 -9.23828 -24.959 -10.6621 -37.5703
c-1.29492 -11.4775 0.268555 -21.9365 3.98047 -26.6445c0.941406 -1.19336 7.05664 -7.13379 35.6016 -6.80566c23.1826 0.265625 52.0371 4.4043 82.583 8.78711c20.9463 3.00586 42.4287 6.08008 63.0625 8.01562c-2.18164 131.757 -1.38281 263.93 2.44629 394.918
c0.350586 12.0879 10.4346 21.6143 22.5283 21.25c12.0908 -0.353516 21.6035 -10.4404 21.25 -22.5283c-5.77051 -197.333 -4.66992 -397.379 3.26855 -594.581c2.39551 -59.54 5.35449 -117.712 15.0801 -174.791c2.03125 -11.9209 -5.98633 -23.2344 -17.9072 -25.2656
c-1.24512 -0.210938 -2.48535 -0.31543 -3.70605 -0.31543c-10.4814 0 -19.7422 7.54395 -21.5625 18.2227c-10.167 59.6465 -13.2139 119.362 -15.6689 180.386c-2.12402 52.7598 -3.74414 105.725 -4.89355 158.783c-18.666 -1.8584 -38.4053 -4.68066 -57.6787 -7.44531
c-33.2695 -4.77148 -64.4238 -9.24121 -90.8389 -9.24121z" />
    <glyph glyph-name="five" unicode="5" horiz-adv-x="400" 
d="M139.8 220.787c-15.625 -29.9219 -30.3545 -59.4277 -38.8789 -91.375c-9.15332 -34.2939 -9.54785 -67.8379 -1.1084 -94.4502c10.2764 -32.4023 35.1289 -57.1807 63.3125 -63.123c25.9746 -5.47754 55.7051 4.77637 79.5391 27.4248
c23.4756 22.3066 42.3574 56.8408 53.1758 97.2412c14.7324 55.0264 14.3057 118.057 -1.2041 177.481c-10.2871 39.415 -25.1396 68.707 -44.1504 87.0664c-17.5547 16.9521 -40.6055 25.8545 -64.9297 25.0527c-22.5176 -0.739258 -46.8037 -9.74512 -70.2305 -26.043
c-3.3291 -2.31348 -12.1602 -8.45898 -23.8105 -6.11035c-5.69336 1.14941 -24.2412 7.28125 -23.751 37.9893c1.81445 113.795 4.99023 212.999 10.2354 319.192c-1.77344 -0.0136719 -3.55566 -0.0517578 -5.3291 -0.0625h-0.158203
c-12.0225 0 -21.8115 9.70117 -21.8965 21.7432c-0.0849609 12.0967 9.64941 21.9707 21.7432 22.0557c72.0605 0.508789 145.052 3.87305 216.943 9.99902c12.042 1.02637 22.6523 -7.91113 23.6787 -19.9609s-7.91113 -22.6514 -19.9609 -23.6777
c-56.6934 -4.83105 -114.058 -7.94922 -171.134 -9.35352c-5.02344 -101.14 -8.16602 -195.772 -10.0303 -302.622c23.8857 12.7832 48.5029 19.8506 72.2627 20.6309c36.2695 1.19043 70.6367 -12.0635 96.7891 -37.3213
c24.8799 -24.0254 43.7568 -60.1992 56.1025 -107.509c17.3936 -66.6514 17.7959 -137.631 1.13379 -199.867c-13.0596 -48.7852 -35.6455 -89.4736 -65.3105 -117.666c-28.0938 -26.6973 -61.7275 -40.9971 -95.0469 -40.9971
c-7.94629 0 -15.8682 0.810547 -23.7002 2.46387c-43.3652 9.14258 -81.0557 45.5469 -96.0234 92.7393c-10.9326 34.4717 -10.7412 76.7285 0.541992 118.987c9.68164 36.2646 25.5664 68.1553 42.3711 100.341c5.59766 10.7227 18.8271 14.875 29.5469 9.27734
c10.7227 -5.59766 14.875 -18.8271 9.27734 -29.5469z" />
    <glyph glyph-name="six" unicode="6" horiz-adv-x="368" 
d="M71.8525 48.0518c-17.0947 46.1377 -20.4639 96.7891 -21.5039 140.247c-3.50098 146.278 19.46 287.507 66.3975 408.413c29.3447 75.5869 62.6172 118.281 104.715 134.363c26.415 10.0869 51.3086 2.64648 63.4219 -18.957
c5.91504 -10.5498 2.15625 -23.8945 -8.39355 -29.8096c-10.5469 -5.91797 -23.8945 -2.15918 -29.8096 8.39062c-0.271484 0.481445 -0.444336 0.634766 -0.444336 0.634766c-0.59668 0.353516 -4.0459 0.775391 -9.14844 -1.17383
c-28.8896 -11.0371 -55.6445 -47.8105 -79.5146 -109.3c-42.2871 -108.928 -64.2051 -235.445 -63.7695 -367.314c19 34.5615 42.6777 71.2334 66.8926 92.5791c39.3027 34.6436 84.584 39.3896 115.363 12.0898c18.0059 -15.9697 30.0254 -41.6348 36.7451 -78.4551
c7.19141 -39.4043 7.51172 -82.3779 0.925781 -124.275c-7.34961 -46.7705 -22.665 -86.6074 -44.29 -115.202c-24.0527 -31.8027 -56.0332 -49.5713 -87.9287 -49.5742c-5.16309 0 -10.3145 0.46582 -15.4385 1.41309c-39.4395 7.28125 -74.6611 43.1436 -94.2197 95.9307z
M189.661 273.272c-30.9023 -27.2393 -66.8203 -93.8623 -91.0537 -149.118c2.74316 -20.7764 7.14746 -41.5312 14.3164 -60.8789c13.7227 -37.0391 37.707 -63.7607 61.1035 -68.0801c19.8408 -3.66016 43.0127 8.41113 60.4824 31.5117
c17.2861 22.8594 29.7217 55.9102 35.9551 95.5801c5.83008 37.0938 5.57324 74.998 -0.744141 109.614c-6.01074 32.9355 -15.6738 47.3008 -22.7227 53.5527c-20.6426 18.3125 -51.3828 -6.93457 -57.3369 -12.1816z" />
    <glyph glyph-name="seven" unicode="7" horiz-adv-x="394" 
d="M318.22 684.902c0.851562 -33.1299 -4.66992 -65.623 -10.4023 -96.0625c-11.8828 -63.126 -26.1445 -126.041 -41.0381 -188.042c18.165 1.49219 36.3438 2.47168 54.4814 2.81152c12.0469 0.210938 22.0762 -9.3916 22.3037 -21.4854
s-9.39453 -22.0771 -21.4854 -22.3047c-22.0498 -0.410156 -44.1562 -1.77637 -66.2275 -3.97949c-4.75977 -19.3887 -9.53613 -38.6982 -14.2852 -57.8457c-26.4482 -106.645 -53.7969 -216.919 -72.7559 -327.532c-1.82617 -10.6699 -11.0869 -18.2031 -21.5576 -18.2031
c-1.22949 0 -2.47266 0.104492 -3.72656 0.318359c-11.918 2.04492 -19.9248 13.3643 -17.8828 25.2852c19.2295 112.196 46.7754 223.265 73.415 330.676c3.39746 13.7031 6.81055 27.4883 10.2217 41.3145c-15.7861 -2.48242 -31.5205 -5.3623 -47.1484 -8.75098
c-1.56348 -0.339844 -3.12402 -0.503906 -4.66211 -0.503906c-10.084 0 -19.1553 7.00781 -21.3809 17.2646c-2.5625 11.8203 4.94043 23.4785 16.7607 26.043c22.3916 4.85352 44.9805 8.78418 67.6562 11.8691c16.085 66.3838 31.5918 133.794 44.2744 201.171
c5.29395 28.124 10.4014 57.9941 9.65918 86.832c-0.118164 4.63477 -0.482422 18.7324 -5.0625 26.4951c-2.86035 4.84766 -8.4668 9.91406 -28.3672 10.7705c-54.0459 2.32422 -108.826 -11.1084 -158.419 -38.8379c-10.5576 -5.90137 -23.8994 -2.12695 -29.8008 8.42871
c-5.9043 10.5576 -2.12988 23.8994 8.42578 29.8008c56.6875 31.6963 119.499 47.0361 181.675 44.3672c11.4609 -0.495117 46.3428 -1.99219 64.207 -32.2725c9.17285 -15.5479 10.7637 -33.6201 11.1221 -47.627z" />
    <glyph glyph-name="eight" unicode="8" horiz-adv-x="370" 
d="M118.097 414.594c-8.75684 12.6055 -17.2109 26.2627 -24.2461 41.4355c-35.8018 77.2178 -23.8262 182.217 27.8574 244.237c24.0098 28.8076 52.5361 43.499 80.2959 41.3525c38.5967 -2.97852 72.5781 -37.8359 93.2314 -95.6328
c18.5322 -51.8535 26.7119 -113.715 23.6602 -178.896c-2.79199 -59.6582 -20.1309 -132.842 -45.4922 -192.599c22.3447 -41.0605 44.7256 -98.6816 42.6592 -162.451c-2.41699 -74.6338 -40.7842 -139.093 -93.3027 -156.754
c-10.0928 -3.39453 -20.5771 -5.06738 -31.127 -5.06738c-21.2031 0 -42.6807 6.75 -61.8555 19.8398c-25.0547 17.1025 -46.1211 45.1162 -59.3184 78.8789c-9.86035 25.2246 -16.0195 54.7334 -18.8281 90.21c-6.06055 76.5332 4.84277 153.62 31.5264 222.925
c7.28711 18.9287 17.1357 39.9648 34.9395 52.5215zM272.285 113.463c1.99805 61.6699 -23.5742 117.841 -45.374 154.103c-19.1064 31.7803 -41.2734 59.71 -64.7432 89.2812c-5.89355 7.42383 -11.8965 14.9902 -17.8799 22.6631
c-0.303711 -0.241211 -0.618164 -0.473633 -0.941406 -0.701172c-8.28906 -5.83887 -14.6777 -20.4209 -19.3174 -32.4707c-24.001 -62.332 -34.2061 -134.683 -28.7393 -203.729c2.4668 -31.1318 7.68652 -56.5566 15.959 -77.7217
c10.0215 -25.6377 25.3701 -46.4688 43.2207 -58.6523c17.2783 -11.7949 37.0801 -15.2334 54.3252 -9.43262c34.417 11.5762 61.7109 61.7275 63.4902 116.661zM155.354 672.224c-40.8799 -49.0557 -50.4404 -135.928 -21.7725 -197.772
c8.61426 -18.5732 20.4121 -35.2822 31.8789 -50.5674c10.0684 -13.4209 20.7139 -26.834 31.0088 -39.8066c16.0742 -20.2539 32.5254 -40.9814 47.9365 -63.1211c17.0479 48.5498 28.6436 103.516 30.7354 148.184c2.78906 59.5264 -4.52539 115.585 -21.1523 162.109
c-13.9385 38.999 -35.665 65.1816 -55.3574 66.7012c-0.634766 0.0488281 -1.27539 0.0732422 -1.92383 0.0732422c-12.6523 0 -27.5957 -9.29102 -41.3535 -25.7998z" />
    <glyph glyph-name="nine" unicode="9" horiz-adv-x="384" 
d="M206.913 -92.2051c-28.1562 0 -57.1084 16.3584 -76.7432 44.8184c-18.4248 26.7031 -29.3633 62.417 -32.5088 106.154c-0.865234 12.0635 8.20898 22.5449 20.2725 23.4131c12.083 0.868164 22.5449 -8.20605 23.4131 -20.2695
c2.54297 -35.334 11.1406 -64.5254 24.8711 -84.4229c11.3604 -16.4629 30.8506 -30.4668 48.7666 -24.6504c11.0645 3.59375 22.4521 14.8828 31.2393 30.9707c9.8623 18.0635 15.6875 39.793 20.084 58.667c27.1816 116.696 24.6357 242.886 22.1748 364.92
c-0.394531 19.5859 -0.802734 39.8369 -1.08203 59.7158c-0.0791016 5.61133 -0.150391 11.2314 -0.21875 16.8564v0.0654297c-3.83789 -19.7471 -8.12988 -39.9375 -13.0107 -60.7549c-9.05762 -38.6436 -20.8145 -82.6846 -45.7822 -116.315
c-21.7207 -29.2598 -51.4453 -45.3252 -79.9795 -45.3252c-12.335 0 -24.4453 3.00293 -35.5947 9.23828c-39.7598 22.2383 -54.2461 75.3926 -59.3975 116.064c-8.67773 68.5137 -0.707031 140.975 22.4404 204.04c14.8994 40.5977 34.3428 72.5811 57.7832 95.0576
c30.0537 28.8213 66.959 41.498 101.239 34.7803c14.1875 -2.78125 27.5762 -9.07715 39.333 -18.0146c2.60547 2.6084 5.89062 4.60352 9.70117 5.64355c11.667 3.18359 23.709 -3.68945 26.8955 -15.3564c18.4229 -67.4707 19.3096 -139.209 20.166 -208.585
c0.0683594 -5.60352 0.139648 -11.1982 0.21582 -16.7852c0.279297 -19.7441 0.68457 -39.9268 1.0791 -59.4473c2.51562 -124.728 5.11621 -253.703 -23.3086 -375.737c-5.06641 -21.751 -11.915 -47.041 -24.3018 -69.7227
c-14.2998 -26.1855 -34.2441 -44.5205 -56.1514 -51.6348c-7.02441 -2.28027 -14.2871 -3.38379 -21.5957 -3.38379zM231.528 433.271c18.7266 79.8652 29.4512 150.902 32.6562 216.454c-9.11523 14.5596 -22.8818 25.1973 -37.7236 28.1045
c-3.2168 0.629883 -6.50684 0.942383 -9.83789 0.942383c-17.4775 0 -36.1846 -8.55176 -52.666 -24.3545c-18.5918 -17.8252 -34.3975 -44.249 -46.9834 -78.5371c-20.7764 -56.6084 -27.918 -121.758 -20.1055 -183.447
c5.40918 -42.7217 19.0137 -73.0977 37.3262 -83.3408c19.1289 -10.6973 44.1729 3.95898 59.0283 23.9717c19.9795 26.9141 30.25 65.8369 38.3057 100.207z" />
    <glyph glyph-name="colon" unicode=":" horiz-adv-x="149" 
d="M70.7041 461.292c-12.0771 0.662109 -21.3291 10.9893 -20.6689 23.0693l3.45703 62.9404c0.665039 12.0742 10.9736 21.332 23.0674 20.667c12.0771 -0.662109 21.3291 -10.9902 20.667 -23.0674l-3.45703 -62.9424
c-0.640625 -11.6689 -10.3008 -20.6992 -21.8467 -20.6992c-0.402344 0 -0.810547 0.0107422 -1.21875 0.0322266zM96.2598 173.688c2.32129 -19.7744 2.97363 -39.9131 1.9248 -59.8545c-0.610352 -11.6855 -10.2812 -20.7549 -21.8496 -20.7549
c-0.388672 0 -0.771484 0.0107422 -1.16602 0.0302734c-12.0771 0.632812 -21.3516 10.9365 -20.7217 23.0166c0.916992 17.4805 0.347656 35.1279 -1.68652 52.4521c-1.41016 12.0117 7.18262 22.8926 19.1943 24.3047c12.042 1.41016 22.8926 -7.18262 24.3047 -19.1943z
" />
    <glyph glyph-name="semicolon" unicode=";" horiz-adv-x="176" 
d="M77.9102 497.88c-1.45117 6.99121 -2.53906 14.1797 -3.24219 21.3652c-1.17188 12.0361 7.63379 22.7451 19.6699 23.9199c12.0195 1.16895 22.7471 -7.63477 23.9189 -19.6709c0.549805 -5.62793 1.4043 -11.248 2.53711 -16.7061
c2.45801 -11.8418 -5.14648 -23.4375 -16.9883 -25.8955c-1.50293 -0.3125 -3 -0.462891 -4.47559 -0.462891c-10.1611 0 -19.2715 7.11133 -21.4199 17.4502zM106.592 195.501c12.001 -1.5166 20.4971 -12.4697 18.9834 -24.4707
c-6.67871 -52.9053 -17.6777 -105.161 -32.6895 -155.314c-2.8418 -9.49023 -11.5469 -15.625 -20.9717 -15.625c-2.08008 0 -4.19043 0.298828 -6.28711 0.925781c-11.584 3.46777 -18.167 15.6709 -14.6992 27.2578c14.3223 47.8486 24.8174 97.7256 31.1982 148.243
c1.51074 11.998 12.4873 20.5 24.4658 18.9834z" />
    <glyph glyph-name="less" unicode="&#x3c;" horiz-adv-x="351" 
d="M281.617 287.711c11.9951 -1.56543 20.4473 -12.5596 18.8818 -24.5518c-1.44238 -11.0283 -10.8535 -19.0654 -21.6875 -19.0654c-0.944336 0 -1.89648 0.0605469 -2.86035 0.186523c-26.0049 3.39453 -48.2979 4.56934 -69.8574 5.70508
c-39.7871 2.09668 -77.3682 4.07812 -128.494 19.4727c-12.2441 3.6875 -21.8877 13.0957 -25.8018 25.1699c-2.89844 8.9541 -4.79785 26.958 15.0781 46.9678c35.5908 35.8291 76.1943 61.2705 115.462 85.8711c18.4307 11.5488 37.4883 23.4893 55.4258 36.1855
c9.87109 6.98828 23.5391 4.64746 30.5244 -5.22363c6.98828 -9.87109 4.65039 -23.5361 -5.2207 -30.5244c-18.9424 -13.4102 -38.5312 -25.6846 -57.4795 -37.5537c-38.876 -24.3594 -75.5977 -47.3672 -107.639 -79.6211
c-0.435547 -0.4375 -0.824219 -0.850586 -1.18262 -1.24707c42.749 -12.1289 74.7979 -13.8174 111.632 -15.7578c22.3887 -1.17969 45.541 -2.40039 73.2188 -6.01367z" />
    <glyph glyph-name="equal" unicode="=" horiz-adv-x="298" 
d="M77.8584 400.273c-11.1523 0 -20.6826 8.47754 -21.7725 19.8076c-1.1582 12.0391 7.66406 22.7363 19.7031 23.8945c49.2256 4.73242 99.21 8.32617 148.557 10.6748c12.0664 0.575195 22.3428 -8.75098 22.915 -20.8311
c0.577148 -12.083 -8.74902 -22.3428 -20.832 -22.918c-48.6455 -2.31543 -97.918 -5.85742 -146.448 -10.5244c-0.711914 -0.0683594 -1.4209 -0.103516 -2.12207 -0.103516zM248.383 316.932c1.16602 -12.0391 -7.64844 -22.7432 -19.6875 -23.9092
c-51.002 -4.93848 -102.599 -11.5303 -153.354 -19.5977c-1.16602 -0.186523 -2.32422 -0.276367 -3.46582 -0.276367c-10.5801 0 -19.8867 7.68652 -21.6006 18.4658c-1.89746 11.9463 6.24609 23.1699 18.1895 25.0674c51.6377 8.2041 104.124 14.9131 156.011 19.9365
c12.0557 1.17188 22.7422 -7.64746 23.9082 -19.6865z" />
    <glyph glyph-name="greater" unicode="&#x3e;" horiz-adv-x="347" 
d="M293.832 367.524c4.30566 -10.3496 7.29883 -30.9746 -21.0439 -52.9258c-53.5566 -41.4707 -122.752 -62.8906 -183.801 -81.792c-2.15723 -0.667969 -4.33887 -0.985352 -6.48535 -0.985352c-9.3457 -0.00292969 -18.0039 6.03027 -20.9141 15.4277
c-3.57812 11.5518 2.8877 23.8174 14.4424 27.3955c57.4951 17.8008 122.66 37.9746 169.937 74.5811c1.64258 1.27246 2.92383 2.38965 3.91992 3.34473c-17.0508 10.8779 -90.1328 38.46 -184.837 69.6738c-11.4863 3.78613 -17.7305 16.167 -13.9424 27.6533
c3.7832 11.4863 16.1592 17.7305 27.6562 13.9443c77.9707 -25.7041 175.79 -59.9814 198.992 -77.3174c5.51855 -4.12207 12.3291 -10.0078 16.0762 -19z" />
    <glyph glyph-name="question" unicode="?" horiz-adv-x="344" 
d="M286.416 631.099c17.1602 -81.4258 1.10742 -165.446 -14.7998 -229.553c-8.91309 -35.9277 -19.3125 -71.7021 -29.3691 -106.3c-15.8682 -54.5908 -32.2754 -111.038 -42.7432 -168.055c-1.93848 -10.5576 -11.1465 -17.9482 -21.5127 -17.9482
c-1.31152 0 -2.6416 0.120117 -3.97754 0.363281c-11.8965 2.18457 -19.7695 13.5967 -17.585 25.4932c10.8643 59.2012 27.5898 116.735 43.7617 172.372c9.93359 34.1865 20.21 69.5371 28.918 104.622c14.7764 59.5645 29.7773 137.259 14.4482 209.971
c-7.7959 36.9678 -23.8398 63.8486 -41.874 70.1445c-12.7236 4.44531 -27.8691 -1.46973 -38.3232 -7.21777c-22.2461 -12.2334 -41.2295 -32.4492 -53.4629 -56.9209c-13.1973 -26.3965 -18.6689 -58.2646 -15.0117 -87.4336
c1.45117 -11.5518 4.72266 -18.0312 6.32715 -19.7559c10.9443 -4.15527 16.7334 -16.2598 12.9668 -27.4531c-3.85449 -11.4609 -16.2686 -17.6309 -27.7412 -13.7715c-18.8818 6.35352 -31.3145 26.0732 -35.0068 55.5303
c-4.70801 37.5342 2.32422 78.5283 19.293 112.466c16.167 32.3496 41.5752 59.2383 71.5332 75.7148c26.1826 14.3984 51.7246 17.9238 73.8701 10.1904c47.4326 -16.5635 64.957 -77.1709 70.2891 -102.459zM177.95 59.3398
c8.33496 -1.07031 15.4502 -6.59473 18.5703 -14.4238c2.89062 -7.26172 1.62598 -15.1484 -2.66113 -21.0283l-2.38965 -28.46c-0.960938 -11.4287 -10.5332 -20.0674 -21.7979 -20.0674c-0.616211 0 -1.23242 0.0244141 -1.85938 0.0761719
c-12.0527 1.01562 -21.001 11.6035 -19.9883 23.6562l0.0302734 0.37207l3 35.7168c0.202148 2.41113 0.738281 8.75879 5.11523 14.7012c5.0918 6.91992 13.5498 10.5439 21.9805 9.45703z" />
    <glyph glyph-name="at" unicode="@" horiz-adv-x="684" 
d="M613.146 595.188c22.9854 -66.9668 27.2246 -149.775 12.5986 -246.133c-10.8672 -71.6367 -28.2246 -130.082 -53.0576 -178.681c-21.2119 -41.5039 -46.4912 -62.6504 -75.1348 -62.8506c-19.3125 -0.180664 -38.5889 10.0186 -54.4678 28.5889
c-25.9141 30.3076 -39.6719 77.0918 -40.8896 139.052c-0.0244141 1.27246 -0.0185547 2.54492 -0.0351562 3.81738c-12.3643 -38.5088 -26.8037 -76.2051 -45.5381 -111.328c-8.97266 -16.8213 -20.3818 -35.9229 -36.9678 -50.0723
c-14.4062 -12.2881 -31.0986 -18.7646 -47.208 -18.7646c-6.64062 0 -13.1797 1.10059 -19.418 3.34766c-24.127 8.68848 -43.1377 34.5615 -49.6143 67.5244c-5.73242 29.1914 -1.29199 58.9658 2.5459 78.8223c11.1055 57.4541 33.1387 111.697 63.709 156.863
c14.9072 22.0244 38.7227 52.1768 73.2598 59.6768c19.4814 4.23438 37.4355 1.1709 51.9189 -8.85645c8.17676 -5.6582 15.0693 -13.4209 20.667 -23.2178c1.15527 0.361328 2.34082 0.651367 3.57812 0.821289c11.9893 1.63672 23.0234 -6.75879 24.6572 -18.7402
c4.24316 -31.1152 3.46289 -62.3672 2.70996 -92.5898c-0.382812 -15.3184 -0.777344 -31.1592 -0.476562 -46.4443c0.999023 -50.8271 11.5078 -89.3662 30.3896 -111.448c7.10352 -8.30469 14.8691 -13.2539 20.8008 -13.2539h0.0732422
c10.3799 0.0742188 24.001 14.6475 36.4395 38.9854c22.6572 44.3369 38.6074 98.416 48.7578 165.319c13.5527 89.3037 9.93945 165.117 -10.7305 225.339c-26.5801 77.4395 -85.6963 135.192 -150.604 147.136c-43.6494 8.03418 -91.6953 -3.57227 -135.296 -32.6699
c-40.2119 -26.8369 -78.0312 -69.3369 -109.377 -122.909c-60.1533 -102.817 -89.7549 -234.958 -81.209 -362.543c4.24805 -63.4463 17.127 -119.176 38.2783 -165.646c23.3115 -51.2129 57.0088 -90.4609 94.8799 -110.518
c48.3525 -25.6025 98.5254 -18.5322 132.102 -8.0918c39.7441 12.3594 81.0674 36.3467 130.041 75.4912c9.44629 7.55273 23.2266 6.0166 30.7793 -3.43262s6.01758 -23.2295 -3.43164 -30.7793c-53.376 -42.6641 -99.2568 -69.0713 -144.382 -83.1025
c-24.2529 -7.54102 -48.5273 -11.2861 -72.0576 -11.2861c-33.4062 0 -65.3154 7.54688 -93.54 22.4932c-46.376 24.5566 -86.9492 71.1084 -114.246 131.078c-23.3438 51.2871 -37.5127 112.139 -42.1143 180.865c-9.11523 136.117 22.6328 277.387 87.1084 387.587
c35.1699 60.1182 76.5098 106.286 122.864 137.224c53.127 35.457 112.623 49.4199 167.537 39.3164c80.2041 -14.7598 152.471 -83.8398 184.101 -175.99zM317.98 188.271c31.3672 58.8037 50.5127 127.677 68.5898 194.868
c-3.2793 18.7754 -9.12891 31.8516 -16.6455 37.0527c-1.19922 0.829102 -4.22949 2.92578 -10.3418 2.92578c-2.07812 0 -4.51465 -0.241211 -7.35645 -0.857422c-14.1934 -3.08496 -29.7666 -17.0205 -46.2861 -41.4297
c-27.2803 -40.3076 -46.9834 -88.9336 -56.9775 -140.626c-3.14258 -16.2598 -6.83008 -40.3838 -2.57031 -62.0693c3.3125 -16.8516 12.3457 -31.4688 21.4805 -34.7588c7.53906 -2.71582 17.0049 2.11328 23.3584 7.53027c11.0889 9.45996 20.1191 24.9365 26.749 37.3643
z" />
    <glyph glyph-name="A" unicode="A" horiz-adv-x="725" 
d="M-79.0039 160.491c-11.0449 0 -20.54 8.33203 -21.75 19.5605c-2.2334 20.7793 5.86914 43.4443 21.1494 59.1455c12.7207 13.0732 27.8223 19.8154 42.2451 25.1533c64.749 23.9629 131.623 29.334 196.296 34.5264l20.1963 1.62305
c6.35352 29.0977 12.5312 58.1113 18.6572 86.873c21.0117 98.6621 42.7383 200.686 69.9424 299.022c12.1426 43.8936 27.2012 94.4092 52.3193 138.464c12.2988 21.5732 27.1377 34.7422 44.1006 39.1416c16.0273 4.1582 31.458 1.12793 44.625 -8.75977
c57.457 -43.1514 65.3135 -217.616 73.3721 -498.701c0.300781 -10.5283 0.601562 -21.0781 0.911133 -31.6309l1.24316 0.0986328c12.0664 0.97168 22.6133 -8.01758 23.582 -20.0732s-8.02051 -22.6133 -20.0762 -23.582l-3.4248 -0.273438
c4.30566 -136.495 10.6211 -269.219 29.2705 -356.352c5.32129 -24.8525 11.8691 -50.8135 23.6562 -72.2773c10.8184 -19.6953 25.4902 -33.0205 39.251 -35.6426c14.6094 -2.78125 32.123 5.85742 46.8447 23.1133c16.6982 19.5752 28.0117 46.8096 36.8779 70.8711
c23.5088 63.7969 39.6182 133.065 55.1992 200.051c2.74023 11.7812 14.5166 19.1064 26.29 16.3691c11.7812 -2.74023 19.1094 -14.5107 16.3691 -26.29c-15.8848 -68.2939 -32.3086 -138.915 -56.7617 -205.274c-10.2021 -27.6855 -23.4863 -59.335 -44.6514 -84.1494
c-21.3623 -25.041 -48.5166 -38.9824 -74.8086 -38.9824c-4.55762 0 -9.08496 0.416016 -13.5547 1.27051c-26.8428 5.11328 -52.1523 26.1035 -69.4414 57.583c-14.5049 26.4131 -22.0732 56.0752 -28.0928 84.1934c-19.2959 90.1465 -25.7832 224.263 -30.1494 362.007
l-225.752 -18.1318c-16.9307 -75.959 -35.3555 -152.241 -57.4922 -226.289c-17.1387 -57.334 -39.3984 -123.578 -74.5293 -180.206c-28.0332 -45.1855 -59.584 -48.2217 -79.7666 -35.9971c-10.3447 6.26562 -13.6484 19.7305 -7.38281 30.0752
c6.18652 10.2188 19.4023 13.5693 29.6943 7.61035c3.01953 0.911133 11.2676 6.94727 20.2354 21.4004c32.4209 52.2588 53.4707 115.092 69.7852 169.661c20.4805 68.5107 37.8135 139.305 53.75 210.073l-6.77734 -0.544922
c-61.7109 -4.95508 -125.521 -10.082 -184.602 -31.9453c-11.0977 -4.10645 -19.7754 -8.16309 -26.0576 -14.6201c-5.18164 -5.32715 -9.97461 -14.79 -8.99219 -23.9219c1.29492 -12.0254 -7.40723 -22.8242 -19.4326 -24.1162
c-0.796875 -0.0849609 -1.58496 -0.125977 -2.36816 -0.125977zM240.63 378.252c-5.22559 -24.5459 -10.4971 -49.2744 -15.8789 -74.0889l214.598 17.2344c-0.331055 11.3076 -0.657227 22.6104 -0.980469 33.8857c-3.2793 114.372 -6.375 222.399 -15.1562 309.069
c-11.9512 117.978 -30.6523 148.297 -40.7363 155.871c-2.45801 1.84766 -4.24023 2.18457 -7.3252 1.38477c-1.79883 -0.46582 -8.34961 -3.17578 -17.0518 -18.4395c-22.6191 -39.6748 -36.7168 -87.1025 -48.1533 -128.447
c-26.8535 -97.0693 -48.4404 -198.439 -69.3154 -296.47z" />
    <glyph glyph-name="A" unicode="&#xc5;" horiz-adv-x="725" 
d="M-79.0039 160.491c-11.0449 0 -20.54 8.33203 -21.75 19.5605c-2.2334 20.7793 5.86914 43.4443 21.1494 59.1455c12.7207 13.0732 27.8223 19.8154 42.2451 25.1533c64.749 23.9629 131.623 29.334 196.296 34.5264l20.1963 1.62305
c6.35352 29.0977 12.5312 58.1113 18.6572 86.873c21.0117 98.6621 42.7383 200.686 69.9424 299.022c12.1426 43.8936 27.2012 94.4092 52.3193 138.464c12.2988 21.5732 27.1377 34.7422 44.1006 39.1416c16.0273 4.1582 31.458 1.12793 44.625 -8.75977
c57.457 -43.1514 65.3135 -217.616 73.3721 -498.701c0.300781 -10.5283 0.601562 -21.0781 0.911133 -31.6309l1.24316 0.0986328c12.0664 0.97168 22.6133 -8.01758 23.582 -20.0732s-8.02051 -22.6133 -20.0762 -23.582l-3.4248 -0.273438
c4.30566 -136.495 10.6211 -269.219 29.2705 -356.352c5.32129 -24.8525 11.8691 -50.8135 23.6562 -72.2773c10.8184 -19.6953 25.4902 -33.0205 39.251 -35.6426c14.6094 -2.78125 32.123 5.85742 46.8447 23.1133c16.6982 19.5752 28.0117 46.8096 36.8779 70.8711
c23.5088 63.7969 39.6182 133.065 55.1992 200.051c2.74023 11.7812 14.5166 19.1064 26.29 16.3691c11.7812 -2.74023 19.1094 -14.5107 16.3691 -26.29c-15.8848 -68.2939 -32.3086 -138.915 -56.7617 -205.274c-10.2021 -27.6855 -23.4863 -59.335 -44.6514 -84.1494
c-21.3623 -25.041 -48.5166 -38.9824 -74.8086 -38.9824c-4.55762 0 -9.08496 0.416016 -13.5547 1.27051c-26.8428 5.11328 -52.1523 26.1035 -69.4414 57.583c-14.5049 26.4131 -22.0732 56.0752 -28.0928 84.1934c-19.2959 90.1465 -25.7832 224.263 -30.1494 362.007
l-225.752 -18.1318c-16.9307 -75.959 -35.3555 -152.241 -57.4922 -226.289c-17.1387 -57.334 -39.3984 -123.578 -74.5293 -180.206c-28.0332 -45.1855 -59.584 -48.2217 -79.7666 -35.9971c-10.3447 6.26562 -13.6484 19.7305 -7.38281 30.0752
c6.18652 10.2188 19.4023 13.5693 29.6943 7.61035c3.01953 0.911133 11.2676 6.94727 20.2354 21.4004c32.4209 52.2588 53.4707 115.092 69.7852 169.661c20.4805 68.5107 37.8135 139.305 53.75 210.073l-6.77734 -0.544922
c-61.7109 -4.95508 -125.521 -10.082 -184.602 -31.9453c-11.0977 -4.10645 -19.7754 -8.16309 -26.0576 -14.6201c-5.18164 -5.32715 -9.97461 -14.79 -8.99219 -23.9219c1.29492 -12.0254 -7.40723 -22.8242 -19.4326 -24.1162
c-0.796875 -0.0849609 -1.58496 -0.125977 -2.36816 -0.125977zM240.63 378.252c-5.22559 -24.5459 -10.4971 -49.2744 -15.8789 -74.0889l214.598 17.2344c-0.331055 11.3076 -0.657227 22.6104 -0.980469 33.8857c-3.2793 114.372 -6.375 222.399 -15.1562 309.069
c-11.9512 117.978 -30.6523 148.297 -40.7363 155.871c-2.45801 1.84766 -4.24023 2.18457 -7.3252 1.38477c-1.79883 -0.46582 -8.34961 -3.17578 -17.0518 -18.4395c-22.6191 -39.6748 -36.7168 -87.1025 -48.1533 -128.447
c-26.8535 -97.0693 -48.4404 -198.439 -69.3154 -296.47z" />
    <glyph glyph-name="A" unicode="&#xc4;" horiz-adv-x="725" 
d="M-79.0039 160.491c-11.0449 0 -20.54 8.33203 -21.75 19.5605c-2.2334 20.7793 5.86914 43.4443 21.1494 59.1455c12.7207 13.0732 27.8223 19.8154 42.2451 25.1533c64.749 23.9629 131.623 29.334 196.296 34.5264l20.1963 1.62305
c6.35352 29.0977 12.5312 58.1113 18.6572 86.873c21.0117 98.6621 42.7383 200.686 69.9424 299.022c12.1426 43.8936 27.2012 94.4092 52.3193 138.464c12.2988 21.5732 27.1377 34.7422 44.1006 39.1416c16.0273 4.1582 31.458 1.12793 44.625 -8.75977
c57.457 -43.1514 65.3135 -217.616 73.3721 -498.701c0.300781 -10.5283 0.601562 -21.0781 0.911133 -31.6309l1.24316 0.0986328c12.0664 0.97168 22.6133 -8.01758 23.582 -20.0732s-8.02051 -22.6133 -20.0762 -23.582l-3.4248 -0.273438
c4.30566 -136.495 10.6211 -269.219 29.2705 -356.352c5.32129 -24.8525 11.8691 -50.8135 23.6562 -72.2773c10.8184 -19.6953 25.4902 -33.0205 39.251 -35.6426c14.6094 -2.78125 32.123 5.85742 46.8447 23.1133c16.6982 19.5752 28.0117 46.8096 36.8779 70.8711
c23.5088 63.7969 39.6182 133.065 55.1992 200.051c2.74023 11.7812 14.5166 19.1064 26.29 16.3691c11.7812 -2.74023 19.1094 -14.5107 16.3691 -26.29c-15.8848 -68.2939 -32.3086 -138.915 -56.7617 -205.274c-10.2021 -27.6855 -23.4863 -59.335 -44.6514 -84.1494
c-21.3623 -25.041 -48.5166 -38.9824 -74.8086 -38.9824c-4.55762 0 -9.08496 0.416016 -13.5547 1.27051c-26.8428 5.11328 -52.1523 26.1035 -69.4414 57.583c-14.5049 26.4131 -22.0732 56.0752 -28.0928 84.1934c-19.2959 90.1465 -25.7832 224.263 -30.1494 362.007
l-225.752 -18.1318c-16.9307 -75.959 -35.3555 -152.241 -57.4922 -226.289c-17.1387 -57.334 -39.3984 -123.578 -74.5293 -180.206c-28.0332 -45.1855 -59.584 -48.2217 -79.7666 -35.9971c-10.3447 6.26562 -13.6484 19.7305 -7.38281 30.0752
c6.18652 10.2188 19.4023 13.5693 29.6943 7.61035c3.01953 0.911133 11.2676 6.94727 20.2354 21.4004c32.4209 52.2588 53.4707 115.092 69.7852 169.661c20.4805 68.5107 37.8135 139.305 53.75 210.073l-6.77734 -0.544922
c-61.7109 -4.95508 -125.521 -10.082 -184.602 -31.9453c-11.0977 -4.10645 -19.7754 -8.16309 -26.0576 -14.6201c-5.18164 -5.32715 -9.97461 -14.79 -8.99219 -23.9219c1.29492 -12.0254 -7.40723 -22.8242 -19.4326 -24.1162
c-0.796875 -0.0849609 -1.58496 -0.125977 -2.36816 -0.125977zM240.63 378.252c-5.22559 -24.5459 -10.4971 -49.2744 -15.8789 -74.0889l214.598 17.2344c-0.331055 11.3076 -0.657227 22.6104 -0.980469 33.8857c-3.2793 114.372 -6.375 222.399 -15.1562 309.069
c-11.9512 117.978 -30.6523 148.297 -40.7363 155.871c-2.45801 1.84766 -4.24023 2.18457 -7.3252 1.38477c-1.79883 -0.46582 -8.34961 -3.17578 -17.0518 -18.4395c-22.6191 -39.6748 -36.7168 -87.1025 -48.1533 -128.447
c-26.8535 -97.0693 -48.4404 -198.439 -69.3154 -296.47z" />
    <glyph glyph-name="A" unicode="&#xc3;" horiz-adv-x="725" 
d="M-79.0039 160.491c-11.0449 0 -20.54 8.33203 -21.75 19.5605c-2.2334 20.7793 5.86914 43.4443 21.1494 59.1455c12.7207 13.0732 27.8223 19.8154 42.2451 25.1533c64.749 23.9629 131.623 29.334 196.296 34.5264l20.1963 1.62305
c6.35352 29.0977 12.5312 58.1113 18.6572 86.873c21.0117 98.6621 42.7383 200.686 69.9424 299.022c12.1426 43.8936 27.2012 94.4092 52.3193 138.464c12.2988 21.5732 27.1377 34.7422 44.1006 39.1416c16.0273 4.1582 31.458 1.12793 44.625 -8.75977
c57.457 -43.1514 65.3135 -217.616 73.3721 -498.701c0.300781 -10.5283 0.601562 -21.0781 0.911133 -31.6309l1.24316 0.0986328c12.0664 0.97168 22.6133 -8.01758 23.582 -20.0732s-8.02051 -22.6133 -20.0762 -23.582l-3.4248 -0.273438
c4.30566 -136.495 10.6211 -269.219 29.2705 -356.352c5.32129 -24.8525 11.8691 -50.8135 23.6562 -72.2773c10.8184 -19.6953 25.4902 -33.0205 39.251 -35.6426c14.6094 -2.78125 32.123 5.85742 46.8447 23.1133c16.6982 19.5752 28.0117 46.8096 36.8779 70.8711
c23.5088 63.7969 39.6182 133.065 55.1992 200.051c2.74023 11.7812 14.5166 19.1064 26.29 16.3691c11.7812 -2.74023 19.1094 -14.5107 16.3691 -26.29c-15.8848 -68.2939 -32.3086 -138.915 -56.7617 -205.274c-10.2021 -27.6855 -23.4863 -59.335 -44.6514 -84.1494
c-21.3623 -25.041 -48.5166 -38.9824 -74.8086 -38.9824c-4.55762 0 -9.08496 0.416016 -13.5547 1.27051c-26.8428 5.11328 -52.1523 26.1035 -69.4414 57.583c-14.5049 26.4131 -22.0732 56.0752 -28.0928 84.1934c-19.2959 90.1465 -25.7832 224.263 -30.1494 362.007
l-225.752 -18.1318c-16.9307 -75.959 -35.3555 -152.241 -57.4922 -226.289c-17.1387 -57.334 -39.3984 -123.578 -74.5293 -180.206c-28.0332 -45.1855 -59.584 -48.2217 -79.7666 -35.9971c-10.3447 6.26562 -13.6484 19.7305 -7.38281 30.0752
c6.18652 10.2188 19.4023 13.5693 29.6943 7.61035c3.01953 0.911133 11.2676 6.94727 20.2354 21.4004c32.4209 52.2588 53.4707 115.092 69.7852 169.661c20.4805 68.5107 37.8135 139.305 53.75 210.073l-6.77734 -0.544922
c-61.7109 -4.95508 -125.521 -10.082 -184.602 -31.9453c-11.0977 -4.10645 -19.7754 -8.16309 -26.0576 -14.6201c-5.18164 -5.32715 -9.97461 -14.79 -8.99219 -23.9219c1.29492 -12.0254 -7.40723 -22.8242 -19.4326 -24.1162
c-0.796875 -0.0849609 -1.58496 -0.125977 -2.36816 -0.125977zM240.63 378.252c-5.22559 -24.5459 -10.4971 -49.2744 -15.8789 -74.0889l214.598 17.2344c-0.331055 11.3076 -0.657227 22.6104 -0.980469 33.8857c-3.2793 114.372 -6.375 222.399 -15.1562 309.069
c-11.9512 117.978 -30.6523 148.297 -40.7363 155.871c-2.45801 1.84766 -4.24023 2.18457 -7.3252 1.38477c-1.79883 -0.46582 -8.34961 -3.17578 -17.0518 -18.4395c-22.6191 -39.6748 -36.7168 -87.1025 -48.1533 -128.447
c-26.8535 -97.0693 -48.4404 -198.439 -69.3154 -296.47z" />
    <glyph glyph-name="A" unicode="&#xc2;" horiz-adv-x="725" 
d="M-79.0039 160.491c-11.0449 0 -20.54 8.33203 -21.75 19.5605c-2.2334 20.7793 5.86914 43.4443 21.1494 59.1455c12.7207 13.0732 27.8223 19.8154 42.2451 25.1533c64.749 23.9629 131.623 29.334 196.296 34.5264l20.1963 1.62305
c6.35352 29.0977 12.5312 58.1113 18.6572 86.873c21.0117 98.6621 42.7383 200.686 69.9424 299.022c12.1426 43.8936 27.2012 94.4092 52.3193 138.464c12.2988 21.5732 27.1377 34.7422 44.1006 39.1416c16.0273 4.1582 31.458 1.12793 44.625 -8.75977
c57.457 -43.1514 65.3135 -217.616 73.3721 -498.701c0.300781 -10.5283 0.601562 -21.0781 0.911133 -31.6309l1.24316 0.0986328c12.0664 0.97168 22.6133 -8.01758 23.582 -20.0732s-8.02051 -22.6133 -20.0762 -23.582l-3.4248 -0.273438
c4.30566 -136.495 10.6211 -269.219 29.2705 -356.352c5.32129 -24.8525 11.8691 -50.8135 23.6562 -72.2773c10.8184 -19.6953 25.4902 -33.0205 39.251 -35.6426c14.6094 -2.78125 32.123 5.85742 46.8447 23.1133c16.6982 19.5752 28.0117 46.8096 36.8779 70.8711
c23.5088 63.7969 39.6182 133.065 55.1992 200.051c2.74023 11.7812 14.5166 19.1064 26.29 16.3691c11.7812 -2.74023 19.1094 -14.5107 16.3691 -26.29c-15.8848 -68.2939 -32.3086 -138.915 -56.7617 -205.274c-10.2021 -27.6855 -23.4863 -59.335 -44.6514 -84.1494
c-21.3623 -25.041 -48.5166 -38.9824 -74.8086 -38.9824c-4.55762 0 -9.08496 0.416016 -13.5547 1.27051c-26.8428 5.11328 -52.1523 26.1035 -69.4414 57.583c-14.5049 26.4131 -22.0732 56.0752 -28.0928 84.1934c-19.2959 90.1465 -25.7832 224.263 -30.1494 362.007
l-225.752 -18.1318c-16.9307 -75.959 -35.3555 -152.241 -57.4922 -226.289c-17.1387 -57.334 -39.3984 -123.578 -74.5293 -180.206c-28.0332 -45.1855 -59.584 -48.2217 -79.7666 -35.9971c-10.3447 6.26562 -13.6484 19.7305 -7.38281 30.0752
c6.18652 10.2188 19.4023 13.5693 29.6943 7.61035c3.01953 0.911133 11.2676 6.94727 20.2354 21.4004c32.4209 52.2588 53.4707 115.092 69.7852 169.661c20.4805 68.5107 37.8135 139.305 53.75 210.073l-6.77734 -0.544922
c-61.7109 -4.95508 -125.521 -10.082 -184.602 -31.9453c-11.0977 -4.10645 -19.7754 -8.16309 -26.0576 -14.6201c-5.18164 -5.32715 -9.97461 -14.79 -8.99219 -23.9219c1.29492 -12.0254 -7.40723 -22.8242 -19.4326 -24.1162
c-0.796875 -0.0849609 -1.58496 -0.125977 -2.36816 -0.125977zM240.63 378.252c-5.22559 -24.5459 -10.4971 -49.2744 -15.8789 -74.0889l214.598 17.2344c-0.331055 11.3076 -0.657227 22.6104 -0.980469 33.8857c-3.2793 114.372 -6.375 222.399 -15.1562 309.069
c-11.9512 117.978 -30.6523 148.297 -40.7363 155.871c-2.45801 1.84766 -4.24023 2.18457 -7.3252 1.38477c-1.79883 -0.46582 -8.34961 -3.17578 -17.0518 -18.4395c-22.6191 -39.6748 -36.7168 -87.1025 -48.1533 -128.447
c-26.8535 -97.0693 -48.4404 -198.439 -69.3154 -296.47z" />
    <glyph glyph-name="A" unicode="&#xc1;" horiz-adv-x="725" 
d="M-79.0039 160.491c-11.0449 0 -20.54 8.33203 -21.75 19.5605c-2.2334 20.7793 5.86914 43.4443 21.1494 59.1455c12.7207 13.0732 27.8223 19.8154 42.2451 25.1533c64.749 23.9629 131.623 29.334 196.296 34.5264l20.1963 1.62305
c6.35352 29.0977 12.5312 58.1113 18.6572 86.873c21.0117 98.6621 42.7383 200.686 69.9424 299.022c12.1426 43.8936 27.2012 94.4092 52.3193 138.464c12.2988 21.5732 27.1377 34.7422 44.1006 39.1416c16.0273 4.1582 31.458 1.12793 44.625 -8.75977
c57.457 -43.1514 65.3135 -217.616 73.3721 -498.701c0.300781 -10.5283 0.601562 -21.0781 0.911133 -31.6309l1.24316 0.0986328c12.0664 0.97168 22.6133 -8.01758 23.582 -20.0732s-8.02051 -22.6133 -20.0762 -23.582l-3.4248 -0.273438
c4.30566 -136.495 10.6211 -269.219 29.2705 -356.352c5.32129 -24.8525 11.8691 -50.8135 23.6562 -72.2773c10.8184 -19.6953 25.4902 -33.0205 39.251 -35.6426c14.6094 -2.78125 32.123 5.85742 46.8447 23.1133c16.6982 19.5752 28.0117 46.8096 36.8779 70.8711
c23.5088 63.7969 39.6182 133.065 55.1992 200.051c2.74023 11.7812 14.5166 19.1064 26.29 16.3691c11.7812 -2.74023 19.1094 -14.5107 16.3691 -26.29c-15.8848 -68.2939 -32.3086 -138.915 -56.7617 -205.274c-10.2021 -27.6855 -23.4863 -59.335 -44.6514 -84.1494
c-21.3623 -25.041 -48.5166 -38.9824 -74.8086 -38.9824c-4.55762 0 -9.08496 0.416016 -13.5547 1.27051c-26.8428 5.11328 -52.1523 26.1035 -69.4414 57.583c-14.5049 26.4131 -22.0732 56.0752 -28.0928 84.1934c-19.2959 90.1465 -25.7832 224.263 -30.1494 362.007
l-225.752 -18.1318c-16.9307 -75.959 -35.3555 -152.241 -57.4922 -226.289c-17.1387 -57.334 -39.3984 -123.578 -74.5293 -180.206c-28.0332 -45.1855 -59.584 -48.2217 -79.7666 -35.9971c-10.3447 6.26562 -13.6484 19.7305 -7.38281 30.0752
c6.18652 10.2188 19.4023 13.5693 29.6943 7.61035c3.01953 0.911133 11.2676 6.94727 20.2354 21.4004c32.4209 52.2588 53.4707 115.092 69.7852 169.661c20.4805 68.5107 37.8135 139.305 53.75 210.073l-6.77734 -0.544922
c-61.7109 -4.95508 -125.521 -10.082 -184.602 -31.9453c-11.0977 -4.10645 -19.7754 -8.16309 -26.0576 -14.6201c-5.18164 -5.32715 -9.97461 -14.79 -8.99219 -23.9219c1.29492 -12.0254 -7.40723 -22.8242 -19.4326 -24.1162
c-0.796875 -0.0849609 -1.58496 -0.125977 -2.36816 -0.125977zM240.63 378.252c-5.22559 -24.5459 -10.4971 -49.2744 -15.8789 -74.0889l214.598 17.2344c-0.331055 11.3076 -0.657227 22.6104 -0.980469 33.8857c-3.2793 114.372 -6.375 222.399 -15.1562 309.069
c-11.9512 117.978 -30.6523 148.297 -40.7363 155.871c-2.45801 1.84766 -4.24023 2.18457 -7.3252 1.38477c-1.79883 -0.46582 -8.34961 -3.17578 -17.0518 -18.4395c-22.6191 -39.6748 -36.7168 -87.1025 -48.1533 -128.447
c-26.8535 -97.0693 -48.4404 -198.439 -69.3154 -296.47z" />
    <glyph glyph-name="B" unicode="B" horiz-adv-x="676" 
d="M35.7646 -169.007c-0.0302734 0.68457 -0.0458984 1.37207 -0.0810547 2.05371c-49.127 309.748 -38.0986 635.472 -28.3184 923.282c0.410156 12.0879 10.5273 21.5566 22.6289 21.1436c12.0879 -0.410156 21.5537 -10.541 21.1436 -22.6289
c-6.01953 -177.137 -12.5039 -368.746 -5.0498 -561.593c6.2627 63.6025 14.7705 127.859 25.627 192.601c14.3242 85.4219 36.3848 196.331 80.1826 296.592c25.4053 58.1582 52.1768 98.4082 84.2529 126.663c19.8652 17.5029 38.876 27.0859 58.1172 29.3008
c26.7471 3.07715 52.1475 -9.30371 66.2832 -32.3057c15.0605 -24.5078 16.8594 -57.7285 5.50195 -101.557c-27.1299 -104.695 -85.0361 -189.479 -142.542 -264.352c33.1113 1.61816 63.1152 -1.82227 90.8008 -10.3438
c104.361 -32.1201 189.671 -146.864 212.281 -285.53c3.00586 -18.4336 4.93555 -37.1377 5.8252 -55.9951c46.1328 10.0596 93.7793 20.5137 139.03 36.1904c11.4287 3.95801 23.9004 -2.09473 27.8613 -13.5234s-2.09375 -23.9004 -13.5225 -27.8613
c-48.2188 -16.7031 -97.7129 -27.4941 -145.578 -37.9316c-2.53516 -0.552734 -5.07227 -1.10547 -7.61816 -1.66113c-3.76074 -96.8535 -34.0391 -194.563 -86.8428 -274.614c-56.2988 -85.3457 -130.687 -136.419 -204.097 -140.12
c-2.13281 -0.106445 -4.2793 -0.161133 -6.44141 -0.161133c-44.5527 0 -94.5615 23.0049 -110.909 76.1338c-4.90234 15.9395 -6.57715 33.9678 -5.11523 55.1143c4.90234 70.9961 40.2119 126.762 68.9678 161.042c54.9033 65.4502 132.291 111.744 236.581 141.532
c21.3154 6.08789 42.8691 11.3574 64.2559 16.249c-0.624023 19.7334 -2.48535 39.3193 -5.62207 58.5654c-19.6846 120.706 -94.502 223.806 -181.941 250.717c-34.9893 10.7686 -75.4062 11.6309 -123.557 2.63867c-8.96484 -1.6748 -18.0312 2.38477 -22.7529 10.1865
c-4.72461 7.80176 -4.11719 17.7139 1.52148 24.8828c64.2344 81.6416 137.043 174.175 167.015 289.836c10.0869 38.9229 5.34082 58.2646 -0.418945 67.6377c-6.12891 9.97266 -16.3936 12.5947 -23.9619 11.7246c-9.91992 -1.1416 -21.417 -7.41602 -34.168 -18.6504
c-26.7275 -23.5498 -50.627 -59.9678 -73.0674 -111.337c-41.8789 -95.873 -63.2139 -203.366 -77.1221 -286.306c-31.2197 -186.148 -43.1602 -368.229 -35.5586 -541.296c0.470703 -2.94238 0.908203 -5.89551 1.38965 -8.83789
c2.62793 -16.0518 5.63672 -25.4219 8.94336 -27.8584c9.73926 -7.17188 11.8193 -20.8809 4.65039 -30.6201c-4.29199 -5.83008 -10.9277 -8.91504 -17.6533 -8.91504c-4.50879 0 -9.05859 1.3877 -12.9678 4.26465c-19.3555 14.251 -23.8066 41.4443 -26.1992 56.0537
c-0.180664 1.09473 -0.339844 2.19238 -0.517578 3.28418c-0.703125 1.98145 -1.13574 4.09766 -1.2373 6.30957zM409.182 -206.959c46.3848 70.3203 73.8232 155.478 79.1006 240.549c-17.2949 -4.05957 -34.5762 -8.40137 -51.5283 -13.2441
c-96.9375 -27.6855 -165.272 -68.2207 -215.054 -127.566c-24.5791 -29.3008 -54.7363 -76.6621 -58.8291 -135.909c-1.06738 -15.4658 0.0361328 -28.6602 3.28516 -39.2158c10.917 -35.4707 46.2861 -46.4697 73.2842 -45.1094
c59.335 2.99512 121.205 46.9131 169.741 120.496z" />
    <glyph glyph-name="C" unicode="C" horiz-adv-x="353" 
d="M49.5117 -247.202c-46.1055 28.3457 -76.25 88.9795 -92.1592 185.381c-19.0488 115.467 -21.918 243.865 -8.76758 392.528c11.6826 132.061 32.6182 233.23 65.8848 318.384c32.7744 83.8975 75.291 137.998 126.359 160.806
c21.2939 9.50977 44.4688 11.1299 68.8828 4.82031c28.8516 -7.45703 52.2891 -27.6064 67.7715 -58.2734c32.8047 -64.9688 24.3604 -162.561 -0.932617 -225.391c-28.2578 -70.1885 -76.2871 -120.969 -131.778 -139.32
c-11.4775 -3.79688 -23.8691 2.43066 -27.666 13.9141c-3.7998 11.4805 2.43066 23.8701 13.9141 27.667c43.2314 14.2969 81.4668 55.8828 104.901 114.093c24.7949 61.5928 25.8574 142.972 2.4668 189.293c-9.77246 19.3584 -23.1084 31.3369 -39.6338 35.6104
c-14.5713 3.7666 -28.0527 2.95605 -40.0615 -2.40625c-39.6201 -17.6943 -75.3838 -64.9824 -103.423 -136.753c-31.7148 -81.1709 -51.75 -178.503 -63.0557 -306.305c-12.8213 -144.948 -10.0898 -269.752 8.35449 -381.54
c13.5254 -81.9756 37.707 -134.193 71.875 -155.2c33.043 -20.3135 72.4248 -7.2832 98.2627 11.6836c28.5723 20.9736 54.0186 54.041 82.5088 107.217c37.8662 70.6758 67.1338 147.889 86.9932 229.5c2.86035 11.752 14.7051 18.9619 26.457 16.1016
s18.959 -14.7051 16.0986 -26.4561c-20.7324 -85.2061 -51.3281 -165.896 -90.9404 -239.829c-21.3623 -39.8721 -51.4873 -89.752 -95.1943 -121.839c-27.4639 -20.1631 -57.8428 -30.4414 -86.9131 -30.4414c-21.3291 0 -41.9521 5.53223 -60.2051 16.7559z" />
    <glyph glyph-name="D" unicode="D" horiz-adv-x="651" 
d="M34.6455 -209.963c-11.9463 23.585 -16.1016 50.624 -19.6221 78.5859c-35.5225 281.638 -39.3359 567.921 -11.3359 850.895c1.19336 12.0361 11.9238 20.8262 23.9492 19.6357c12.0361 -1.19043 20.8262 -11.9131 19.6357 -23.9492
c-22.1016 -223.368 -24.127 -448.819 -6.17578 -672.352c10.7363 78.7568 25.9619 156.369 40.9326 232.632c28.3613 144.472 60.5117 308.223 135.223 439.755c19.2959 33.9756 50.3838 79.8398 97.3623 85.8535c32.7852 4.19629 67.626 -13.4238 93.1602 -47.1367
c21.5762 -28.4902 34.4775 -64.2158 44.2529 -95.4053c52.8525 -168.656 65.1133 -370.273 35.7607 -584.778c18.5342 4.80176 37.3262 9.74512 55.6309 14.9102c35.5283 10.0244 72.2559 22.3672 96.668 52.9082c7.55273 9.44922 21.3301 10.9854 30.7793 3.43262
c9.44629 -7.55273 10.9844 -21.333 3.43164 -30.7793c-32.5117 -40.6768 -78.4639 -56.2793 -118.985 -67.7129c-24.2529 -6.8457 -49.0967 -13.2461 -73.1221 -19.4375c-0.493164 -0.128906 -0.986328 -0.254883 -1.47656 -0.380859
c-9.20312 -56.1455 -23.541 -124.823 -51.1201 -187.438c-31.4521 -71.4121 -77.1963 -125.565 -128.804 -152.487c-25.249 -13.1719 -52.0947 -19.6318 -78.3564 -19.6318c-38.7666 -0.00292969 -76.2822 14.0645 -105.646 41.3809
c-18.8574 17.541 -31.3203 37.6113 -37.0439 59.6523c-7.57422 29.1641 -3.23242 63.1953 11.9053 93.3662c14.1357 28.1729 34.9287 48.4756 51.4648 63.0166c88.7646 78.0527 194.498 110.047 298.745 137.316c31.6543 214.822 20.7598 416.382 -31.6309 583.563
c-8.64746 27.5957 -19.8516 58.9219 -37.373 82.0576c-15.707 20.7383 -35.8896 32.2871 -52.6865 30.1357c-20.3711 -2.6084 -42.1855 -24.1572 -64.8428 -64.043c-71.1904 -125.332 -102.609 -285.366 -130.328 -426.562
c-28.4277 -144.806 -57.8242 -294.544 -54.5889 -445.498c0.0273438 -1.23145 -0.0742188 -2.43555 -0.244141 -3.61523c1.08398 -2.78906 2.23926 -5.5127 3.55078 -8.09961c5.4668 -10.7881 1.15039 -23.9658 -9.6377 -29.4326
c-3.17285 -1.60645 -6.55078 -2.36719 -9.87988 -2.36719c-7.99316 0 -15.6934 4.39062 -19.5527 12.0088zM389.511 -143.076c22.6465 51.418 35.8701 108.207 44.6895 157.624c-93.0869 -25.0088 -186.004 -55.8994 -262.165 -122.869
c-13.5557 -11.918 -30.4941 -28.3477 -41.2412 -49.7676c-10.2949 -20.5137 -13.5303 -43.959 -8.66016 -62.7178c3.5918 -13.8398 11.8311 -26.8232 24.4834 -38.5938c35.498 -33.0234 88.0635 -38.9033 133.914 -14.9844c42.8203 22.3369 81.5234 68.9707 108.979 131.309
z" />
    <glyph glyph-name="E" unicode="E" horiz-adv-x="441" 
d="M134.888 -250.26c-90.6475 0 -175.726 60.7725 -210.285 152.027c-18.7402 49.4727 -24.6309 109.128 -17.5078 177.302c10.8203 103.601 48.7051 202.126 106.671 277.425c30.6943 39.8691 66.7998 72.9668 106.242 97.9365
c-16.8242 4.62305 -33.8066 11.3135 -50.1045 21.2725c-38.9883 23.8232 -66.373 62.8994 -75.127 107.209c-8.0918 40.959 -0.0605469 89.0293 22.041 131.886c37.4414 72.5918 106.855 117.205 176.883 113.657c42.8262 -2.1709 79.9609 -22.624 101.885 -56.1133
c23.4072 -35.7549 29.9883 -95.9277 0.482422 -134.729c-7.32227 -9.62695 -21.0615 -11.4941 -30.6865 -4.1748c-9.62695 7.31934 -11.4961 21.0586 -4.17676 30.6855c15.1377 19.9062 14.0811 59.2666 -2.26367 84.2314
c-19.4082 29.6455 -50.5947 35.5039 -67.457 36.3604c-52.8828 2.67969 -106.16 -32.6406 -135.737 -89.9912c-17.6504 -34.2256 -24.2119 -71.8857 -18.001 -103.321c6.29297 -31.8486 26.8535 -61.127 54.999 -78.3262c27.9727 -17.0947 60.7061 -22.1367 89.04 -24.8135
c1.84766 -0.174805 3.65137 -0.325195 5.41406 -0.448242c15.6387 5.77832 31.5674 10.3555 47.7012 13.665c9.55859 1.96289 19.2568 -2.63867 23.79 -11.2773c4.53613 -8.63867 2.80566 -19.2354 -4.24023 -25.9854c-18.7012 -17.9219 -42.3604 -20.917 -60.2021 -20.6211
c-54.8154 -22.0986 -105.366 -61.3301 -145.772 -113.819c-53.0879 -68.959 -87.8281 -159.612 -97.8193 -255.258c-6.40527 -61.3145 -1.39062 -114.217 14.9053 -157.24c29.5967 -78.1436 103.907 -128.854 180.704 -123.329
c78.0693 5.61719 218.463 58.7549 281.584 351.493c2.54883 11.8223 14.1904 19.3389 26.0215 16.79c11.8223 -2.55078 19.3389 -14.2012 16.79 -26.0234c-69.1426 -320.665 -230.953 -379.447 -321.253 -385.948c-4.85059 -0.347656 -9.69336 -0.520508 -14.5195 -0.520508
z" />
    <glyph glyph-name="E" unicode="&#xcb;" horiz-adv-x="441" 
d="M134.888 -250.26c-90.6475 0 -175.726 60.7725 -210.285 152.027c-18.7402 49.4727 -24.6309 109.128 -17.5078 177.302c10.8203 103.601 48.7051 202.126 106.671 277.425c30.6943 39.8691 66.7998 72.9668 106.242 97.9365
c-16.8242 4.62305 -33.8066 11.3135 -50.1045 21.2725c-38.9883 23.8232 -66.373 62.8994 -75.127 107.209c-8.0918 40.959 -0.0605469 89.0293 22.041 131.886c37.4414 72.5918 106.855 117.205 176.883 113.657c42.8262 -2.1709 79.9609 -22.624 101.885 -56.1133
c23.4072 -35.7549 29.9883 -95.9277 0.482422 -134.729c-7.32227 -9.62695 -21.0615 -11.4941 -30.6865 -4.1748c-9.62695 7.31934 -11.4961 21.0586 -4.17676 30.6855c15.1377 19.9062 14.0811 59.2666 -2.26367 84.2314
c-19.4082 29.6455 -50.5947 35.5039 -67.457 36.3604c-52.8828 2.67969 -106.16 -32.6406 -135.737 -89.9912c-17.6504 -34.2256 -24.2119 -71.8857 -18.001 -103.321c6.29297 -31.8486 26.8535 -61.127 54.999 -78.3262c27.9727 -17.0947 60.7061 -22.1367 89.04 -24.8135
c1.84766 -0.174805 3.65137 -0.325195 5.41406 -0.448242c15.6387 5.77832 31.5674 10.3555 47.7012 13.665c9.55859 1.96289 19.2568 -2.63867 23.79 -11.2773c4.53613 -8.63867 2.80566 -19.2354 -4.24023 -25.9854c-18.7012 -17.9219 -42.3604 -20.917 -60.2021 -20.6211
c-54.8154 -22.0986 -105.366 -61.3301 -145.772 -113.819c-53.0879 -68.959 -87.8281 -159.612 -97.8193 -255.258c-6.40527 -61.3145 -1.39062 -114.217 14.9053 -157.24c29.5967 -78.1436 103.907 -128.854 180.704 -123.329
c78.0693 5.61719 218.463 58.7549 281.584 351.493c2.54883 11.8223 14.1904 19.3389 26.0215 16.79c11.8223 -2.55078 19.3389 -14.2012 16.79 -26.0234c-69.1426 -320.665 -230.953 -379.447 -321.253 -385.948c-4.85059 -0.347656 -9.69336 -0.520508 -14.5195 -0.520508
z" />
    <glyph glyph-name="E" unicode="&#xca;" horiz-adv-x="441" 
d="M134.888 -250.26c-90.6475 0 -175.726 60.7725 -210.285 152.027c-18.7402 49.4727 -24.6309 109.128 -17.5078 177.302c10.8203 103.601 48.7051 202.126 106.671 277.425c30.6943 39.8691 66.7998 72.9668 106.242 97.9365
c-16.8242 4.62305 -33.8066 11.3135 -50.1045 21.2725c-38.9883 23.8232 -66.373 62.8994 -75.127 107.209c-8.0918 40.959 -0.0605469 89.0293 22.041 131.886c37.4414 72.5918 106.855 117.205 176.883 113.657c42.8262 -2.1709 79.9609 -22.624 101.885 -56.1133
c23.4072 -35.7549 29.9883 -95.9277 0.482422 -134.729c-7.32227 -9.62695 -21.0615 -11.4941 -30.6865 -4.1748c-9.62695 7.31934 -11.4961 21.0586 -4.17676 30.6855c15.1377 19.9062 14.0811 59.2666 -2.26367 84.2314
c-19.4082 29.6455 -50.5947 35.5039 -67.457 36.3604c-52.8828 2.67969 -106.16 -32.6406 -135.737 -89.9912c-17.6504 -34.2256 -24.2119 -71.8857 -18.001 -103.321c6.29297 -31.8486 26.8535 -61.127 54.999 -78.3262c27.9727 -17.0947 60.7061 -22.1367 89.04 -24.8135
c1.84766 -0.174805 3.65137 -0.325195 5.41406 -0.448242c15.6387 5.77832 31.5674 10.3555 47.7012 13.665c9.55859 1.96289 19.2568 -2.63867 23.79 -11.2773c4.53613 -8.63867 2.80566 -19.2354 -4.24023 -25.9854c-18.7012 -17.9219 -42.3604 -20.917 -60.2021 -20.6211
c-54.8154 -22.0986 -105.366 -61.3301 -145.772 -113.819c-53.0879 -68.959 -87.8281 -159.612 -97.8193 -255.258c-6.40527 -61.3145 -1.39062 -114.217 14.9053 -157.24c29.5967 -78.1436 103.907 -128.854 180.704 -123.329
c78.0693 5.61719 218.463 58.7549 281.584 351.493c2.54883 11.8223 14.1904 19.3389 26.0215 16.79c11.8223 -2.55078 19.3389 -14.2012 16.79 -26.0234c-69.1426 -320.665 -230.953 -379.447 -321.253 -385.948c-4.85059 -0.347656 -9.69336 -0.520508 -14.5195 -0.520508
z" />
    <glyph glyph-name="E" unicode="&#xc9;" horiz-adv-x="441" 
d="M134.888 -250.26c-90.6475 0 -175.726 60.7725 -210.285 152.027c-18.7402 49.4727 -24.6309 109.128 -17.5078 177.302c10.8203 103.601 48.7051 202.126 106.671 277.425c30.6943 39.8691 66.7998 72.9668 106.242 97.9365
c-16.8242 4.62305 -33.8066 11.3135 -50.1045 21.2725c-38.9883 23.8232 -66.373 62.8994 -75.127 107.209c-8.0918 40.959 -0.0605469 89.0293 22.041 131.886c37.4414 72.5918 106.855 117.205 176.883 113.657c42.8262 -2.1709 79.9609 -22.624 101.885 -56.1133
c23.4072 -35.7549 29.9883 -95.9277 0.482422 -134.729c-7.32227 -9.62695 -21.0615 -11.4941 -30.6865 -4.1748c-9.62695 7.31934 -11.4961 21.0586 -4.17676 30.6855c15.1377 19.9062 14.0811 59.2666 -2.26367 84.2314
c-19.4082 29.6455 -50.5947 35.5039 -67.457 36.3604c-52.8828 2.67969 -106.16 -32.6406 -135.737 -89.9912c-17.6504 -34.2256 -24.2119 -71.8857 -18.001 -103.321c6.29297 -31.8486 26.8535 -61.127 54.999 -78.3262c27.9727 -17.0947 60.7061 -22.1367 89.04 -24.8135
c1.84766 -0.174805 3.65137 -0.325195 5.41406 -0.448242c15.6387 5.77832 31.5674 10.3555 47.7012 13.665c9.55859 1.96289 19.2568 -2.63867 23.79 -11.2773c4.53613 -8.63867 2.80566 -19.2354 -4.24023 -25.9854c-18.7012 -17.9219 -42.3604 -20.917 -60.2021 -20.6211
c-54.8154 -22.0986 -105.366 -61.3301 -145.772 -113.819c-53.0879 -68.959 -87.8281 -159.612 -97.8193 -255.258c-6.40527 -61.3145 -1.39062 -114.217 14.9053 -157.24c29.5967 -78.1436 103.907 -128.854 180.704 -123.329
c78.0693 5.61719 218.463 58.7549 281.584 351.493c2.54883 11.8223 14.1904 19.3389 26.0215 16.79c11.8223 -2.55078 19.3389 -14.2012 16.79 -26.0234c-69.1426 -320.665 -230.953 -379.447 -321.253 -385.948c-4.85059 -0.347656 -9.69336 -0.520508 -14.5195 -0.520508
z" />
    <glyph glyph-name="F" unicode="F" horiz-adv-x="403" 
d="M9.68262 654.012c-11.4941 0 -21.1406 8.95605 -21.8418 20.5762c-2.16016 36.043 14.1406 72.9727 42.541 96.377c26.4844 21.8223 57.5127 28.4551 81.585 31.7949c70.6758 9.80566 141.136 -1.16602 209.282 -11.7783
c12.627 -1.96777 25.6895 -4.00195 38.459 -5.85254c76.1338 -11.0371 156.521 -17.0371 228.563 13.5332c31.5342 13.3799 51.5361 31.4414 61.1494 55.2129c4.53613 11.209 17.2979 16.623 28.5127 12.0898c11.2119 -4.5332 16.624 -17.2998 12.0908 -28.5117
c-13.9883 -34.5947 -42.4678 -61.2129 -84.6445 -79.1094c-81.9541 -34.7725 -169.527 -28.5098 -251.957 -16.5586c-12.9971 1.88379 -26.1719 3.93652 -38.9141 5.9209c-21.2012 3.30078 -42.0322 6.54492 -62.6143 9.17578
c-1.03223 -38.1396 -2.18164 -77.377 -3.38867 -118.591c-4.47852 -152.815 -9.43066 -321.962 -9.18164 -475.445c2.14062 0.128906 4.28125 0.254883 6.42969 0.383789c43.1514 2.57031 87.7705 5.22559 144.379 5.77344
c12.1758 0.118164 21.9922 -9.59082 22.1104 -21.6846s-9.59082 -21.9951 -21.6846 -22.1104c-55.5166 -0.536133 -99.583 -3.16113 -142.198 -5.69824c-2.94824 -0.174805 -5.88574 -0.349609 -8.81445 -0.522461c0.197266 -22.6875 0.523438 -44.9561 1.00293 -66.6768
c1.4043 -63.6924 3.3291 -131.989 7.85156 -199.856c2.10547 -31.5615 4.97461 -61.8506 16.7969 -85.5098c5.40625 -10.8184 1.01855 -23.9717 -9.7998 -29.3779c-3.14258 -1.57129 -6.48242 -2.31543 -9.77246 -2.31543c-8.03711 0 -15.7705 4.4375 -19.6084 12.1133
c-15.4473 30.9102 -19 67.4238 -21.3184 102.178c-4.57715 68.7217 -6.51758 137.604 -7.93555 201.804c-0.467773 21.2725 -0.791016 43.0615 -0.991211 65.2373c-25.7119 -1.24512 -52.0703 -2.11035 -81.2754 -2.11035c-12.0938 0 -21.8994 9.80566 -21.8994 21.8994
s9.80566 21.8994 21.8994 21.8994c29.002 0 55.2891 0.886719 81.0361 2.15137c-0.306641 154.784 4.68359 325.236 9.19434 479.16c1.24316 42.3691 2.42285 82.6523 3.47656 121.774c-30.3164 2.20605 -60.2627 2.18652 -90.2178 -1.96875
c-18.3594 -2.54883 -41.7422 -7.375 -59.748 -22.2139c-14.3574 -11.8311 -28.1729 -34.959 -26.6758 -59.9561c0.722656 -12.0713 -8.47461 -22.4434 -20.5488 -23.1689c-0.446289 -0.0273438 -0.889648 -0.0380859 -1.33008 -0.0380859z" />
    <glyph glyph-name="G" unicode="G" horiz-adv-x="543" 
d="M-63.2539 236.185c-1.39648 140.694 33.2676 287.099 100.239 423.381c47.4766 96.6123 99.3984 154.311 158.733 176.388c46.5156 17.3105 93.1113 8.87988 124.646 -22.5449c47.2959 -47.1348 47.4248 -129.015 43.291 -173.623
c-7.49805 -80.916 -34.2227 -160.352 -75.2529 -223.675c-6.57812 -10.1533 -20.1357 -13.0469 -30.2861 -6.47168c-10.1504 6.57812 -13.0469 20.1367 -6.47168 30.2871c37.25 57.4922 61.541 129.903 68.3984 203.899c5.8252 62.8711 -5.32715 113.372 -30.5986 138.556
c-19.0879 19.0195 -48.416 23.7002 -78.458 12.5205c-48.3359 -17.9844 -92.3965 -68.5732 -134.699 -154.655c-63.9697 -130.172 -97.0752 -269.741 -95.748 -403.628c0.572266 -57.7031 9.8877 -135.329 51.0137 -177.446
c29.4922 -30.2041 74.8721 -37.2773 115.604 -18.0205c47.4434 22.4326 81.1318 72.0938 101.038 109.804c26.0674 49.3818 44.1973 106.16 61.6045 161.285c0.68457 6.55273 4.28418 12.7285 10.3447 16.4326c10.3223 6.30371 23.7979 3.0459 30.1045 -7.27441
c22.2822 -36.4775 28.8242 -81.2666 33.6143 -124.011c7.30371 -65.1924 13.8594 -146.292 6.66309 -229.636c17.4453 6.58301 34.877 14.874 51.3643 25.498c44.8818 28.9199 77.7275 72.2578 92.4873 122.031c3.43848 11.5957 15.6309 18.2061 27.2207 14.7705
c11.5957 -3.43848 18.209 -15.625 14.7705 -27.2207c-17.7354 -59.8115 -57.0684 -111.802 -110.751 -146.396c-26.2676 -16.9277 -54.0713 -28.6055 -80.8701 -36.9951c-1.13086 -7.27637 -2.37891 -14.541 -3.76172 -21.8027
c-20.9463 -110.036 -71.21 -201.094 -137.9 -249.83c-33.9102 -24.7812 -70.4863 -37.7998 -106.053 -37.7998c-1.4375 0 -2.86621 0.0214844 -4.29785 0.0625c-41.8135 1.24023 -81.3379 21.2939 -108.438 55.0156c-22.8379 28.416 -34.1484 63.7363 -31.0361 96.9023
c2.06152 21.9785 10.6406 44.4463 25.4932 66.7803c12.4932 18.7842 27.2559 34.9404 43.8799 48.0195c31.5205 24.8027 67.5469 36.1904 91.9043 42.6016c34.1484 8.98633 68.7871 14.0283 102.287 18.9033c16.0352 2.33203 32.6182 4.74609 48.7246 7.54395
c12.2822 2.13281 25.6621 4.71094 39.6035 8.09473c9.54785 85.6357 2.77051 170.915 -4.81152 238.58c-1.85547 16.5635 -3.97461 33.415 -7.24609 49.5459c-12.9746 -38.29 -27.5234 -76.2354 -46.165 -111.547c-33.0039 -62.5234 -74.8633 -107.112 -121.051 -128.951
c-21.3594 -10.0977 -43.6875 -15.0254 -65.5127 -15.0254c-37.3242 -0.00292969 -73.1729 14.415 -100.146 42.04c-41.1699 42.1631 -62.5244 112.012 -63.4746 207.611zM337.967 -94.166c0.104492 0.549805 0.206055 1.10449 0.310547 1.6543
c-8.76465 -1.83398 -17.2148 -3.40527 -25.2295 -4.7959c-16.6982 -2.89844 -33.582 -5.35645 -49.9102 -7.73242c-33.7812 -4.91602 -65.6904 -9.56152 -97.4463 -17.9189c-33.1602 -8.72656 -56.5889 -19.4189 -75.9697 -34.666
c-12.9727 -10.2051 -24.5791 -22.9424 -34.4961 -37.8525c-10.9521 -16.4678 -16.958 -31.7178 -18.3564 -46.6201c-2.02832 -21.6055 6.03613 -46.042 21.5703 -65.376c19.0605 -23.7168 46.6143 -37.8115 75.5977 -38.6709
c27.0918 -0.804688 55.8672 9.33691 83.2129 29.3193c57.8262 42.2568 101.826 123.411 120.717 222.659z" />
    <glyph glyph-name="H" unicode="H" horiz-adv-x="874" 
d="M61.1924 313.399c-29.8018 33.0098 -53.1387 77.0723 -67.4824 127.439c-23.7686 83.4375 -20.6348 177.572 8.59766 258.267c29.6182 81.7598 85.1807 147.497 152.443 180.351c40.4639 19.7666 79.2002 23.6426 112.019 11.2148
c41.0547 -15.5479 75.5615 -57.7549 94.6738 -115.798c15.9834 -48.5391 19.9824 -101.86 22.709 -152.312c6.50684 -120.372 7.7959 -241.576 6.25781 -362.4c8.92383 -0.120117 18.0391 -0.224609 27.3213 -0.333984c71.8721 -0.837891 151.447 -1.76855 227.022 -9.97754
c-1.8916 60.0439 -3.09375 120.838 -1.96582 181.145c0.771484 41.3809 2.64941 83.3066 4.4668 123.855c3.52539 78.7266 7.17188 160.136 2.7373 239.503c-0.675781 12.0771 8.56543 22.4111 20.6426 23.0869c12.1133 0.678711 22.4111 -8.56836 23.0869 -20.6426
c4.55469 -81.5703 0.859375 -164.096 -2.71582 -243.906c-1.80371 -40.2666 -3.66797 -81.9043 -4.43164 -122.716c-1.15527 -61.7324 0.174805 -124.289 2.17871 -186.082c79.7637 -12.3096 152.126 -34.8242 202.129 -76.7607
c9.26367 -7.77441 10.4766 -21.5869 2.70508 -30.8525s-21.584 -10.4785 -30.8525 -2.70703c-41.4111 34.7344 -103.023 54.46 -172.459 65.8389c0.391602 -10.8047 0.793945 -21.5762 1.19336 -32.2988c3.93066 -105.547 7.99023 -214.57 27.2998 -318.593
c1.53613 -1.42871 2.8916 -3.08496 4.00879 -4.94336c4.92969 -8.19824 4.34668 -19.0791 -1.44824 -27.0752c-4.47266 -6.16992 -11.502 -9.6875 -18.8135 -9.6875c-1.69141 0 -3.39648 0.186523 -5.08789 0.575195c-4.80957 1.09766 -16.3555 5.49609 -19.7031 22.5635
c-21.6387 110.431 -25.9004 224.863 -30.0225 335.529c-0.493164 13.2598 -0.983398 26.6074 -1.46484 39.9902c-75.2607 8.55176 -156.259 9.50977 -229.023 10.3584c-9.33398 0.109375 -18.5039 0.21582 -27.4883 0.335938
c-2.37891 -131.532 -7.76855 -262.449 -13.0713 -391.209c-0.484375 -11.7764 -10.1826 -20.998 -21.8633 -20.998c-0.303711 0 -0.610352 0.0078125 -0.916992 0.0185547c-12.083 0.498047 -21.4775 10.6943 -20.9795 22.7793
c5.28809 128.459 10.667 259.091 13.04 390.196c-40.6172 1.00781 -76.3311 2.92969 -105.53 7.50684c-77.667 12.1729 -136.287 41.2002 -179.212 88.7402zM43.4805 684.187c-26.1689 -72.2393 -28.959 -156.565 -7.6543 -231.353
c12.5234 -43.9561 32.5361 -82.0244 57.873 -110.085c35.9248 -39.79 86.1338 -64.2646 153.486 -74.8223c26.8125 -4.20215 60.6328 -6.01172 99.4238 -6.98047c1.52246 119.918 0.24707 240.107 -6.19434 359.248c-2.6748 49.4834 -6.26074 97.499 -20.5771 140.974
c-14.7383 44.7588 -40.376 77.8564 -68.5869 88.54c-7.72168 2.92383 -16.0186 4.38574 -24.8545 4.38574c-15.8086 0 -33.3467 -4.67285 -52.4287 -13.9932c-57.1426 -27.9131 -104.704 -84.7402 -130.487 -155.914z" />
    <glyph glyph-name="I" unicode="I" horiz-adv-x="406" 
d="M29.168 797.87c-8.625 0 -16.7979 5.12695 -20.2715 13.6016c-4.58496 11.1904 0.769531 23.9824 11.96 28.5674c40.7344 16.6953 86.1338 23.3877 138.409 23.4258c1.35742 1.08984 2.86035 2.04004 4.51074 2.80078c8.07227 3.72852 17.2373 2.1084 23.5439 -3.37207
c41.0713 -1.64551 86.2217 -6.7041 136.441 -13.8135c11.9756 -1.69434 20.3076 -12.7754 18.6133 -24.751s-12.7832 -20.3105 -24.751 -18.6133c-45.4648 6.43262 -86.4102 11.1543 -123.479 13.0654c-1.33301 -17.4346 -3.88672 -44.3701 -8.0498 -87.2266
c-12.0771 -124.24 -32.2871 -332.184 -34.833 -518.299c-3.91992 -286.544 36.9238 -357.704 61.6172 -374.618c22.1475 -15.1729 46.0801 -5.76758 61.0889 8.0918c22.9941 21.2305 38.1787 55.7373 50.6064 86.418c27.792 68.6172 50.6465 140.889 67.9277 214.809
c2.75684 11.7764 14.5439 19.0908 26.3096 16.3398c11.7764 -2.75391 19.0938 -14.5332 16.3398 -26.3096c-17.7959 -76.1201 -41.3428 -150.568 -69.9834 -221.279c-14.21 -35.0732 -31.8496 -74.7871 -61.4873 -102.152
c-19.5312 -18.0342 -43.2207 -27.2891 -66.5186 -27.2891c-17.1602 0 -34.1045 5.01758 -49.0342 15.2412c-58.3223 39.9463 -83.9551 170.657 -80.6621 411.353c2.57031 187.936 22.8896 397.015 35.0322 521.934c3.13379 32.2354 6.15625 63.334 7.79004 83.834
c-42.9355 -0.75293 -80.1172 -6.71191 -112.823 -20.1143c-2.71777 -1.11719 -5.5293 -1.64258 -8.29688 -1.64258z" />
    <glyph glyph-name="I" unicode="&#xcf;" horiz-adv-x="406" 
d="M29.168 797.87c-8.625 0 -16.7979 5.12695 -20.2715 13.6016c-4.58496 11.1904 0.769531 23.9824 11.96 28.5674c40.7344 16.6953 86.1338 23.3877 138.409 23.4258c1.35742 1.08984 2.86035 2.04004 4.51074 2.80078c8.07227 3.72852 17.2373 2.1084 23.5439 -3.37207
c41.0713 -1.64551 86.2217 -6.7041 136.441 -13.8135c11.9756 -1.69434 20.3076 -12.7754 18.6133 -24.751s-12.7832 -20.3105 -24.751 -18.6133c-45.4648 6.43262 -86.4102 11.1543 -123.479 13.0654c-1.33301 -17.4346 -3.88672 -44.3701 -8.0498 -87.2266
c-12.0771 -124.24 -32.2871 -332.184 -34.833 -518.299c-3.91992 -286.544 36.9238 -357.704 61.6172 -374.618c22.1475 -15.1729 46.0801 -5.76758 61.0889 8.0918c22.9941 21.2305 38.1787 55.7373 50.6064 86.418c27.792 68.6172 50.6465 140.889 67.9277 214.809
c2.75684 11.7764 14.5439 19.0908 26.3096 16.3398c11.7764 -2.75391 19.0938 -14.5332 16.3398 -26.3096c-17.7959 -76.1201 -41.3428 -150.568 -69.9834 -221.279c-14.21 -35.0732 -31.8496 -74.7871 -61.4873 -102.152
c-19.5312 -18.0342 -43.2207 -27.2891 -66.5186 -27.2891c-17.1602 0 -34.1045 5.01758 -49.0342 15.2412c-58.3223 39.9463 -83.9551 170.657 -80.6621 411.353c2.57031 187.936 22.8896 397.015 35.0322 521.934c3.13379 32.2354 6.15625 63.334 7.79004 83.834
c-42.9355 -0.75293 -80.1172 -6.71191 -112.823 -20.1143c-2.71777 -1.11719 -5.5293 -1.64258 -8.29688 -1.64258z" />
    <glyph glyph-name="I" unicode="&#xce;" horiz-adv-x="406" 
d="M29.168 797.87c-8.625 0 -16.7979 5.12695 -20.2715 13.6016c-4.58496 11.1904 0.769531 23.9824 11.96 28.5674c40.7344 16.6953 86.1338 23.3877 138.409 23.4258c1.35742 1.08984 2.86035 2.04004 4.51074 2.80078c8.07227 3.72852 17.2373 2.1084 23.5439 -3.37207
c41.0713 -1.64551 86.2217 -6.7041 136.441 -13.8135c11.9756 -1.69434 20.3076 -12.7754 18.6133 -24.751s-12.7832 -20.3105 -24.751 -18.6133c-45.4648 6.43262 -86.4102 11.1543 -123.479 13.0654c-1.33301 -17.4346 -3.88672 -44.3701 -8.0498 -87.2266
c-12.0771 -124.24 -32.2871 -332.184 -34.833 -518.299c-3.91992 -286.544 36.9238 -357.704 61.6172 -374.618c22.1475 -15.1729 46.0801 -5.76758 61.0889 8.0918c22.9941 21.2305 38.1787 55.7373 50.6064 86.418c27.792 68.6172 50.6465 140.889 67.9277 214.809
c2.75684 11.7764 14.5439 19.0908 26.3096 16.3398c11.7764 -2.75391 19.0938 -14.5332 16.3398 -26.3096c-17.7959 -76.1201 -41.3428 -150.568 -69.9834 -221.279c-14.21 -35.0732 -31.8496 -74.7871 -61.4873 -102.152
c-19.5312 -18.0342 -43.2207 -27.2891 -66.5186 -27.2891c-17.1602 0 -34.1045 5.01758 -49.0342 15.2412c-58.3223 39.9463 -83.9551 170.657 -80.6621 411.353c2.57031 187.936 22.8896 397.015 35.0322 521.934c3.13379 32.2354 6.15625 63.334 7.79004 83.834
c-42.9355 -0.75293 -80.1172 -6.71191 -112.823 -20.1143c-2.71777 -1.11719 -5.5293 -1.64258 -8.29688 -1.64258z" />
    <glyph glyph-name="I" unicode="&#xcd;" horiz-adv-x="406" 
d="M29.168 797.87c-8.625 0 -16.7979 5.12695 -20.2715 13.6016c-4.58496 11.1904 0.769531 23.9824 11.96 28.5674c40.7344 16.6953 86.1338 23.3877 138.409 23.4258c1.35742 1.08984 2.86035 2.04004 4.51074 2.80078c8.07227 3.72852 17.2373 2.1084 23.5439 -3.37207
c41.0713 -1.64551 86.2217 -6.7041 136.441 -13.8135c11.9756 -1.69434 20.3076 -12.7754 18.6133 -24.751s-12.7832 -20.3105 -24.751 -18.6133c-45.4648 6.43262 -86.4102 11.1543 -123.479 13.0654c-1.33301 -17.4346 -3.88672 -44.3701 -8.0498 -87.2266
c-12.0771 -124.24 -32.2871 -332.184 -34.833 -518.299c-3.91992 -286.544 36.9238 -357.704 61.6172 -374.618c22.1475 -15.1729 46.0801 -5.76758 61.0889 8.0918c22.9941 21.2305 38.1787 55.7373 50.6064 86.418c27.792 68.6172 50.6465 140.889 67.9277 214.809
c2.75684 11.7764 14.5439 19.0908 26.3096 16.3398c11.7764 -2.75391 19.0938 -14.5332 16.3398 -26.3096c-17.7959 -76.1201 -41.3428 -150.568 -69.9834 -221.279c-14.21 -35.0732 -31.8496 -74.7871 -61.4873 -102.152
c-19.5312 -18.0342 -43.2207 -27.2891 -66.5186 -27.2891c-17.1602 0 -34.1045 5.01758 -49.0342 15.2412c-58.3223 39.9463 -83.9551 170.657 -80.6621 411.353c2.57031 187.936 22.8896 397.015 35.0322 521.934c3.13379 32.2354 6.15625 63.334 7.79004 83.834
c-42.9355 -0.75293 -80.1172 -6.71191 -112.823 -20.1143c-2.71777 -1.11719 -5.5293 -1.64258 -8.29688 -1.64258z" />
    <glyph glyph-name="J" unicode="J" horiz-adv-x="595" 
d="M11.3789 747.64c-8.69336 6.22168 -13.0234 17.2842 -10.7793 27.5273c2.39258 10.8809 10.0732 25.6816 33.1104 34.4219c43.9238 16.668 88.7422 14.2344 132.088 11.8799l9.6084 -0.514648c128.579 -6.65723 258.354 1.69141 385.731 24.8135
c11.8906 2.16016 23.2949 -5.73438 25.457 -17.6338c2.16016 -11.8994 -5.7373 -23.2979 -17.6367 -25.458c-59.0342 -10.7168 -118.571 -18.3076 -178.271 -22.8164c13.5303 -138.494 21.8164 -253.05 28.3369 -391.026c5.2666 -111.41 10.6758 -225.878 5.06934 -339.766
c27.5957 9.30176 55.377 19.1943 81.9727 30.6777c26.0322 11.2393 55.6777 26.0703 78.1514 50.8457c8.12402 8.95703 21.9746 9.63086 30.9316 1.50684s9.63281 -21.9746 1.50586 -30.9316c-28.0908 -30.9648 -62.8906 -48.5303 -93.2285 -61.6309
c-33.6582 -14.5352 -68.376 -26.3906 -102.319 -37.6387c-0.924805 -11.8691 -1.9873 -23.7246 -3.2002 -35.5693c-5.79492 -56.6387 -16.4814 -129.718 -47.917 -192.642c-33.8477 -67.75 -87.3438 -110.625 -143.099 -114.688
c-2.82227 -0.205078 -5.65039 -0.306641 -8.46484 -0.306641c-36.2783 -0.00292969 -71.2236 16.9277 -94.8193 46.3213c-26.875 33.4775 -37.9863 82.6982 -28.3018 125.39c8.25586 36.3955 30.5928 68.8223 68.2891 99.1328
c66.2852 53.2988 141.874 80.1826 215.829 104.709c6.96094 117.408 1.32715 236.631 -4.15039 352.52c-6.50684 137.688 -14.7822 251.927 -28.3242 390.316c-57.9658 -2.89648 -116.006 -2.86133 -173.813 0.130859l-9.71777 0.520508
c-40.5811 2.20117 -78.9121 4.28418 -114.178 -9.0957c-0.580078 -0.21875 -1.1084 -0.432617 -1.58496 -0.637695c0.692383 -8.90723 -3.36719 -17.084 -10.8379 -21.6064c-3.56445 -2.16016 -7.58789 -3.23047 -11.6367 -3.23047
c-4.80371 0 -9.64355 1.50586 -13.8018 4.47852zM374.344 -29.2148c0.549805 5.35938 1.06836 10.7334 1.55566 16.1045c-66.4795 -22.4297 -129.198 -46.7314 -184.852 -91.4844c-30.1055 -24.2119 -46.9541 -47.9443 -53.0225 -74.6914
c-6.73926 -29.7031 1.19629 -65.1797 19.7422 -88.2832c16.4072 -20.4424 41.0547 -31.5645 65.9453 -29.75c39.5908 2.88477 80.6289 37.5918 107.102 90.5791c28.2686 56.5781 38.1123 124.593 43.5293 177.525z" />
    <glyph glyph-name="K" unicode="K" horiz-adv-x="529" 
d="M40.5361 -277.127c-16.4512 79.8486 -23.2988 162.897 -28.251 240.756c-18.3018 287.789 -15.4219 579.293 8.55762 866.417c1.00781 12.0527 11.6094 21.0068 23.6455 19.999c12.0557 -1.00488 21.0098 -11.5928 20.002 -23.6455
c-15.0039 -179.677 -21.667 -361.078 -20.0029 -542.198c73.8232 73.0078 224.865 370.065 247.273 494.854c2.1377 11.9043 13.5137 19.8203 25.4238 17.6826c11.9043 -2.1377 19.8203 -13.5195 17.6826 -25.4238c-11.6143 -64.6777 -58.8115 -183.296 -120.243 -302.195
c-23.3906 -45.2754 -73.0791 -136.938 -119.567 -193.607c23.8018 -2.42285 48.8428 -9.75879 71.5518 -26.7334c41.0576 -30.6885 61.4404 -83.2979 71.3115 -122.028c9.67969 -37.9805 13.6074 -77.4834 17.4043 -115.686
c0.788086 -7.94922 1.5791 -15.8906 2.41992 -23.8125c4.28906 -40.4717 10.0293 -81.1953 17.0537 -121.043c5.57324 -31.6025 15.6162 -75.1455 38.4268 -88.3945c27.1934 -15.792 64.208 22.8262 71.3525 30.7285c72.877 80.5928 107.08 211.063 134.563 315.898
c3.06543 11.6963 15.0273 18.6982 26.7354 15.6299c11.6963 -3.06836 18.6953 -15.0391 15.6299 -26.7383c-28.6904 -109.439 -64.3965 -245.645 -144.445 -334.168c-29.0352 -32.1123 -60.665 -48.9746 -89.7246 -48.9746c-12.666 0 -24.8447 3.20312 -36.1064 9.74512
c-37.9395 22.0361 -51.3994 72.3516 -59.5625 118.665c-7.19922 40.833 -13.0791 82.5645 -17.4775 124.03c-0.851562 8.01758 -1.65039 16.0547 -2.4502 24.0967c-3.6377 36.5879 -7.39844 74.4209 -16.2617 109.204c-11.4834 45.0732 -31.0498 79.7939 -55.0889 97.7588
c-22.6348 16.9199 -52.9678 22.2686 -95.1611 16.8154c1.6123 -88.2275 5.19043 -176.338 10.7715 -264.103c4.85059 -76.2656 11.5273 -157.478 27.4365 -234.69c2.44141 -11.8447 -5.18262 -23.4268 -17.0303 -25.8682
c-1.49219 -0.306641 -2.97852 -0.454102 -4.44336 -0.454102c-10.1748 0 -19.293 7.12793 -21.4258 17.4834z" />
    <glyph glyph-name="L" unicode="L" horiz-adv-x="512" 
d="M-2.45801 245.083c-33.4229 24.1494 -57.6064 68.6416 -66.3604 122.069c-1.9541 11.9346 6.13477 23.1963 18.0693 25.1504c11.9404 1.9541 23.1963 -6.13477 25.1504 -18.0693c6.79688 -41.4707 25.0361 -76.4785 48.7939 -93.6445
c21.2256 -15.3369 49.7568 -19.2461 87.2178 -11.9453c25.9834 5.06152 50.7861 14.1357 73.6699 26.6348c-1.1416 35.5967 -2.62793 71.1436 -4.59082 106.472c-0.517578 9.32617 -1.0625 18.6992 -1.60742 28.1074c-7.50293 129.228 -15.2607 262.857 35.4072 376.693
c20.8311 46.8008 49.8584 71.8779 81.7236 70.6133c39.5488 -1.57422 67.5605 -42.0381 76.8486 -78.9707c40.4805 -160.942 -11.625 -350.012 -35.1855 -400.672c-24.165 -51.9629 -61.9268 -95.4678 -108.057 -126.384c2.0498 -74.1357 2.74805 -148.252 3.27344 -221.112
c67.4707 10.6016 188.114 30.8037 265.669 107.854c8.58203 8.52441 22.4463 8.47754 30.9707 -0.101562c8.52148 -8.5791 8.47754 -22.4434 -0.101562 -30.9678c-89.1855 -88.6113 -227.37 -110.274 -293.778 -120.688
c-0.827148 -0.131836 -1.64551 -0.260742 -2.45605 -0.386719c0.484375 -81.1484 -0.249023 -171.331 -23.3389 -253.624c-6.71777 -23.9385 -17.1885 -54.0439 -38.707 -74.5361c-16.0654 -15.2959 -37.1484 -23.5107 -58.9766 -23.5107
c-6.84375 0 -13.7559 0.804688 -20.6152 2.45508c-53.001 12.7422 -94.8027 75.7861 -97.2393 146.646c-2.08008 60.4932 22.1289 123.025 64.7549 167.277c32.9883 34.2441 76.7227 58.3027 130.073 71.5703c-0.481445 67.5801 -1.07031 136.276 -2.72363 205.009
c-21.1543 -9.63867 -43.4941 -16.8652 -66.6416 -21.374c-49.998 -9.74219 -89.6592 -3.38379 -121.243 19.4346zM253.305 788.737c-46.3379 -104.112 -38.8975 -232.339 -31.6982 -356.35c0.547852 -9.44434 1.0957 -18.8525 1.61621 -28.2139
c1.47266 -26.4756 2.67676 -53.0498 3.6709 -79.6572c29.3008 24.5898 53.4307 55.6885 70.0713 91.4688c20.9355 45.0215 69.5596 223.875 32.4248 371.522c-6.22754 24.7598 -22.4268 45.3447 -36.1133 45.8896
c-0.15918 0.0078125 -0.318359 0.0107422 -0.479492 0.0107422c-11.9297 0 -27.3652 -17.4287 -39.4922 -44.6709zM166.69 -236.058c20.7598 73.9961 22.1289 154.226 21.7598 232.815c-40.5488 -11.623 -73.7393 -30.6562 -98.8301 -56.7051
c-34.0557 -35.3525 -54.1807 -87.2285 -52.5273 -135.387c1.72461 -50.1787 30.3027 -97.5352 63.707 -105.566c14.4365 -3.4707 28.7061 0.24707 39.1494 10.1914c13.9521 13.2842 21.9453 37.5537 26.7412 54.6514z" />
    <glyph glyph-name="M" unicode="M" horiz-adv-x="870" 
d="M-143.039 -117.95c-11.4775 204.385 103.593 335.394 202.146 409.305c33.8037 25.3535 70.3477 47.0391 104.51 63.71c0.268555 116.619 0.854492 236.959 15.3867 354.433c4.71387 38.1201 12.2988 77.084 35.6787 103.817
c10.8809 12.4443 23.5518 19.7314 36.6416 21.0703c21.5352 2.20605 51.1201 -8.95703 69.7285 -74.6504c36.6611 -129.425 59.5508 -264.617 78.9912 -398.405c5.01758 25.2334 9.75879 50.4805 14.4316 75.3984c22.5645 120.345 45.8975 244.787 97.9727 353.102
c8.93457 18.584 19.3115 37.7998 34.6211 52.4277c20.1357 19.2412 45.2861 25.9727 67.2754 18.002c29.5 -10.6924 47.9443 -43.3711 56.3838 -99.9033c21.8877 -146.583 11.6416 -297.241 1.72949 -442.942c-8.60352 -126.501 -17.5 -257.309 -5.02539 -383.673
c3.06055 -31.0146 9.66602 -74.2617 31.5703 -91.6738c19.8105 -15.7451 48.5557 -1.91602 65.5469 19.0879c22.8242 28.2139 35.085 70.709 45.9033 108.202l45.4893 157.669c3.35645 11.6201 15.4971 18.3213 27.1113 14.9707
c11.6201 -3.35352 18.3242 -15.4912 14.9707 -27.1113l-45.4893 -157.672c-11.9678 -41.4844 -25.5342 -88.5039 -53.9316 -123.607c-22.2051 -27.4502 -51.8154 -42.0869 -79.876 -42.0869c-16.8652 0 -33.1719 5.28809 -46.9736 16.2598
c-34.5234 27.4424 -43.7344 79.4277 -47.9033 121.654c-12.833 129.997 -3.81055 262.654 4.91602 390.946c9.75 143.372 19.834 291.622 -1.35352 433.505c-7.8457 52.5273 -22.1895 63.0879 -27.9922 65.1934c-5.81152 2.10742 -14.4912 -1.22363 -22.0928 -8.48828
c-10.2461 -9.79199 -18.2666 -24.8857 -25.4082 -39.7412c-49.5684 -103.097 -72.3564 -224.648 -94.3945 -342.196c-12.1543 -64.8291 -24.7246 -131.864 -41.707 -196.012c-3.0957 -11.6914 -15.083 -18.6611 -26.7744 -15.5654
c-10.4814 2.77539 -17.1387 12.6953 -16.1836 23.1406c-23.3633 169.034 -47.5508 343.79 -93.9463 507.58c-9.41895 33.2529 -20.4199 43.2939 -23.127 43.0176c-0.739258 -0.0742188 -3.82129 -1.40137 -8.13281 -6.33105
c-15.6025 -17.8389 -21.3232 -49.1621 -25.1797 -80.3574c-13.4189 -108.476 -14.6836 -220.604 -15.0068 -329.856c38.5498 14.8281 69.8926 20.9902 84.2393 15.918c11.4014 -4.03223 17.377 -16.542 13.3447 -27.9463
c-3.84863 -10.8838 -15.4248 -16.8213 -26.3828 -13.835c-8.57617 0.446289 -35.5059 -6.33105 -71.3184 -21.6162c-0.254883 -97.1025 -1.05957 -196.953 -10.208 -294.882c-9.84082 -105.322 -28.1621 -184.769 -57.6572 -250.017
c-27.3848 -60.5781 -63.25 -98.876 -103.714 -110.748c-9.15625 -2.68555 -18.5234 -3.99121 -27.9238 -3.99121c-38.8594 -0.00292969 -78.2969 22.3096 -105.903 61.5938c-26.2344 37.3291 -41.3691 88.9092 -44.9824 153.306zM33.6328 212.387
c-95.2793 -91.7373 -140.009 -202.054 -132.938 -327.887c3.15039 -56.1074 15.627 -100.042 37.0879 -130.577c22.9609 -32.6729 57.3809 -49.0557 85.6582 -40.7588c27.4424 8.05371 54.4824 38.8652 76.1348 86.7666c27.4365 60.6953 44.583 135.701 53.958 236.05
c8.31641 88.9941 9.6084 180.364 9.95312 269.791c-41.0244 -21.792 -87.3838 -52.4941 -129.854 -93.3848z" />
    <glyph glyph-name="N" unicode="N" horiz-adv-x="576" 
d="M11.2188 -139.857c-10.7031 51.9932 -13.6562 106.048 -15.583 152.638c-10.4893 254.005 2.86035 499.437 21.4004 793.891c0.760742 12.0693 11.165 21.2393 23.2314 20.4785c12.0693 -0.760742 21.2363 -11.1602 20.4785 -23.2314
c-15.2715 -242.526 -32.582 -517.414 -21.3535 -789.329c0.0605469 -1.51367 0.134766 -3.08789 0.200195 -4.61523c0.136719 0.796875 0.270508 1.57422 0.407227 2.37109c11.2939 65.8525 22.9746 133.947 34.5234 193.156
c27.8311 142.657 56.1104 281.753 95.9795 415.142c14.5215 48.585 31.5342 99.8418 57.457 145.539c8.44434 14.8857 19.208 31.6406 35.0078 43.0391c20.5986 14.8584 45.1367 16.3037 64.041 3.77246c18.4111 -12.2061 26.96 -34.3291 32.8916 -54.3584
c24.2529 -81.8965 28.4053 -169.172 29.2812 -251.287c0.783203 -73.2324 -1.03125 -147.538 -2.78906 -219.396c-2.69629 -110.294 -5.48535 -224.346 1.16602 -335.726c1.7002 -28.4736 4.21582 -58.2939 14.4453 -82.4346
c8.80566 -20.7871 24.4004 -35.3037 36.8828 -34.5264c15.2441 0.947266 31.9287 20.749 49.5986 58.8613c33.2119 71.6445 59.3428 148.411 77.6641 228.167c2.70703 11.79 14.4609 19.1484 26.2451 16.4414c11.7871 -2.70703 19.1475 -14.459 16.4404 -26.2461
c-19 -82.7148 -46.1221 -162.38 -80.6152 -236.781c-16.1426 -34.8223 -42.6836 -81.4287 -86.6182 -84.1553c-1.22949 -0.0761719 -2.46094 -0.114258 -3.6875 -0.114258c-30.6777 0 -60.2959 23.6396 -76.2383 61.2676c-12.9453 30.5518 -15.9102 64.626 -17.8369 96.9102
c-6.76172 113.22 -3.9502 228.205 -1.23242 339.407c1.74902 71.4805 3.55566 145.397 2.78125 217.86c-0.842773 78.9424 -4.75488 162.571 -27.4834 239.315c-1.84766 6.24121 -7.47266 25.2383 -15.0938 30.2891c-3.98242 2.63867 -10.1465 0.144531 -14.2168 -2.79004
c-9.0166 -6.50684 -16.7793 -18.9834 -22.5332 -29.1279c-23.7715 -41.9092 -39.8037 -90.3574 -53.5889 -136.474c-39.3027 -131.494 -67.3418 -269.438 -94.9531 -410.983c-11.4531 -58.7217 -23.0898 -126.567 -34.3428 -192.177
c-8.45312 -49.2754 -16.457 -95.9092 -24.4336 -139.305c0.728516 -4.52734 0.24707 -9.32031 -1.6416 -13.7764c-3.69531 -8.72168 -12.0303 -14.2295 -21.1973 -14.2295c-0.744141 0 -1.49707 0.0351562 -2.25 0.109375
c-4.26465 0.421875 -18.4902 3.27441 -22.4346 22.4082z" />
    <glyph glyph-name="O" unicode="O" horiz-adv-x="542" 
d="M55.7227 233.921c-54.2354 57.3477 -87.7891 144.188 -89.415 235.367c-1.80957 101.633 35.5557 202.54 99.9551 269.931c30.584 32.0078 61.4014 48.415 91.5918 48.7627c26.9219 0.3125 54.6543 -12.0244 82.0879 -36.6689
c56.7695 -51 96.5352 -135.245 121.571 -257.559c20.1934 -98.6484 28.1016 -197.892 23.7188 -293.737c18.54 1.17188 37.3623 2.09961 56.1572 2.16797c34.3809 0.123047 74.0312 -3.13965 107.386 -28.3428c9.64941 -7.29199 11.5625 -21.0254 4.27051 -30.6748
c-7.29199 -9.65234 -21.0254 -11.5635 -30.6748 -4.27148c-22.9033 17.3086 -52.3623 19.5918 -80.8203 19.4902c-19.5342 -0.0742188 -39.5137 -1.15234 -59.2197 -2.4502c-3.96387 -45.9355 -10.8184 -90.9268 -20.5635 -134.511
c-24.5244 -109.696 -65.1113 -188.239 -120.63 -233.446c-28.1973 -22.9609 -57.7334 -34.8223 -86.3086 -34.8223c-5.25879 0 -10.4814 0.402344 -15.6631 1.20996c-48.7168 7.59863 -92.9746 54.2949 -112.758 118.965c-14.3438 46.8994 -17.5488 100.25 -10.3965 172.984
c5.42578 55.1689 23.0625 125.667 39.7109 187.605zM319.029 30.9824c8.8418 39.541 15.1963 80.3174 19.0674 121.95c-24.2148 -1.53027 -48.8779 -2.63379 -73.5469 -1.96582c-69.9473 1.89453 -126.372 18.5791 -172.025 50.9346
c-14.3984 -54.7607 -28.3867 -113.727 -32.9248 -159.867c-4.07324 -41.4053 -7.60156 -102.612 8.69434 -155.887c14.6748 -47.9834 45.8701 -83.5498 77.623 -88.5049c27.5488 -4.29492 54.1582 13.3799 67.5684 24.2988c47.707 38.8457 83.2158 109.177 105.544 209.041z
M97.9258 708.955c-55.7598 -58.3496 -89.4121 -149.889 -87.8242 -238.891c1.62305 -91.1699 40.6992 -180 99.5527 -226.305c39.6641 -31.209 90.7207 -47.2393 156.083 -49.0107c24.8721 -0.673828 50.3955 0.624023 75.5166 2.27734
c4.73047 93.7568 -2.81934 191.1 -22.6436 287.941c-23.0869 112.793 -58.3936 189.256 -107.935 233.76c-12.959 11.6416 -32.4326 25.457 -51.8428 25.457c-0.15918 0 -0.3125 0 -0.47168 -0.00292969c-17.9629 -0.208008 -38.2959 -12.0605 -60.4355 -35.2266z" />
    <glyph glyph-name="O" unicode="&#xd6;" horiz-adv-x="542" 
d="M55.7227 233.921c-54.2354 57.3477 -87.7891 144.188 -89.415 235.367c-1.80957 101.633 35.5557 202.54 99.9551 269.931c30.584 32.0078 61.4014 48.415 91.5918 48.7627c26.9219 0.3125 54.6543 -12.0244 82.0879 -36.6689
c56.7695 -51 96.5352 -135.245 121.571 -257.559c20.1934 -98.6484 28.1016 -197.892 23.7188 -293.737c18.54 1.17188 37.3623 2.09961 56.1572 2.16797c34.3809 0.123047 74.0312 -3.13965 107.386 -28.3428c9.64941 -7.29199 11.5625 -21.0254 4.27051 -30.6748
c-7.29199 -9.65234 -21.0254 -11.5635 -30.6748 -4.27148c-22.9033 17.3086 -52.3623 19.5918 -80.8203 19.4902c-19.5342 -0.0742188 -39.5137 -1.15234 -59.2197 -2.4502c-3.96387 -45.9355 -10.8184 -90.9268 -20.5635 -134.511
c-24.5244 -109.696 -65.1113 -188.239 -120.63 -233.446c-28.1973 -22.9609 -57.7334 -34.8223 -86.3086 -34.8223c-5.25879 0 -10.4814 0.402344 -15.6631 1.20996c-48.7168 7.59863 -92.9746 54.2949 -112.758 118.965c-14.3438 46.8994 -17.5488 100.25 -10.3965 172.984
c5.42578 55.1689 23.0625 125.667 39.7109 187.605zM319.029 30.9824c8.8418 39.541 15.1963 80.3174 19.0674 121.95c-24.2148 -1.53027 -48.8779 -2.63379 -73.5469 -1.96582c-69.9473 1.89453 -126.372 18.5791 -172.025 50.9346
c-14.3984 -54.7607 -28.3867 -113.727 -32.9248 -159.867c-4.07324 -41.4053 -7.60156 -102.612 8.69434 -155.887c14.6748 -47.9834 45.8701 -83.5498 77.623 -88.5049c27.5488 -4.29492 54.1582 13.3799 67.5684 24.2988c47.707 38.8457 83.2158 109.177 105.544 209.041z
M97.9258 708.955c-55.7598 -58.3496 -89.4121 -149.889 -87.8242 -238.891c1.62305 -91.1699 40.6992 -180 99.5527 -226.305c39.6641 -31.209 90.7207 -47.2393 156.083 -49.0107c24.8721 -0.673828 50.3955 0.624023 75.5166 2.27734
c4.73047 93.7568 -2.81934 191.1 -22.6436 287.941c-23.0869 112.793 -58.3936 189.256 -107.935 233.76c-12.959 11.6416 -32.4326 25.457 -51.8428 25.457c-0.15918 0 -0.3125 0 -0.47168 -0.00292969c-17.9629 -0.208008 -38.2959 -12.0605 -60.4355 -35.2266z" />
    <glyph glyph-name="O" unicode="&#xd5;" horiz-adv-x="542" 
d="M55.7227 233.921c-54.2354 57.3477 -87.7891 144.188 -89.415 235.367c-1.80957 101.633 35.5557 202.54 99.9551 269.931c30.584 32.0078 61.4014 48.415 91.5918 48.7627c26.9219 0.3125 54.6543 -12.0244 82.0879 -36.6689
c56.7695 -51 96.5352 -135.245 121.571 -257.559c20.1934 -98.6484 28.1016 -197.892 23.7188 -293.737c18.54 1.17188 37.3623 2.09961 56.1572 2.16797c34.3809 0.123047 74.0312 -3.13965 107.386 -28.3428c9.64941 -7.29199 11.5625 -21.0254 4.27051 -30.6748
c-7.29199 -9.65234 -21.0254 -11.5635 -30.6748 -4.27148c-22.9033 17.3086 -52.3623 19.5918 -80.8203 19.4902c-19.5342 -0.0742188 -39.5137 -1.15234 -59.2197 -2.4502c-3.96387 -45.9355 -10.8184 -90.9268 -20.5635 -134.511
c-24.5244 -109.696 -65.1113 -188.239 -120.63 -233.446c-28.1973 -22.9609 -57.7334 -34.8223 -86.3086 -34.8223c-5.25879 0 -10.4814 0.402344 -15.6631 1.20996c-48.7168 7.59863 -92.9746 54.2949 -112.758 118.965c-14.3438 46.8994 -17.5488 100.25 -10.3965 172.984
c5.42578 55.1689 23.0625 125.667 39.7109 187.605zM319.029 30.9824c8.8418 39.541 15.1963 80.3174 19.0674 121.95c-24.2148 -1.53027 -48.8779 -2.63379 -73.5469 -1.96582c-69.9473 1.89453 -126.372 18.5791 -172.025 50.9346
c-14.3984 -54.7607 -28.3867 -113.727 -32.9248 -159.867c-4.07324 -41.4053 -7.60156 -102.612 8.69434 -155.887c14.6748 -47.9834 45.8701 -83.5498 77.623 -88.5049c27.5488 -4.29492 54.1582 13.3799 67.5684 24.2988c47.707 38.8457 83.2158 109.177 105.544 209.041z
M97.9258 708.955c-55.7598 -58.3496 -89.4121 -149.889 -87.8242 -238.891c1.62305 -91.1699 40.6992 -180 99.5527 -226.305c39.6641 -31.209 90.7207 -47.2393 156.083 -49.0107c24.8721 -0.673828 50.3955 0.624023 75.5166 2.27734
c4.73047 93.7568 -2.81934 191.1 -22.6436 287.941c-23.0869 112.793 -58.3936 189.256 -107.935 233.76c-12.959 11.6416 -32.4326 25.457 -51.8428 25.457c-0.15918 0 -0.3125 0 -0.47168 -0.00292969c-17.9629 -0.208008 -38.2959 -12.0605 -60.4355 -35.2266z" />
    <glyph glyph-name="O" unicode="&#xd4;" horiz-adv-x="542" 
d="M55.7227 233.921c-54.2354 57.3477 -87.7891 144.188 -89.415 235.367c-1.80957 101.633 35.5557 202.54 99.9551 269.931c30.584 32.0078 61.4014 48.415 91.5918 48.7627c26.9219 0.3125 54.6543 -12.0244 82.0879 -36.6689
c56.7695 -51 96.5352 -135.245 121.571 -257.559c20.1934 -98.6484 28.1016 -197.892 23.7188 -293.737c18.54 1.17188 37.3623 2.09961 56.1572 2.16797c34.3809 0.123047 74.0312 -3.13965 107.386 -28.3428c9.64941 -7.29199 11.5625 -21.0254 4.27051 -30.6748
c-7.29199 -9.65234 -21.0254 -11.5635 -30.6748 -4.27148c-22.9033 17.3086 -52.3623 19.5918 -80.8203 19.4902c-19.5342 -0.0742188 -39.5137 -1.15234 -59.2197 -2.4502c-3.96387 -45.9355 -10.8184 -90.9268 -20.5635 -134.511
c-24.5244 -109.696 -65.1113 -188.239 -120.63 -233.446c-28.1973 -22.9609 -57.7334 -34.8223 -86.3086 -34.8223c-5.25879 0 -10.4814 0.402344 -15.6631 1.20996c-48.7168 7.59863 -92.9746 54.2949 -112.758 118.965c-14.3438 46.8994 -17.5488 100.25 -10.3965 172.984
c5.42578 55.1689 23.0625 125.667 39.7109 187.605zM319.029 30.9824c8.8418 39.541 15.1963 80.3174 19.0674 121.95c-24.2148 -1.53027 -48.8779 -2.63379 -73.5469 -1.96582c-69.9473 1.89453 -126.372 18.5791 -172.025 50.9346
c-14.3984 -54.7607 -28.3867 -113.727 -32.9248 -159.867c-4.07324 -41.4053 -7.60156 -102.612 8.69434 -155.887c14.6748 -47.9834 45.8701 -83.5498 77.623 -88.5049c27.5488 -4.29492 54.1582 13.3799 67.5684 24.2988c47.707 38.8457 83.2158 109.177 105.544 209.041z
M97.9258 708.955c-55.7598 -58.3496 -89.4121 -149.889 -87.8242 -238.891c1.62305 -91.1699 40.6992 -180 99.5527 -226.305c39.6641 -31.209 90.7207 -47.2393 156.083 -49.0107c24.8721 -0.673828 50.3955 0.624023 75.5166 2.27734
c4.73047 93.7568 -2.81934 191.1 -22.6436 287.941c-23.0869 112.793 -58.3936 189.256 -107.935 233.76c-12.959 11.6416 -32.4326 25.457 -51.8428 25.457c-0.15918 0 -0.3125 0 -0.47168 -0.00292969c-17.9629 -0.208008 -38.2959 -12.0605 -60.4355 -35.2266z" />
    <glyph glyph-name="O" unicode="&#xd3;" horiz-adv-x="542" 
d="M55.7227 233.921c-54.2354 57.3477 -87.7891 144.188 -89.415 235.367c-1.80957 101.633 35.5557 202.54 99.9551 269.931c30.584 32.0078 61.4014 48.415 91.5918 48.7627c26.9219 0.3125 54.6543 -12.0244 82.0879 -36.6689
c56.7695 -51 96.5352 -135.245 121.571 -257.559c20.1934 -98.6484 28.1016 -197.892 23.7188 -293.737c18.54 1.17188 37.3623 2.09961 56.1572 2.16797c34.3809 0.123047 74.0312 -3.13965 107.386 -28.3428c9.64941 -7.29199 11.5625 -21.0254 4.27051 -30.6748
c-7.29199 -9.65234 -21.0254 -11.5635 -30.6748 -4.27148c-22.9033 17.3086 -52.3623 19.5918 -80.8203 19.4902c-19.5342 -0.0742188 -39.5137 -1.15234 -59.2197 -2.4502c-3.96387 -45.9355 -10.8184 -90.9268 -20.5635 -134.511
c-24.5244 -109.696 -65.1113 -188.239 -120.63 -233.446c-28.1973 -22.9609 -57.7334 -34.8223 -86.3086 -34.8223c-5.25879 0 -10.4814 0.402344 -15.6631 1.20996c-48.7168 7.59863 -92.9746 54.2949 -112.758 118.965c-14.3438 46.8994 -17.5488 100.25 -10.3965 172.984
c5.42578 55.1689 23.0625 125.667 39.7109 187.605zM319.029 30.9824c8.8418 39.541 15.1963 80.3174 19.0674 121.95c-24.2148 -1.53027 -48.8779 -2.63379 -73.5469 -1.96582c-69.9473 1.89453 -126.372 18.5791 -172.025 50.9346
c-14.3984 -54.7607 -28.3867 -113.727 -32.9248 -159.867c-4.07324 -41.4053 -7.60156 -102.612 8.69434 -155.887c14.6748 -47.9834 45.8701 -83.5498 77.623 -88.5049c27.5488 -4.29492 54.1582 13.3799 67.5684 24.2988c47.707 38.8457 83.2158 109.177 105.544 209.041z
M97.9258 708.955c-55.7598 -58.3496 -89.4121 -149.889 -87.8242 -238.891c1.62305 -91.1699 40.6992 -180 99.5527 -226.305c39.6641 -31.209 90.7207 -47.2393 156.083 -49.0107c24.8721 -0.673828 50.3955 0.624023 75.5166 2.27734
c4.73047 93.7568 -2.81934 191.1 -22.6436 287.941c-23.0869 112.793 -58.3936 189.256 -107.935 233.76c-12.959 11.6416 -32.4326 25.457 -51.8428 25.457c-0.15918 0 -0.3125 0 -0.47168 -0.00292969c-17.9629 -0.208008 -38.2959 -12.0605 -60.4355 -35.2266z" />
    <glyph glyph-name="P" unicode="P" horiz-adv-x="629" 
d="M130.224 108.793c-10.1367 61.0781 -40.9521 107.95 -73.584 157.546c-55.5137 84.3594 -118.432 179.978 -71.6338 356.528c31.7998 119.968 119.488 217.445 223.396 248.345c78.9453 23.4785 179.601 -0.916992 239.33 -58.002
c49.8828 -47.6738 82.8848 -125.875 90.5439 -214.555c13.1836 -152.591 -23.1875 -257.854 -56.0195 -319.288c-23.6592 -44.2686 -53.8984 -81.9209 -85.9912 -108.147c68.8828 -32.6182 145.865 -37.2002 216.429 -10.2568
c11.2969 4.31152 23.957 -1.34668 28.2715 -12.6465s-1.34961 -23.957 -12.6465 -28.2715c-90.3213 -34.4883 -189.361 -24.7354 -274.477 23.8828c-2.85254 -1.34082 -5.70801 -2.57812 -8.55469 -3.71094c-28.6104 -11.3848 -58.2148 -13.8184 -85.9414 -14.7549
c-19.1182 -0.646484 -54.6846 -1.84863 -81.5654 22.8262c-1.5791 1.44824 -3.07617 3.01172 -4.53223 4.62988c2.30176 -147.696 7.52441 -295.311 15.6758 -441.83c0.500977 -8.96191 1.62891 -13.1611 2.27734 -14.8994
c9.06641 -5.66602 12.8467 -17.2725 8.42578 -27.3545c-3.60254 -8.21484 -11.6367 -13.1123 -20.0674 -13.1123c-2.9375 0 -5.9209 0.59375 -8.78125 1.84766c-23.3086 10.2217 -24.959 39.9082 -25.583 51.085c-7.38574 132.734 -12.3682 266.364 -14.9717 400.139z
M257.868 169.236c16.6816 0.561523 34.0107 1.69922 50.5986 5.40527c-11.2393 8.89941 -22.1152 18.5596 -32.5635 28.9668c-3.07422 3.06055 -6.12109 6.19238 -9.1709 9.3291c-11.2861 11.6035 -21.9453 22.5615 -33.3516 29.1172
c-2.03906 1.16895 -9.64062 5.20117 -17.6006 5.20117c-4.18848 0 -8.47559 -1.11426 -12.1084 -4.34668c-5.48047 -4.875 -8.80664 -14.71 -8.89453 -26.3057c-0.112305 -14.5303 4.95996 -29.0166 12.6191 -36.0459c11.3984 -10.4619 27.7676 -12.0879 50.4717 -11.3213z
M27.3438 611.646c-41.7803 -157.617 10.5156 -237.094 65.8809 -321.234c11.9844 -18.2119 24.0947 -36.6641 35.2744 -56.0146c-1.02148 124.24 -0.00878906 248.406 3.11719 371.902c0.306641 12.0908 10.3115 21.6416 22.4463 21.3379
c12.0908 -0.306641 21.6445 -10.3555 21.3379 -22.4463c-2.79199 -110.261 -3.91113 -221.058 -3.37988 -331.962c0.821289 0.821289 1.66211 1.62305 2.52734 2.39453c21.373 19.0215 52.2754 20.71 80.6504 4.40332c16.7139 -9.60254 30.0391 -23.3057 42.9268 -36.5547
c2.8877 -2.9668 5.77246 -5.93457 8.68262 -8.83594c15.083 -15.0225 31.1709 -28.2764 47.9971 -39.6885c28.0225 19.0791 61.166 53.2988 88.8242 105.057c30.0371 56.209 63.2715 152.991 51.0137 294.877c-6.75586 78.2119 -34.8818 146.249 -77.1689 186.663
c-48.29 46.1494 -132.803 66.6523 -196.586 47.6855c-89.5986 -26.6455 -165.571 -112.051 -193.544 -217.584z" />
    <glyph glyph-name="Q" unicode="Q" horiz-adv-x="534" 
d="M55.7207 233.921c-54.2354 57.3477 -87.7842 144.191 -89.4072 235.373c-1.80957 101.633 35.5576 202.54 99.9541 269.931c30.584 32.0078 61.4014 48.415 91.5918 48.7627c26.9766 0.30957 54.6562 -12.0254 82.0869 -36.6699
c56.7695 -51 96.5352 -135.245 121.571 -257.559c20.1904 -98.6484 28.0986 -197.892 23.7188 -293.737c18.5371 1.17188 37.3594 2.09961 56.1543 2.16797c34.4082 0.123047 74.0312 -3.13965 107.386 -28.3428c9.64941 -7.29199 11.5625 -21.0254 4.27051 -30.6748
c-7.29199 -9.65234 -21.0283 -11.5635 -30.6748 -4.27148c-22.9033 17.3086 -52.3516 19.5918 -80.8203 19.4902c-19.5342 -0.0742188 -39.5137 -1.15234 -59.2197 -2.4502c-3.96094 -45.9355 -10.8154 -90.9268 -20.5605 -134.511
c-24.5264 -109.696 -65.1133 -188.242 -120.63 -233.447c-28.1973 -22.9609 -57.7334 -34.8223 -86.3086 -34.8223c-1.72461 0 -3.43848 0.109375 -5.15527 0.197266c0.572266 -38.6211 3.45996 -76.1143 12.3701 -111.653c7.13867 -28.4717 16.9658 -47.584 29.21 -56.8037
c4.93555 -3.71484 11.1602 -5.125 16.6514 -3.76953c4.65039 1.14648 8.15137 4.14941 10.4072 8.9209c5.16797 10.9355 18.2275 15.6084 29.1553 10.4434c10.9355 -5.16504 15.6113 -18.2197 10.4434 -29.1553c-7.92773 -16.7744 -21.959 -28.3975 -39.5107 -32.7305
c-4.76855 -1.17676 -9.66309 -1.75195 -14.5684 -1.75195c-13.7666 0 -27.6064 4.53613 -38.9229 13.0576c-20.7441 15.6191 -35.5781 42.1602 -45.3477 81.1396c-10.9854 43.8086 -13.6846 88.8896 -13.8027 134.935c-34.792 18.9922 -64.2324 57.9033 -79.3535 107.346
c-14.3467 46.9014 -17.5518 100.252 -10.3965 172.983c5.41211 55.0322 22.2441 122.62 39.708 187.603zM319.032 30.9854c8.8418 39.541 15.1963 80.3164 19.0615 121.949c-24.2148 -1.53027 -48.8779 -2.63379 -73.5469 -1.96582
c-69.9453 1.89453 -126.37 18.5791 -172.026 50.9346c-14.3984 -54.7666 -28.3838 -113.732 -32.9219 -159.868c-4.07324 -41.4053 -7.60449 -102.609 8.69141 -155.887c8.34082 -27.2725 22.0244 -50.5234 38.1064 -66.4326
c0.136719 16.5312 -0.708984 35.7041 -8.13574 47.042c-6.62988 10.1172 -3.80176 23.6914 6.31543 30.3184c10.1143 6.62988 23.6914 3.7998 30.3184 -6.31445c16.2959 -24.8691 15.6309 -57.4023 15.1465 -81.1572
c-0.0820312 -4.13379 -0.158203 -8.25879 -0.226562 -12.3789c26.1416 -2.17578 50.8984 14.3164 63.6738 24.7188c47.7041 38.8428 83.2129 109.177 105.544 209.041zM97.9287 708.957c-55.7568 -58.3496 -89.4111 -149.889 -87.8262 -238.891
c1.62305 -91.1699 40.6992 -180 99.5527 -226.305c39.667 -31.209 90.7236 -47.2393 156.086 -49.0107c24.874 -0.673828 50.3945 0.624023 75.5156 2.27734c4.72754 93.7568 -2.82227 191.1 -22.6436 287.941c-23.0869 112.793 -58.3936 189.256 -107.935 233.76
c-12.9609 11.6416 -32.4346 25.457 -51.8428 25.457c-0.15918 0 -0.3125 0 -0.47168 -0.00292969c-17.9629 -0.208008 -38.2959 -12.0605 -60.4355 -35.2266z" />
    <glyph glyph-name="R" unicode="R" horiz-adv-x="576" 
d="M21.2002 -445.765c-11.1797 113.176 -18.7725 228.499 -26.1055 340.032c-7.76855 118.021 -15.7998 240.061 -15.9453 360.893c-0.194336 160.842 13.5635 322.888 26.8672 479.599c1.02344 12.0469 11.5869 20.9922 23.6719 19.9658
c12.0498 -1.02344 20.9902 -11.6221 19.9668 -23.6719c-13.2266 -155.788 -26.8994 -316.882 -26.7109 -475.84c0.145508 -119.42 8.13086 -240.742 15.8525 -358.07c0.435547 -6.62207 0.875977 -13.2988 1.31348 -19.9453
c15.4033 190.996 41.4824 417.854 85.2148 600.731c17.7549 74.248 38.6514 153.06 71.084 226.368c15.2715 34.5205 40.1514 83.7686 79.7441 112.79c43.5518 31.9229 98.291 30.5957 133.107 -3.22949c20.2705 -19.6953 34.4336 -49.9922 42.0898 -90.0449
c16.1914 -84.6855 0.0107422 -182.707 -45.5576 -276.007c-62.373 -127.703 -164.578 -221.882 -280.757 -258.932c44.9307 -77.5332 78.5732 -164.63 111.099 -248.946c7.01855 -18.1924 14.2725 -37.001 21.5068 -55.3574
c10.3057 -26.1504 19.8701 -49.4756 32.5635 -70.0801c17.6396 -28.6328 40.5811 -49.5488 64.6016 -58.8965c24.4365 -9.50977 50.3076 -6.88477 70.9824 7.19922c15.7832 10.7471 30.71 29.0518 46.9697 57.6025c51.5469 90.5049 75.417 202.301 93.7432 299.986
c2.23047 11.8887 13.667 19.7178 25.5605 17.4873c11.8887 -2.23047 19.7178 -13.6729 17.4873 -25.5615c-18.9834 -101.178 -43.8301 -217.195 -98.7305 -313.586c-12.3896 -21.751 -32.123 -52.8887 -60.375 -72.1299
c-19.9365 -13.5771 -42.7852 -20.4922 -66.1924 -20.4922c-15.0879 0 -30.4004 2.86914 -45.3271 8.67773c-32.8535 12.7832 -63.3965 40.0361 -86.0068 76.7383c-14.5547 23.6289 -25.3457 49.9023 -36.0215 76.9941c-7.29199 18.502 -14.5762 37.3867 -21.6221 55.6504
c-26.2568 68.0645 -53.2441 137.982 -86.0459 202.162c-28.4414 -229.675 -40.0146 -457.141 -44.3477 -570.773c-0.0078125 -0.213867 -0.0429688 -0.418945 -0.0566406 -0.632812c-0.0273438 -0.413086 -0.0576172 -0.829102 -0.109375 -1.2373
c-0.0380859 -0.3125 -0.0898438 -0.619141 -0.141602 -0.925781c-0.0654297 -0.396484 -0.133789 -0.791016 -0.22168 -1.17969c-0.0742188 -0.328125 -0.165039 -0.648438 -0.25293 -0.97168c-0.0957031 -0.353516 -0.188477 -0.704102 -0.303711 -1.04883
c-0.115234 -0.347656 -0.24707 -0.6875 -0.378906 -1.0293c-0.118164 -0.306641 -0.236328 -0.616211 -0.368164 -0.916992c-0.15625 -0.355469 -0.331055 -0.703125 -0.503906 -1.04785c-0.136719 -0.270508 -0.270508 -0.543945 -0.417969 -0.8125
c-0.194336 -0.347656 -0.405273 -0.681641 -0.616211 -1.01855c-0.15918 -0.251953 -0.31543 -0.508789 -0.488281 -0.754883c-0.21875 -0.317383 -0.457031 -0.624023 -0.692383 -0.930664c-0.188477 -0.249023 -0.376953 -0.498047 -0.577148 -0.736328
c-0.235352 -0.279297 -0.484375 -0.541992 -0.730469 -0.807617c-0.229492 -0.246094 -0.457031 -0.498047 -0.695312 -0.733398c-0.241211 -0.232422 -0.493164 -0.451172 -0.742188 -0.675781c-0.270508 -0.243164 -0.539062 -0.489258 -0.824219 -0.71875
c-0.241211 -0.197266 -0.496094 -0.375 -0.748047 -0.561523c-0.306641 -0.229492 -0.610352 -0.461914 -0.933594 -0.675781c-0.259766 -0.169922 -0.530273 -0.323242 -0.795898 -0.484375c-0.328125 -0.197266 -0.651367 -0.402344 -0.993164 -0.583008
c-0.300781 -0.161133 -0.615234 -0.300781 -0.927734 -0.448242c-0.317383 -0.150391 -0.629883 -0.30957 -0.956055 -0.446289c-0.408203 -0.172852 -0.830078 -0.3125 -1.24902 -0.458008c-0.243164 -0.0849609 -0.481445 -0.183594 -0.727539 -0.259766
c-0.657227 -0.202148 -1.3252 -0.37207 -2.00684 -0.511719c-0.0195312 -0.00585938 -0.0410156 -0.0136719 -0.0625 -0.0166016c-1.41016 -0.285156 -2.86621 -0.438477 -4.35254 -0.438477h-0.0117188h-0.0292969
c-0.0244141 0 -0.0517578 0.00292969 -0.0761719 0.00292969c-0.243164 0.00292969 -0.486328 0.00585938 -0.729492 0.0136719c-0.166992 0.00585938 -0.328125 0.0361328 -0.495117 0.0439453c-0.454102 0.0273438 -0.905273 0.0654297 -1.35449 0.120117
c-0.268555 0.0351562 -0.53418 0.0732422 -0.799805 0.114258c-0.429688 0.0683594 -0.859375 0.150391 -1.2832 0.246094c-0.276367 0.0605469 -0.552734 0.125977 -0.826172 0.197266c-0.391602 0.104492 -0.777344 0.222656 -1.16016 0.345703
c-0.290039 0.0957031 -0.583008 0.188477 -0.868164 0.294922c-0.347656 0.128906 -0.6875 0.274414 -1.0293 0.421875c-0.298828 0.131836 -0.599609 0.257812 -0.889648 0.397461c-0.317383 0.15332 -0.626953 0.326172 -0.936523 0.496094
c-0.292969 0.161133 -0.588867 0.314453 -0.874023 0.487305c-0.306641 0.186523 -0.599609 0.391602 -0.895508 0.591797c-0.265625 0.180664 -0.536133 0.353516 -0.792969 0.541992c-0.333984 0.249023 -0.651367 0.517578 -0.96875 0.783203
c-0.200195 0.166992 -0.408203 0.323242 -0.602539 0.496094c-1.01855 0.911133 -1.95215 1.91895 -2.78711 3.01074c-0.0654297 0.0820312 -0.120117 0.171875 -0.180664 0.256836c-0.344727 0.462891 -0.678711 0.936523 -0.985352 1.42969
c-0.104492 0.169922 -0.195312 0.344727 -0.296875 0.517578c-0.246094 0.413086 -0.487305 0.832031 -0.706055 1.26758c-0.120117 0.238281 -0.21875 0.484375 -0.331055 0.725586c-0.174805 0.37793 -0.347656 0.755859 -0.500977 1.14746
c-0.118164 0.298828 -0.213867 0.608398 -0.318359 0.912109c-0.118164 0.347656 -0.238281 0.692383 -0.339844 1.0459c-0.0986328 0.344727 -0.177734 0.698242 -0.259766 1.05176c-0.0761719 0.331055 -0.155273 0.657227 -0.21582 0.994141
c-0.0654297 0.364258 -0.112305 0.733398 -0.161133 1.10547c-0.0302734 0.232422 -0.0791016 0.457031 -0.100586 0.689453zM167.918 467.744c-17.2891 -72.3076 -31.792 -151.676 -43.9434 -233.019c99.7959 36.043 187.545 119.866 242.459 232.298
c41.4404 84.8447 56.3184 173.119 41.8955 248.561c-5.85547 30.6172 -16.085 53.7373 -29.5908 66.8574c-10.2188 9.92578 -22.4434 14.0186 -34.7998 14.0186c-14.8584 0 -29.9082 -5.91309 -41.8955 -14.7002c-31.1406 -22.8242 -52.3438 -65.2529 -65.584 -95.1807
c-31.0117 -70.1035 -51.2686 -146.604 -68.541 -218.835z" />
    <glyph glyph-name="S" unicode="S" horiz-adv-x="492" 
d="M166.215 184.643c-76.7832 76.8184 -158.502 172.663 -182.421 301.075c-20.4102 109.582 9.6543 229.952 74.8115 299.524c71.9297 76.8047 182.88 86.2871 258.092 22.0498c23.4951 -20.0703 42.0732 -45.6074 53.7285 -73.8545
c23.6836 -57.3916 21.0586 -133.416 -7.02441 -203.366c-24.6006 -61.2891 -64.4316 -111.599 -99.5713 -155.984c-7.50879 -9.48535 -21.2832 -11.0811 -30.7627 -3.5752c-9.48242 7.50586 -11.084 21.2803 -3.57812 30.7627
c34.9209 44.1094 71.0293 89.7188 93.2676 145.117c23.9219 59.5898 26.6074 123.271 7.18066 170.346c-9.01953 21.8691 -23.4375 41.668 -41.6875 57.2568c-57.0625 48.7441 -142.044 40.71 -197.678 -18.6875c-56.0938 -59.8984 -81.7021 -165.016 -63.7207 -261.567
c21.7266 -116.655 98.3018 -206.06 170.341 -278.129c9.30957 -9.31543 18.7178 -18.584 28.1484 -27.875c28.8984 -28.4717 58.2129 -57.3535 85.7207 -88.5078c51.5557 37.1484 108.961 60.5469 168.726 68.4443c11.998 1.58496 22.9971 -6.85449 24.5791 -18.8418
c1.58496 -11.9893 -6.84863 -22.9932 -18.8408 -24.5781c-51.5283 -6.81055 -101.255 -26.873 -146.279 -58.7246c27.415 -34.8193 51.958 -72.9072 71.0322 -116.483c15.3809 -35.1367 37.7285 -102.982 14.5977 -162.588
c-15.3232 -39.4893 -48.752 -67.9629 -87.2471 -74.3135c-5.75391 -0.950195 -11.5762 -1.4209 -17.418 -1.4209c-28.7617 0 -58.1611 11.3818 -84.3877 32.9629c-22.4658 18.4854 -39.5498 42.0674 -49.4043 68.1924c-15.6328 41.4492 -14.1934 94.4141 3.85156 141.688
c14.2529 37.3486 38.0459 71.8174 72.7363 105.375c4.54102 4.39062 9.15039 8.66602 13.8174 12.8154c-26.3037 29.6895 -54.4551 57.4248 -82.2197 84.7764c-9.5127 9.37012 -18.998 18.7158 -28.3896 28.1104zM293.463 27.4629
c-29.9854 -29.002 -50.3564 -58.2852 -62.2773 -89.5098c-14.333 -37.5508 -15.748 -78.9043 -3.78809 -110.614c7.15527 -18.9727 19.6895 -36.2012 36.25 -49.8301c21.6553 -17.8203 45.3857 -25.6875 66.8525 -22.1484c22.9277 3.78027 43.9453 22.208 53.5449 46.9453
c17.4395 44.9443 -1.21582 100.226 -13.8896 129.179c-17.2373 39.3848 -39.793 74.374 -65.1953 106.681c-3.87891 -3.47363 -7.71094 -7.04004 -11.4971 -10.7021z" />
    <glyph glyph-name="T" unicode="T" horiz-adv-x="642" 
d="M0.382812 701.945c-9.43555 7.56836 -10.9482 21.3457 -3.37695 30.7812c7.56836 9.43555 21.3506 10.9492 30.7832 3.38281c1.2373 -0.994141 5.02539 -4.01855 15.917 -3.13965c2.08887 0.213867 13.7305 2.03418 27.209 4.14453
c72.8574 11.4014 266.389 41.6846 450.418 55.4121c323.862 24.1602 387.895 -20.0723 407.877 -55.4473c5.95117 -10.5303 2.23926 -23.8887 -8.29102 -29.8369c-10.5332 -5.9541 -23.8916 -2.23438 -29.8369 8.29395c-7.71973 13.6543 -56.9561 56.4092 -366.488 33.3164
c-29.585 -2.20605 -59.4326 -4.85059 -88.9902 -7.77441c0.446289 -1.60645 0.733398 -3.2793 0.801758 -5.01758l25.9561 -657.92c51.0518 38.1094 104.854 70.334 160.661 96.1826c10.9717 5.08301 23.9932 0.306641 29.0732 -10.667
c5.08594 -10.9736 0.30957 -23.9922 -10.6641 -29.0723c-61.8945 -28.666 -121.246 -65.623 -176.951 -110.141l1.36914 -34.6797c3.41895 -86.6562 6.95605 -176.261 -3.36914 -264.562c-3.83789 -32.8096 -10.6895 -75.0059 -29.7637 -110.372
c-21.0254 -38.9961 -54.5283 -62.584 -88.332 -62.5869c-1.53613 0 -3.06055 0.0488281 -4.59668 0.147461c-56.5234 3.59961 -93.3604 69.5889 -100.532 132.915c-7.42676 65.5537 7.71387 136.911 42.6318 200.927c35.0107 64.1914 84.71 111.813 119.047 142.048
c6.25488 5.51074 12.5615 10.9248 18.918 16.2432l-27.2178 689.813c-0.0302734 0.769531 -0.0195312 1.53027 0.0292969 2.28027c-136.181 -14.7949 -260.073 -34.1777 -314.979 -42.7705c-20.7549 -3.24609 -27.4609 -4.28613 -30.458 -4.52734
c-2.4668 -0.197266 -4.88086 -0.298828 -7.24023 -0.298828c-15.5947 0 -28.8896 4.33301 -39.6035 12.9258zM418.972 -269.715c9.93066 84.9043 6.46387 172.773 3.11035 257.746l-0.0166016 0.408203c-46.9541 -42.3711 -78.5381 -80.6689 -101.727 -123.183
c-30.6475 -56.1816 -43.9863 -118.342 -37.5645 -175.027c5.68262 -50.168 32.5059 -92.3994 59.7969 -94.1377c17.7979 -1.13574 38.0352 14.3799 51.5908 39.5225c15.5459 28.8271 21.4258 65.7373 24.8096 94.6709z" />
    <glyph glyph-name="U" unicode="U" horiz-adv-x="788" 
d="M14.3447 701.135c-11.1543 2.07812 -18.9961 12.4355 -17.748 23.8994c1.31152 12.0225 12.1318 20.7051 24.1436 19.3936c57.4629 -6.26855 67.0215 -122.403 77.9766 -428.183c4.67285 -130.369 9.50195 -265.181 23.0273 -374.793
c17.96 -145.545 44.8271 -188.604 64.1992 -199.096c3.52539 -1.9082 12.8848 -6.97754 32.7881 5.01465c32.7441 19.7256 53.7891 62.6035 75.9922 112.467c82.1123 184.404 117.947 397.564 152.6 603.706c14.7217 87.5791 29.9443 178.139 48.5449 265.715
c0.418945 1.96289 1.10645 3.79395 1.98535 5.49609l-0.0517578 1.15234c-0.53418 12.083 8.82715 22.3125 20.9102 22.8467c12.0576 0.53418 22.3115 -8.8252 22.8457 -20.9082l36.1357 -816.6c2.24707 -50.8213 4.79785 -108.424 24.7314 -154.628
c8.43652 -19.5557 19.0518 -34.4414 30.6963 -43.0479c10.8701 -8.03711 23.0156 -10.2979 32.4814 -6.05469c14.251 6.38672 26.9609 26.6074 37.7734 60.1016c11.4229 35.375 18.9561 73.6514 26.2432 110.663l48.249 245.028
c2.33789 11.8662 13.8379 19.5938 25.7207 17.2559c11.8662 -2.33789 19.5938 -13.8516 17.2559 -25.7178l-48.249 -245.026c-7.5332 -38.2598 -15.3232 -77.8223 -27.5371 -115.658c-14.9951 -46.4473 -35.1279 -74.7764 -61.541 -86.6123
c-8.91602 -3.99609 -18.4443 -5.95898 -28.1123 -5.95898c-16.4648 0 -33.3408 5.69629 -48.3115 16.7607c-18.1182 13.3857 -33.2178 33.8828 -44.8818 60.9199c-23.1172 53.5869 -25.8545 115.457 -28.2715 170.043l-27.8252 628.748
c-5.33496 -30.7705 -10.5029 -61.4561 -15.5996 -91.7773c-35.1035 -208.836 -71.4062 -424.783 -155.777 -614.263c-20.5791 -46.2119 -46.1895 -103.724 -93.4033 -132.167c-17.1006 -10.3037 -32.1943 -13.9609 -45.002 -13.9609
c-12.7861 0 -23.2891 3.64062 -31.2412 7.94922c-43.0938 23.3418 -69.8682 94.9678 -86.8066 232.243c-13.7607 111.503 -18.6221 247.284 -23.3271 378.593c-3.55859 99.3281 -6.91992 193.151 -13.9326 265.259c-9.58105 98.542 -22.8926 117.679 -26.6807 121.196z" />
    <glyph glyph-name="U" unicode="&#xdc;" horiz-adv-x="788" 
d="M14.3447 701.135c-11.1543 2.07812 -18.9961 12.4355 -17.748 23.8994c1.31152 12.0225 12.1318 20.7051 24.1436 19.3936c57.4629 -6.26855 67.0215 -122.403 77.9766 -428.183c4.67285 -130.369 9.50195 -265.181 23.0273 -374.793
c17.96 -145.545 44.8271 -188.604 64.1992 -199.096c3.52539 -1.9082 12.8848 -6.97754 32.7881 5.01465c32.7441 19.7256 53.7891 62.6035 75.9922 112.467c82.1123 184.404 117.947 397.564 152.6 603.706c14.7217 87.5791 29.9443 178.139 48.5449 265.715
c0.418945 1.96289 1.10645 3.79395 1.98535 5.49609l-0.0517578 1.15234c-0.53418 12.083 8.82715 22.3125 20.9102 22.8467c12.0576 0.53418 22.3115 -8.8252 22.8457 -20.9082l36.1357 -816.6c2.24707 -50.8213 4.79785 -108.424 24.7314 -154.628
c8.43652 -19.5557 19.0518 -34.4414 30.6963 -43.0479c10.8701 -8.03711 23.0156 -10.2979 32.4814 -6.05469c14.251 6.38672 26.9609 26.6074 37.7734 60.1016c11.4229 35.375 18.9561 73.6514 26.2432 110.663l48.249 245.028
c2.33789 11.8662 13.8379 19.5938 25.7207 17.2559c11.8662 -2.33789 19.5938 -13.8516 17.2559 -25.7178l-48.249 -245.026c-7.5332 -38.2598 -15.3232 -77.8223 -27.5371 -115.658c-14.9951 -46.4473 -35.1279 -74.7764 -61.541 -86.6123
c-8.91602 -3.99609 -18.4443 -5.95898 -28.1123 -5.95898c-16.4648 0 -33.3408 5.69629 -48.3115 16.7607c-18.1182 13.3857 -33.2178 33.8828 -44.8818 60.9199c-23.1172 53.5869 -25.8545 115.457 -28.2715 170.043l-27.8252 628.748
c-5.33496 -30.7705 -10.5029 -61.4561 -15.5996 -91.7773c-35.1035 -208.836 -71.4062 -424.783 -155.777 -614.263c-20.5791 -46.2119 -46.1895 -103.724 -93.4033 -132.167c-17.1006 -10.3037 -32.1943 -13.9609 -45.002 -13.9609
c-12.7861 0 -23.2891 3.64062 -31.2412 7.94922c-43.0938 23.3418 -69.8682 94.9678 -86.8066 232.243c-13.7607 111.503 -18.6221 247.284 -23.3271 378.593c-3.55859 99.3281 -6.91992 193.151 -13.9326 265.259c-9.58105 98.542 -22.8926 117.679 -26.6807 121.196z" />
    <glyph glyph-name="U" unicode="&#xdb;" horiz-adv-x="788" 
d="M14.3447 701.135c-11.1543 2.07812 -18.9961 12.4355 -17.748 23.8994c1.31152 12.0225 12.1318 20.7051 24.1436 19.3936c57.4629 -6.26855 67.0215 -122.403 77.9766 -428.183c4.67285 -130.369 9.50195 -265.181 23.0273 -374.793
c17.96 -145.545 44.8271 -188.604 64.1992 -199.096c3.52539 -1.9082 12.8848 -6.97754 32.7881 5.01465c32.7441 19.7256 53.7891 62.6035 75.9922 112.467c82.1123 184.404 117.947 397.564 152.6 603.706c14.7217 87.5791 29.9443 178.139 48.5449 265.715
c0.418945 1.96289 1.10645 3.79395 1.98535 5.49609l-0.0517578 1.15234c-0.53418 12.083 8.82715 22.3125 20.9102 22.8467c12.0576 0.53418 22.3115 -8.8252 22.8457 -20.9082l36.1357 -816.6c2.24707 -50.8213 4.79785 -108.424 24.7314 -154.628
c8.43652 -19.5557 19.0518 -34.4414 30.6963 -43.0479c10.8701 -8.03711 23.0156 -10.2979 32.4814 -6.05469c14.251 6.38672 26.9609 26.6074 37.7734 60.1016c11.4229 35.375 18.9561 73.6514 26.2432 110.663l48.249 245.028
c2.33789 11.8662 13.8379 19.5938 25.7207 17.2559c11.8662 -2.33789 19.5938 -13.8516 17.2559 -25.7178l-48.249 -245.026c-7.5332 -38.2598 -15.3232 -77.8223 -27.5371 -115.658c-14.9951 -46.4473 -35.1279 -74.7764 -61.541 -86.6123
c-8.91602 -3.99609 -18.4443 -5.95898 -28.1123 -5.95898c-16.4648 0 -33.3408 5.69629 -48.3115 16.7607c-18.1182 13.3857 -33.2178 33.8828 -44.8818 60.9199c-23.1172 53.5869 -25.8545 115.457 -28.2715 170.043l-27.8252 628.748
c-5.33496 -30.7705 -10.5029 -61.4561 -15.5996 -91.7773c-35.1035 -208.836 -71.4062 -424.783 -155.777 -614.263c-20.5791 -46.2119 -46.1895 -103.724 -93.4033 -132.167c-17.1006 -10.3037 -32.1943 -13.9609 -45.002 -13.9609
c-12.7861 0 -23.2891 3.64062 -31.2412 7.94922c-43.0938 23.3418 -69.8682 94.9678 -86.8066 232.243c-13.7607 111.503 -18.6221 247.284 -23.3271 378.593c-3.55859 99.3281 -6.91992 193.151 -13.9326 265.259c-9.58105 98.542 -22.8926 117.679 -26.6807 121.196z" />
    <glyph glyph-name="U" unicode="&#xda;" horiz-adv-x="788" 
d="M14.3447 701.135c-11.1543 2.07812 -18.9961 12.4355 -17.748 23.8994c1.31152 12.0225 12.1318 20.7051 24.1436 19.3936c57.4629 -6.26855 67.0215 -122.403 77.9766 -428.183c4.67285 -130.369 9.50195 -265.181 23.0273 -374.793
c17.96 -145.545 44.8271 -188.604 64.1992 -199.096c3.52539 -1.9082 12.8848 -6.97754 32.7881 5.01465c32.7441 19.7256 53.7891 62.6035 75.9922 112.467c82.1123 184.404 117.947 397.564 152.6 603.706c14.7217 87.5791 29.9443 178.139 48.5449 265.715
c0.418945 1.96289 1.10645 3.79395 1.98535 5.49609l-0.0517578 1.15234c-0.53418 12.083 8.82715 22.3125 20.9102 22.8467c12.0576 0.53418 22.3115 -8.8252 22.8457 -20.9082l36.1357 -816.6c2.24707 -50.8213 4.79785 -108.424 24.7314 -154.628
c8.43652 -19.5557 19.0518 -34.4414 30.6963 -43.0479c10.8701 -8.03711 23.0156 -10.2979 32.4814 -6.05469c14.251 6.38672 26.9609 26.6074 37.7734 60.1016c11.4229 35.375 18.9561 73.6514 26.2432 110.663l48.249 245.028
c2.33789 11.8662 13.8379 19.5938 25.7207 17.2559c11.8662 -2.33789 19.5938 -13.8516 17.2559 -25.7178l-48.249 -245.026c-7.5332 -38.2598 -15.3232 -77.8223 -27.5371 -115.658c-14.9951 -46.4473 -35.1279 -74.7764 -61.541 -86.6123
c-8.91602 -3.99609 -18.4443 -5.95898 -28.1123 -5.95898c-16.4648 0 -33.3408 5.69629 -48.3115 16.7607c-18.1182 13.3857 -33.2178 33.8828 -44.8818 60.9199c-23.1172 53.5869 -25.8545 115.457 -28.2715 170.043l-27.8252 628.748
c-5.33496 -30.7705 -10.5029 -61.4561 -15.5996 -91.7773c-35.1035 -208.836 -71.4062 -424.783 -155.777 -614.263c-20.5791 -46.2119 -46.1895 -103.724 -93.4033 -132.167c-17.1006 -10.3037 -32.1943 -13.9609 -45.002 -13.9609
c-12.7861 0 -23.2891 3.64062 -31.2412 7.94922c-43.0938 23.3418 -69.8682 94.9678 -86.8066 232.243c-13.7607 111.503 -18.6221 247.284 -23.3271 378.593c-3.55859 99.3281 -6.91992 193.151 -13.9326 265.259c-9.58105 98.542 -22.8926 117.679 -26.6807 121.196z" />
    <glyph glyph-name="V" unicode="V" horiz-adv-x="841" 
d="M25.5312 720.737c-10.876 -5.2998 -23.9785 -0.787109 -29.2812 10.0801c-5.29688 10.8701 -0.780273 23.9795 10.0928 29.2793c32.3525 15.7695 71.8799 4.56055 100.688 -28.5615c22.3809 -25.7314 35.6758 -60.0527 46.7041 -93.3057
c48.4375 -146.027 69.9199 -304.027 90.6934 -456.826c15.7588 -115.916 32.0547 -235.776 59.9922 -348.89c10.4873 -42.459 23.3389 -86.3086 46.1797 -119.365c21.8604 -31.6387 52.001 -48.4219 76.8125 -42.7607c15.5322 3.54492 32.4082 15.8301 51.5918 37.5596
c63.3154 71.6992 99.9277 176.143 127.392 268.854c17.8311 60.1885 32.5469 118.193 44.1533 174.143c-44.9717 5.63379 -90.4033 12.7266 -130.574 29.8818c-133.222 56.8906 -227.819 225.405 -224.929 400.689c1.61523 97.8662 32.3145 186.39 84.2256 242.867
c28.5371 31.0527 65.3057 52.2451 103.53 59.6689c40.6006 7.88672 81.2061 -0.202148 114.336 -22.7744c54.709 -37.2744 92.6211 -111.421 112.681 -220.379c25.085 -136.257 22.7715 -285.555 -7.32812 -452.196c51.6074 -6.62402 103.453 -15.627 148.118 -39.8965
c10.626 -5.77344 14.5596 -19.0713 8.78613 -29.6973c-5.77832 -10.6289 -19.0684 -14.5596 -29.6973 -8.78613c-38.9307 21.1514 -85.6572 28.9854 -135.532 35.292c-11.9736 -58.2617 -27.2285 -118.623 -45.7764 -181.245
c-28.8301 -97.3047 -67.5938 -207.308 -136.556 -285.404c-16.2461 -18.3975 -41.6602 -43.7314 -74.6758 -51.2676c-6.52832 -1.49219 -13.1553 -2.22266 -19.8047 -2.22266c-37.1514 -0.00292969 -75.1377 22.7695 -102.788 62.7871
c-26.8457 38.8594 -41.1787 87.2529 -52.665 133.761c-28.499 115.391 -44.9561 236.434 -60.8711 353.491c-20.5029 150.814 -41.7061 306.767 -88.8623 448.937c-9.59668 28.9287 -20.8613 58.4424 -38.1807 78.3516c-12.6328 14.5244 -32.5117 25.7041 -48.4541 17.9355z
M537.174 221.108c35.8809 -15.3232 77.5225 -21.5947 121.777 -27.0723c29.5742 162.355 32.0381 307.246 7.79297 438.932c-17.6123 95.665 -50.209 162.098 -94.2666 192.115c-17.9785 12.25 -38.4727 18.1924 -59.5146 18.1924
c-35.3477 0 -72.2422 -16.7578 -101.444 -48.5303c-44.0938 -47.9697 -71.2617 -127.952 -72.6797 -213.949c-2.56738 -155.673 82.7012 -310.306 198.335 -359.688z" />
    <glyph glyph-name="W" unicode="W" horiz-adv-x="944" 
d="M20.0068 768.777c-11.7129 3.01367 -18.7617 14.957 -15.7451 26.6699c3.01074 11.71 14.9346 18.7617 26.667 15.7451c71.9072 -18.5156 94.4111 -123.036 105.081 -200.046c13.8975 -100.277 15.7178 -230.868 17.4775 -357.159
c2.93945 -210.977 6.27344 -450.104 71.4854 -507.9c10.7959 -9.56934 22.6377 -13.3008 37.2773 -11.7354c17.8672 1.9082 34.1162 13.1914 49.6777 34.4912c53.1318 72.7285 86.5986 247.057 96.79 504.141c0.580078 14.6777 1.07031 29.1855 1.47559 43.5078
c-9.42188 195.464 -7.88867 363.646 -7.86914 365.538c0.115234 11.2783 8.77637 20.626 20.0137 21.5977c2.12988 0.180664 20.752 1.12793 24.4062 -21.4473c0.423828 -2.5918 0.839844 -6.06836 1.28027 -10.623c4.0459 -41.8789 10.6973 -187.504 6.0166 -354.991
c1.17676 -24.3018 2.5293 -49.001 4.07617 -73.8643c24.1543 -388.436 74.7266 -490.087 102.725 -516.105c8.79199 -8.1709 15.1504 -8.67773 19.1855 -8.34082c31.0742 2.58984 61.2725 39.7656 89.7461 110.496c51.7793 128.634 85.2402 278.129 101.738 455.2
c-14.043 8.43652 -28.5869 16.4189 -42.7305 24.1846c-33.7656 18.5342 -68.6807 37.6982 -100.521 64.6504c-74.4502 63.0244 -126.096 167 -138.14 278.128c-5.12207 47.252 -5.22656 116.54 23.3652 178.281c28.375 61.2812 80.4395 99.0674 132.783 96.2529
c43.7783 -2.35449 87.4062 -33.5605 116.701 -83.4766c21.3682 -36.4092 36.2568 -82.3887 46.8535 -144.699c16.4072 -96.4834 19.9932 -204.855 11.2715 -341.047c-1.06738 -16.7002 -2.27148 -33.1738 -3.6123 -49.4307
c85.6572 -55.5898 135.502 -107.228 152.181 -157.567c3.80469 -11.4805 -2.41992 -23.8701 -13.8975 -27.6748c-11.4941 -3.80176 -23.8721 2.42285 -27.6738 13.9004c-8.56543 25.8486 -35.9062 66.9443 -115.193 121.705
c-17.6035 -171.501 -51.3574 -317.738 -102.494 -444.766c-22.75 -56.5127 -60.6406 -132.277 -126.739 -137.785c-1.6123 -0.133789 -3.3291 -0.212891 -5.13281 -0.212891c-12.8135 0 -30.127 3.96875 -47.5039 20.1191
c-44.0381 40.9316 -76.4482 150.524 -98.1338 333.026c-28.709 -217.434 -83.3574 -327.91 -165.993 -336.738c-26.998 -2.88281 -50.876 4.68848 -70.9814 22.5088c-79.6816 70.627 -82.8623 298.654 -86.2266 540.067c-1.74121 124.957 -3.54492 254.168 -17.0674 351.758
c-13.8213 99.7354 -38.252 154.795 -72.6191 163.642zM749.862 346.529c8.46094 -4.64551 17.0654 -9.37012 25.6885 -14.2539c0.654297 8.85254 1.26758 17.7627 1.84473 26.752c8.49414 132.712 5.08105 237.859 -10.7432 330.904
c-9.68164 56.918 -22.8486 98.1836 -41.4492 129.874c-21.833 37.2031 -52.2207 60.3477 -81.2803 61.9111c-1.01855 0.0546875 -2.03711 0.0820312 -3.06055 0.0820312c-32.8809 0 -67.7598 -28.1016 -87.625 -71.0039
c-24.3711 -52.623 -24.0918 -113.42 -19.5693 -155.159c10.8643 -100.233 56.8057 -193.473 122.896 -249.419c28.4766 -24.1055 59.9619 -41.3887 93.2979 -59.6875z" />
    <glyph glyph-name="X" unicode="X" horiz-adv-x="689" 
d="M42.3799 803.049c-10.3203 -6.30371 -23.8027 -3.04492 -30.1045 7.27539c-6.30371 10.3223 -3.04883 23.8008 7.27344 30.1045c31.1104 19.0059 72.1816 8.51074 99.8809 -25.5176c21.915 -26.9189 32.8428 -62.4199 41.3613 -93.582
c34.2139 -125.141 51.0566 -257.938 67.3438 -386.363c0.336914 -2.64941 0.673828 -5.30469 1.01074 -7.95703c46.8115 115.429 95.2051 234.736 140.196 328.431c18.9121 39.3877 42.418 85 73.3662 124.688c32.0381 41.0928 64.7002 58.3848 97.0752 51.3877
c11.8223 -2.55371 19.3359 -14.209 16.7793 -26.0293s-14.207 -19.3369 -26.0293 -16.7803c-19.0898 4.12012 -41.5693 -20.4775 -53.2881 -35.5088c-28.3887 -36.4121 -50.5176 -79.4355 -68.4199 -116.719c-44.4629 -92.5967 -92.6729 -211.466 -139.293 -326.427
c-9.58887 -23.6504 -19.2412 -47.4463 -28.9229 -71.1768c16.2109 -119.496 36.4346 -239.56 74.0898 -350.472c30.1494 -88.8057 68.9648 -141.338 112.251 -151.923c26.3086 -6.43555 57.4053 3.13184 85.3213 26.2432c31.3809 25.9834 55.6035 65.3955 71.0938 92.7803
c44.3916 78.4824 76.8945 165.552 96.6064 258.792c2.49902 11.8281 14.0977 19.3994 25.9561 16.8945c11.8311 -2.50195 19.3975 -14.1221 16.8955 -25.9561c-20.6455 -97.6309 -54.7393 -188.908 -101.34 -271.294c-27.6992 -48.9766 -52.7676 -81.3428 -81.2822 -104.952
c-30.1738 -24.9834 -64.2373 -38.2539 -96.6943 -38.2539c-9.15625 0 -18.1816 1.05371 -26.96 3.2002c-59.3926 14.5244 -107.611 75.2168 -143.317 180.389c-31.0303 91.4004 -50.4434 187.884 -65.4033 284.945c-34.0938 -81.8008 -68.2363 -159.99 -101.336 -225.709
c-23.3906 -46.4424 -52.7793 -99.0459 -93.3906 -137.073c-8.34863 -7.81836 -18.6934 -16.1348 -32.0986 -18.5322c-2.35645 -0.421875 -4.70801 -0.626953 -7.03516 -0.626953c-16.4922 0 -31.5664 10.3037 -37.3916 26.3721
c-4.125 11.3711 1.75195 23.9297 13.123 28.0518c10.0156 3.63281 20.9707 -0.500977 26.2451 -9.32031c1.54688 1.04297 3.84668 2.86035 7.22168 6.02246c35.6074 33.3408 62.5508 81.7998 84.2139 124.807c41.5996 82.5938 85.1836 185.965 128.264 291.348
c-3.79395 28.3838 -7.38574 56.7021 -10.9551 84.8418c-16.0957 126.92 -32.7393 258.159 -66.1406 380.322c-7.33887 26.8428 -16.5527 57.1836 -33.0811 77.4834c-11.376 13.9795 -29.8281 23.8887 -43.085 15.7939z" />
    <glyph glyph-name="Y" unicode="Y" horiz-adv-x="862" 
d="M42.0615 839.53c-12.0742 -0.991211 -22.625 7.97754 -23.6191 20.0273c-0.988281 12.0527 7.98242 22.627 20.0352 23.6152c13.6348 1.11719 25.9717 -3.30664 35.7959 -12.7832c35.0137 -33.7812 32.4492 -128.321 24.8965 -292.514
c-7.77637 -169.127 -17.458 -379.61 47.998 -449.147c13.9932 -14.8691 30.959 -22.2432 51.8643 -22.5469c32.1777 -0.470703 62.1377 10.8213 89.084 33.5498c103.831 87.5703 135.026 281.744 162.551 453.056c13.3086 82.8135 25.873 161.033 45.6475 222.271
c7.82324 24.2227 19.1445 50.0713 43.8359 58.1543c11.7354 3.84277 23.8096 2.75098 34.9258 -3.16406c25.5918 -13.6211 38.9551 -49.3076 44.6406 -69.3701c33.2939 -117.46 50.5615 -252.901 54.3389 -426.244c2.34082 -107.54 -1.01562 -206.89 -10.1885 -298.873
c29.1064 14.2646 58.0293 28.0391 86.2236 41.4629c32.8623 15.6465 63.9043 30.4277 92.9062 44.9033c10.8125 5.40039 23.9707 1.00977 29.3711 -9.81348c5.40039 -10.8203 1.00391 -23.9707 -9.81641 -29.3711c-29.3633 -14.6533 -60.583 -29.5195 -93.6367 -45.2598
c-36.166 -17.2236 -73.5498 -35.0215 -110.923 -53.6934c-15.2959 -119.786 -41.1094 -226.523 -77.6973 -322.052c-24.7295 -64.5742 -50.1729 -111.044 -80.0703 -146.235c-40.2803 -47.4248 -89.0713 -73.4951 -137.487 -73.4951
c-0.298828 0 -0.599609 0 -0.900391 0.00292969c-57.0957 0.380859 -109.412 39.8457 -130.188 98.2031c-16.9414 47.5859 -13.0381 108.067 10.4404 161.788c21.7705 49.8066 55.6211 87.1904 85.8633 117.189c77.6396 77.0156 182.845 138.94 289.388 193.165
c11.2041 97.7617 15.4658 204.464 12.9229 321.127c-3.69531 169.521 -20.4346 301.473 -52.6865 415.254c-7.98242 28.1533 -19.5811 42.0566 -23.7363 42.9355c-1.66699 -0.602539 -7.5332 -4.31445 -15.8496 -30.0674
c-18.7422 -58.043 -31.0498 -134.653 -44.082 -215.761c-28.7344 -178.837 -61.2979 -381.535 -177.554 -479.587c-35.252 -29.7305 -74.9355 -44.4873 -117.961 -43.8633c-32.9189 0.479492 -60.8838 12.7021 -83.1191 36.3232
c-78.165 83.043 -68.4395 294.562 -59.8555 481.181c3.00879 65.4033 5.85059 127.183 4.25977 175.122c-2.12109 63.9639 -11.7617 79.9531 -15.8105 83.8564c-0.736328 0.711914 -0.804688 0.736328 -1.80664 0.654297zM539.396 -282.595
c32.2949 84.3213 55.9326 177.897 71.0918 282.111c-94.0088 -49.2529 -184.566 -104.841 -251.687 -171.422c-27.3076 -27.0859 -57.7578 -60.5801 -76.5771 -103.633c-19.1289 -43.7705 -22.6084 -92.2021 -9.31055 -129.556
c14.3926 -40.4307 51.0811 -68.8447 89.2207 -69.0996c34.9365 -0.262695 73.1797 20.9268 104.711 58.0508c26.5938 31.3047 49.6445 73.7393 72.5508 133.548z" />
    <glyph glyph-name="Y" unicode="&#x178;" horiz-adv-x="862" 
d="M42.0615 839.53c-12.0742 -0.991211 -22.625 7.97754 -23.6191 20.0273c-0.988281 12.0527 7.98242 22.627 20.0352 23.6152c13.6348 1.11719 25.9717 -3.30664 35.7959 -12.7832c35.0137 -33.7812 32.4492 -128.321 24.8965 -292.514
c-7.77637 -169.127 -17.458 -379.61 47.998 -449.147c13.9932 -14.8691 30.959 -22.2432 51.8643 -22.5469c32.1777 -0.470703 62.1377 10.8213 89.084 33.5498c103.831 87.5703 135.026 281.744 162.551 453.056c13.3086 82.8135 25.873 161.033 45.6475 222.271
c7.82324 24.2227 19.1445 50.0713 43.8359 58.1543c11.7354 3.84277 23.8096 2.75098 34.9258 -3.16406c25.5918 -13.6211 38.9551 -49.3076 44.6406 -69.3701c33.2939 -117.46 50.5615 -252.901 54.3389 -426.244c2.34082 -107.54 -1.01562 -206.89 -10.1885 -298.873
c29.1064 14.2646 58.0293 28.0391 86.2236 41.4629c32.8623 15.6465 63.9043 30.4277 92.9062 44.9033c10.8125 5.40039 23.9707 1.00977 29.3711 -9.81348c5.40039 -10.8203 1.00391 -23.9707 -9.81641 -29.3711c-29.3633 -14.6533 -60.583 -29.5195 -93.6367 -45.2598
c-36.166 -17.2236 -73.5498 -35.0215 -110.923 -53.6934c-15.2959 -119.786 -41.1094 -226.523 -77.6973 -322.052c-24.7295 -64.5742 -50.1729 -111.044 -80.0703 -146.235c-40.2803 -47.4248 -89.0713 -73.4951 -137.487 -73.4951
c-0.298828 0 -0.599609 0 -0.900391 0.00292969c-57.0957 0.380859 -109.412 39.8457 -130.188 98.2031c-16.9414 47.5859 -13.0381 108.067 10.4404 161.788c21.7705 49.8066 55.6211 87.1904 85.8633 117.189c77.6396 77.0156 182.845 138.94 289.388 193.165
c11.2041 97.7617 15.4658 204.464 12.9229 321.127c-3.69531 169.521 -20.4346 301.473 -52.6865 415.254c-7.98242 28.1533 -19.5811 42.0566 -23.7363 42.9355c-1.66699 -0.602539 -7.5332 -4.31445 -15.8496 -30.0674
c-18.7422 -58.043 -31.0498 -134.653 -44.082 -215.761c-28.7344 -178.837 -61.2979 -381.535 -177.554 -479.587c-35.252 -29.7305 -74.9355 -44.4873 -117.961 -43.8633c-32.9189 0.479492 -60.8838 12.7021 -83.1191 36.3232
c-78.165 83.043 -68.4395 294.562 -59.8555 481.181c3.00879 65.4033 5.85059 127.183 4.25977 175.122c-2.12109 63.9639 -11.7617 79.9531 -15.8105 83.8564c-0.736328 0.711914 -0.804688 0.736328 -1.80664 0.654297zM539.396 -282.595
c32.2949 84.3213 55.9326 177.897 71.0918 282.111c-94.0088 -49.2529 -184.566 -104.841 -251.687 -171.422c-27.3076 -27.0859 -57.7578 -60.5801 -76.5771 -103.633c-19.1289 -43.7705 -22.6084 -92.2021 -9.31055 -129.556
c14.3926 -40.4307 51.0811 -68.8447 89.2207 -69.0996c34.9365 -0.262695 73.1797 20.9268 104.711 58.0508c26.5938 31.3047 49.6445 73.7393 72.5508 133.548z" />
    <glyph glyph-name="Y" unicode="&#xdd;" horiz-adv-x="862" 
d="M42.0615 839.53c-12.0742 -0.991211 -22.625 7.97754 -23.6191 20.0273c-0.988281 12.0527 7.98242 22.627 20.0352 23.6152c13.6348 1.11719 25.9717 -3.30664 35.7959 -12.7832c35.0137 -33.7812 32.4492 -128.321 24.8965 -292.514
c-7.77637 -169.127 -17.458 -379.61 47.998 -449.147c13.9932 -14.8691 30.959 -22.2432 51.8643 -22.5469c32.1777 -0.470703 62.1377 10.8213 89.084 33.5498c103.831 87.5703 135.026 281.744 162.551 453.056c13.3086 82.8135 25.873 161.033 45.6475 222.271
c7.82324 24.2227 19.1445 50.0713 43.8359 58.1543c11.7354 3.84277 23.8096 2.75098 34.9258 -3.16406c25.5918 -13.6211 38.9551 -49.3076 44.6406 -69.3701c33.2939 -117.46 50.5615 -252.901 54.3389 -426.244c2.34082 -107.54 -1.01562 -206.89 -10.1885 -298.873
c29.1064 14.2646 58.0293 28.0391 86.2236 41.4629c32.8623 15.6465 63.9043 30.4277 92.9062 44.9033c10.8125 5.40039 23.9707 1.00977 29.3711 -9.81348c5.40039 -10.8203 1.00391 -23.9707 -9.81641 -29.3711c-29.3633 -14.6533 -60.583 -29.5195 -93.6367 -45.2598
c-36.166 -17.2236 -73.5498 -35.0215 -110.923 -53.6934c-15.2959 -119.786 -41.1094 -226.523 -77.6973 -322.052c-24.7295 -64.5742 -50.1729 -111.044 -80.0703 -146.235c-40.2803 -47.4248 -89.0713 -73.4951 -137.487 -73.4951
c-0.298828 0 -0.599609 0 -0.900391 0.00292969c-57.0957 0.380859 -109.412 39.8457 -130.188 98.2031c-16.9414 47.5859 -13.0381 108.067 10.4404 161.788c21.7705 49.8066 55.6211 87.1904 85.8633 117.189c77.6396 77.0156 182.845 138.94 289.388 193.165
c11.2041 97.7617 15.4658 204.464 12.9229 321.127c-3.69531 169.521 -20.4346 301.473 -52.6865 415.254c-7.98242 28.1533 -19.5811 42.0566 -23.7363 42.9355c-1.66699 -0.602539 -7.5332 -4.31445 -15.8496 -30.0674
c-18.7422 -58.043 -31.0498 -134.653 -44.082 -215.761c-28.7344 -178.837 -61.2979 -381.535 -177.554 -479.587c-35.252 -29.7305 -74.9355 -44.4873 -117.961 -43.8633c-32.9189 0.479492 -60.8838 12.7021 -83.1191 36.3232
c-78.165 83.043 -68.4395 294.562 -59.8555 481.181c3.00879 65.4033 5.85059 127.183 4.25977 175.122c-2.12109 63.9639 -11.7617 79.9531 -15.8105 83.8564c-0.736328 0.711914 -0.804688 0.736328 -1.80664 0.654297zM539.396 -282.595
c32.2949 84.3213 55.9326 177.897 71.0918 282.111c-94.0088 -49.2529 -184.566 -104.841 -251.687 -171.422c-27.3076 -27.0859 -57.7578 -60.5801 -76.5771 -103.633c-19.1289 -43.7705 -22.6084 -92.2021 -9.31055 -129.556
c14.3926 -40.4307 51.0811 -68.8447 89.2207 -69.0996c34.9365 -0.262695 73.1797 20.9268 104.711 58.0508c26.5938 31.3047 49.6445 73.7393 72.5508 133.548z" />
    <glyph glyph-name="Z" unicode="Z" horiz-adv-x="596" 
d="M204.386 13.1914c27.0479 0.886719 54.7842 1.79395 82.251 3.59277c40.9922 84.1631 72.2803 176.242 93.2324 273.553c-15.6523 0.481445 -31.2988 1.68066 -46.915 3.60547c-12.0059 1.47852 -20.5381 12.4092 -19.0596 24.4121
c1.48047 12.0029 12.4053 20.5352 24.4111 19.0566c16.7002 -2.05859 33.4414 -3.2002 50.1807 -3.45508c12.9199 71.4531 20.4043 145.422 22.1504 220.927c1.85352 80.1221 -3.88672 142.117 -18.0693 195.104c-17.5547 65.5791 -48.8809 117.373 -88.2031 145.845
c-36.0674 26.1113 -81.2227 34.1104 -127.15 22.5234c-41.5557 -10.4863 -83.0977 -36.2012 -123.471 -76.4316c-8.55664 -8.53516 -22.4238 -8.51367 -30.9668 0.0546875c-8.53516 8.56836 -8.51074 22.4326 0.0576172 30.9707
c46.0254 45.8701 94.3643 75.4336 143.67 87.875c57.8623 14.5986 117.474 3.84375 163.549 -29.5137c47.4492 -34.3564 84.6797 -94.7256 104.824 -169.994c15.291 -57.123 21.5049 -123.041 19.5508 -207.441c-1.72461 -74.5166 -8.88574 -147.629 -21.2041 -218.447
c23.3438 1.88379 46.6084 5.50488 69.6787 10.8916c11.7949 2.75098 23.5547 -4.56641 26.3027 -16.3457c2.75098 -11.7764 -4.56641 -23.5557 -16.3457 -26.3037c-29.1416 -6.80762 -58.5762 -11.0537 -88.1045 -12.7422
c-19.791 -95.29 -49.1523 -185.927 -87.5215 -269.583c109.722 13.2842 189.373 48.0459 249.384 108.544c8.52148 8.58691 22.3857 8.63867 30.9678 0.123047c8.58691 -8.51562 8.6416 -22.3799 0.125977 -30.9668c-70.7793 -71.3545 -168.694 -111.829 -299.346 -123.733
c-1.23145 -0.112305 -2.45801 -0.22168 -3.68945 -0.331055c-1.74414 -3.37793 -3.49316 -6.72852 -5.26465 -10.0791c-51.6924 -97.7705 -107.772 -166.684 -171.446 -210.679c-48.7441 -33.6777 -102.213 -50.9424 -153.483 -50.9424
c-32.3145 -0.00292969 -63.75 6.85449 -92.5986 20.7764c-25.5117 12.3096 -44.2959 28 -57.4268 47.9658c-16.8789 25.668 -22.9746 58.8555 -15.9092 86.6123c5.14648 20.1992 16.3477 35.6211 24.3271 45.4678c36.8506 45.4697 90.6504 75.1895 164.474 90.8496
c65.6641 13.9277 132.45 16.1201 197.038 18.2393zM113.063 -209.752c54.0029 37.3105 104.484 98.2783 150.201 181.346c-19.3203 -0.930664 -38.5498 -1.56055 -57.4434 -2.18164c-62.6885 -2.05566 -127.509 -4.18262 -189.387 -17.3086
c-64.5 -13.6816 -108.837 -37.6992 -139.536 -75.5811c-8.55664 -10.5557 -13.6123 -19.6768 -15.9092 -28.6992c-4.0625 -15.959 -0.115234 -36.2705 10.0596 -51.7422c8.65234 -13.1582 21.6904 -23.8174 39.8633 -32.5879
c60.2549 -29.0762 135.819 -19.0742 202.151 26.7549z" />
    <glyph glyph-name="bracketleft" unicode="[" horiz-adv-x="236" 
d="M184.725 -119.155c3.79688 -11.4834 -2.43457 -23.873 -13.915 -27.6748c-7.47559 -2.46875 -15.1562 -3.6543 -22.8291 -3.6543c-31.8242 0 -63.457 20.3633 -79.4072 53.5342c-13.3447 27.7539 -15.1514 58.541 -16.0137 93.0039
c-6.55078 260.227 0.730469 524.346 7.77051 779.769c0.733398 26.7217 1.64746 59.9805 14.6797 88.3398c9.53418 20.749 26.3281 36.7051 44.918 42.6865c13.9717 4.49512 28.4414 3.11523 40.749 -3.88965c10.5117 -5.98145 14.1855 -19.3535 8.20215 -29.8652
c-5.98145 -10.5117 -19.3506 -14.1875 -29.8652 -8.20117c-1.21582 0.695312 -2.75195 1.20215 -5.66992 0.263672c-5.65039 -1.81738 -13.5723 -8.48242 -18.5352 -19.2783c-9.29102 -20.2236 -10.0381 -47.3369 -10.6953 -71.2588
c-7.0293 -254.855 -14.2939 -518.389 -7.77051 -777.46c0.736328 -29.3223 2.12695 -55.2119 11.7021 -75.123c10.2871 -21.3896 31.3398 -33.1221 49.0127 -27.2773c11.4834 3.7998 23.8672 -2.43359 27.667 -13.9141z" />
    <glyph glyph-name="backslash" unicode="\" horiz-adv-x="348" 
d="M297.258 -107.894c2.53711 -11.8252 -4.99316 -23.4668 -16.8184 -26.002c-1.5498 -0.331055 -3.09375 -0.490234 -4.61621 -0.490234c-10.1035 0 -19.1836 7.03223 -21.3896 17.3105c-64.7549 301.946 -133.339 607.14 -203.848 907.097
c-2.76758 11.7734 4.5332 23.5605 16.3096 26.3281c11.7812 2.76758 23.5605 -4.53613 26.3281 -16.3066c70.5713 -300.235 139.219 -605.708 204.034 -907.937z" />
    <glyph glyph-name="bracketright" unicode="]" horiz-adv-x="249" 
d="M197.052 200.151c1.91113 -61.8477 3.88672 -125.798 -3.01172 -188.746c-4.55762 -41.6602 -12.3047 -73.5176 -24.3711 -100.256c-16.5742 -36.7217 -41.6016 -62.8633 -70.4805 -73.6104c-2.51562 -0.936523 -5.09668 -1.37988 -7.63379 -1.37988
c-8.88867 0 -17.2461 5.44727 -20.5283 14.2666c-4.21875 11.335 1.55176 23.9434 12.8867 28.1611c17.5742 6.53906 34.2803 24.9756 45.835 50.5811c10.1172 22.4131 16.7119 50.0576 20.7578 87.0039c6.55859 59.8936 4.63184 122.286 2.76758 182.623
c-0.317383 10.2812 -0.634766 20.5576 -0.914062 30.8223c-1.74609 64.5332 -1.93457 130.073 -2.11523 193.454c-0.256836 89.7002 -0.522461 182.453 -5.23926 273.199c-2.24512 43.127 -5.71582 92.9277 -18.6279 138.141
c-1.47266 5.16309 -5.9541 20.8623 -12.3818 26.2109c-5.14355 4.27539 -14.7959 2.71777 -33.3145 -5.38477c-11.0781 -4.84473 -23.9902 0.208008 -28.8379 11.2891c-4.85059 11.0811 0.205078 23.9932 11.2861 28.8408c15.2139 6.65723 50.8486 22.2441 78.8789 -1.07812
c14.8174 -12.332 21.7021 -31.1074 26.4814 -47.8486c14.1689 -49.6279 17.8838 -102.36 20.252 -147.891c4.77441 -91.8193 5.04004 -185.119 5.2998 -275.348c0.180664 -63.1211 0.367188 -128.391 2.10254 -192.396c0.279297 -10.21 0.59375 -20.4316 0.908203 -30.6553z
" />
    <glyph glyph-name="asciicircum" unicode="^" horiz-adv-x="228" 
d="M177.704 578.596c2.05566 -11.918 -5.9375 -23.249 -17.8555 -25.3047c-1.25879 -0.21582 -2.5127 -0.322266 -3.74707 -0.322266c-10.4619 0 -19.7168 7.52246 -21.5566 18.1816c-4.59375 26.6318 -10.8018 53.0527 -18.4502 78.5293
c-0.3125 1.03223 -0.625 2.06738 -0.945312 3.09961c-10.5117 -22.2988 -17.8975 -47.1133 -21.5684 -72.6914c-1.71875 -11.9736 -12.8271 -20.2764 -24.7891 -18.5654c-11.9736 1.71875 -20.2842 12.8164 -18.5654 24.79c5.29688 36.8965 17.2891 72.5967 34.6768 103.238
c2.84375 5.01172 8.76172 15.4414 20.877 19.5449c14.4258 4.88086 29.6123 -1.59863 39.6309 -16.9082c6.21973 -9.50391 9.64941 -19.9902 12.6279 -29.9131c8.1543 -27.1631 14.7705 -55.3145 19.665 -83.6787z" />
    <glyph glyph-name="underscore" unicode="_" horiz-adv-x="326" 
d="M276.249 -20.3838c0.742188 -12.0713 -8.44531 -22.458 -20.5166 -23.2051l-182.491 -11.207c-0.454102 -0.0273438 -0.911133 -0.0410156 -1.3623 -0.0410156c-11.4805 0 -21.1211 8.94336 -21.8359 20.5576c-0.742188 12.0742 8.44434 22.46 20.5156 23.2021
l182.491 11.207c12.0361 0.74707 22.457 -8.44238 23.1992 -20.5137z" />
    <glyph glyph-name="grave" unicode="`" horiz-adv-x="173" 
d="M120.383 669.337c5.27441 -10.8838 0.728516 -23.9844 -10.1611 -29.2568c-3.07715 -1.48926 -6.3291 -2.19531 -9.53223 -2.19531c-8.13281 0 -15.9395 4.54395 -19.7227 12.3535c-15.0527 31.0664 -25.3887 64.9004 -30.7236 100.565
c-1.78711 11.9619 6.46094 23.1084 18.4209 24.8984c11.9619 1.79004 23.1084 -6.45801 24.8984 -18.4199c4.67773 -31.2793 13.7031 -60.8701 26.8203 -87.9453z" />
    <glyph glyph-name="a" unicode="a" horiz-adv-x="304" 
d="M318.815 158.251c10.6016 -5.8252 14.4756 -19.1338 8.65625 -29.7305c-2.89648 -5.27246 -6.53125 -13.3857 -10.7383 -22.7773c-19.4707 -43.4639 -51.709 -115.429 -108.788 -115.429c-1.57422 0 -3.16211 0.0546875 -4.77148 0.166992
c-31.8213 2.19531 -49.3594 31.4873 -58.5293 78.083c-2.95605 -9.96094 -6.27637 -19.7773 -10.0762 -29.3447c-12.9395 -32.583 -29.5908 -50.9453 -50.9043 -56.1357c-3.76367 -0.914062 -7.59863 -1.36621 -11.4531 -1.36621
c-13.7109 0 -27.6797 5.70215 -39.6367 16.4385c-19.2793 17.3115 -31.8848 45.126 -38.5312 85.0342c-4.33301 25.999 -6.16406 53.8545 -5.44727 82.7852c1.31348 53.0557 11.2803 106.658 28.8271 155.011c11.3408 31.2549 26.7334 53.2139 45.75 65.2695
c15.9561 10.1143 33.6719 12.29 51.2373 6.29297c13.5166 -4.61523 25.4512 -13.6895 35.3252 -24.2422c1.0459 0.588867 2.14941 1.09277 3.29395 1.50586c3.53418 1.66699 7.55273 2.41406 11.7217 1.9541c12.0225 -1.33301 20.6885 -12.1562 19.3584 -24.1758
l-1.70215 -15.3789c-0.164062 -11.8281 -0.624023 -26.1777 -1.1582 -42.7656c-1.60645 -49.9404 -3.80176 -118.339 1.05664 -173.231c6.85156 -77.415 23.7188 -82.0361 23.8857 -82.0469c29.4648 -2.03418 56.2412 57.4893 70.5684 89.4756
c4.5957 10.2627 8.56738 19.126 12.3203 25.958c5.82227 10.5986 19.1367 14.4717 29.7354 8.64941zM125.159 213.189l10.7373 96.9502c-5.28027 13.8184 -20.6396 35.8408 -35.6406 40.9648c-1.84766 0.629883 -3.55566 0.953125 -5.21484 0.953125
c-2.79199 0 -5.45508 -0.90918 -8.41992 -2.79199c-10.4922 -6.64941 -20.1826 -21.5957 -28.0283 -43.2178c-15.9502 -43.9619 -25.0166 -92.7715 -26.2129 -141.157c-0.648438 -26.166 0.988281 -51.2344 4.86426 -74.5049
c4.88086 -29.3086 13.1562 -49.376 24.5898 -59.6436c4.13574 -3.71484 8.75391 -5.76758 11.4668 -5.10547c1.61816 0.394531 10.208 3.67969 20.5605 29.7471c19.1748 48.2705 25.3389 103.956 31.2979 157.806z" />
    <glyph glyph-name="a" unicode="&#xe5;" horiz-adv-x="304" 
d="M318.815 158.251c10.6016 -5.8252 14.4756 -19.1338 8.65625 -29.7305c-2.89648 -5.27246 -6.53125 -13.3857 -10.7383 -22.7773c-19.4707 -43.4639 -51.709 -115.429 -108.788 -115.429c-1.57422 0 -3.16211 0.0546875 -4.77148 0.166992
c-31.8213 2.19531 -49.3594 31.4873 -58.5293 78.083c-2.95605 -9.96094 -6.27637 -19.7773 -10.0762 -29.3447c-12.9395 -32.583 -29.5908 -50.9453 -50.9043 -56.1357c-3.76367 -0.914062 -7.59863 -1.36621 -11.4531 -1.36621
c-13.7109 0 -27.6797 5.70215 -39.6367 16.4385c-19.2793 17.3115 -31.8848 45.126 -38.5312 85.0342c-4.33301 25.999 -6.16406 53.8545 -5.44727 82.7852c1.31348 53.0557 11.2803 106.658 28.8271 155.011c11.3408 31.2549 26.7334 53.2139 45.75 65.2695
c15.9561 10.1143 33.6719 12.29 51.2373 6.29297c13.5166 -4.61523 25.4512 -13.6895 35.3252 -24.2422c1.0459 0.588867 2.14941 1.09277 3.29395 1.50586c3.53418 1.66699 7.55273 2.41406 11.7217 1.9541c12.0225 -1.33301 20.6885 -12.1562 19.3584 -24.1758
l-1.70215 -15.3789c-0.164062 -11.8281 -0.624023 -26.1777 -1.1582 -42.7656c-1.60645 -49.9404 -3.80176 -118.339 1.05664 -173.231c6.85156 -77.415 23.7188 -82.0361 23.8857 -82.0469c29.4648 -2.03418 56.2412 57.4893 70.5684 89.4756
c4.5957 10.2627 8.56738 19.126 12.3203 25.958c5.82227 10.5986 19.1367 14.4717 29.7354 8.64941zM125.159 213.189l10.7373 96.9502c-5.28027 13.8184 -20.6396 35.8408 -35.6406 40.9648c-1.84766 0.629883 -3.55566 0.953125 -5.21484 0.953125
c-2.79199 0 -5.45508 -0.90918 -8.41992 -2.79199c-10.4922 -6.64941 -20.1826 -21.5957 -28.0283 -43.2178c-15.9502 -43.9619 -25.0166 -92.7715 -26.2129 -141.157c-0.648438 -26.166 0.988281 -51.2344 4.86426 -74.5049
c4.88086 -29.3086 13.1562 -49.376 24.5898 -59.6436c4.13574 -3.71484 8.75391 -5.76758 11.4668 -5.10547c1.61816 0.394531 10.208 3.67969 20.5605 29.7471c19.1748 48.2705 25.3389 103.956 31.2979 157.806z" />
    <glyph glyph-name="a" unicode="&#xe4;" horiz-adv-x="304" 
d="M318.815 158.251c10.6016 -5.8252 14.4756 -19.1338 8.65625 -29.7305c-2.89648 -5.27246 -6.53125 -13.3857 -10.7383 -22.7773c-19.4707 -43.4639 -51.709 -115.429 -108.788 -115.429c-1.57422 0 -3.16211 0.0546875 -4.77148 0.166992
c-31.8213 2.19531 -49.3594 31.4873 -58.5293 78.083c-2.95605 -9.96094 -6.27637 -19.7773 -10.0762 -29.3447c-12.9395 -32.583 -29.5908 -50.9453 -50.9043 -56.1357c-3.76367 -0.914062 -7.59863 -1.36621 -11.4531 -1.36621
c-13.7109 0 -27.6797 5.70215 -39.6367 16.4385c-19.2793 17.3115 -31.8848 45.126 -38.5312 85.0342c-4.33301 25.999 -6.16406 53.8545 -5.44727 82.7852c1.31348 53.0557 11.2803 106.658 28.8271 155.011c11.3408 31.2549 26.7334 53.2139 45.75 65.2695
c15.9561 10.1143 33.6719 12.29 51.2373 6.29297c13.5166 -4.61523 25.4512 -13.6895 35.3252 -24.2422c1.0459 0.588867 2.14941 1.09277 3.29395 1.50586c3.53418 1.66699 7.55273 2.41406 11.7217 1.9541c12.0225 -1.33301 20.6885 -12.1562 19.3584 -24.1758
l-1.70215 -15.3789c-0.164062 -11.8281 -0.624023 -26.1777 -1.1582 -42.7656c-1.60645 -49.9404 -3.80176 -118.339 1.05664 -173.231c6.85156 -77.415 23.7188 -82.0361 23.8857 -82.0469c29.4648 -2.03418 56.2412 57.4893 70.5684 89.4756
c4.5957 10.2627 8.56738 19.126 12.3203 25.958c5.82227 10.5986 19.1367 14.4717 29.7354 8.64941zM125.159 213.189l10.7373 96.9502c-5.28027 13.8184 -20.6396 35.8408 -35.6406 40.9648c-1.84766 0.629883 -3.55566 0.953125 -5.21484 0.953125
c-2.79199 0 -5.45508 -0.90918 -8.41992 -2.79199c-10.4922 -6.64941 -20.1826 -21.5957 -28.0283 -43.2178c-15.9502 -43.9619 -25.0166 -92.7715 -26.2129 -141.157c-0.648438 -26.166 0.988281 -51.2344 4.86426 -74.5049
c4.88086 -29.3086 13.1562 -49.376 24.5898 -59.6436c4.13574 -3.71484 8.75391 -5.76758 11.4668 -5.10547c1.61816 0.394531 10.208 3.67969 20.5605 29.7471c19.1748 48.2705 25.3389 103.956 31.2979 157.806z" />
    <glyph glyph-name="a" unicode="&#xe3;" horiz-adv-x="304" 
d="M318.815 158.251c10.6016 -5.8252 14.4756 -19.1338 8.65625 -29.7305c-2.89648 -5.27246 -6.53125 -13.3857 -10.7383 -22.7773c-19.4707 -43.4639 -51.709 -115.429 -108.788 -115.429c-1.57422 0 -3.16211 0.0546875 -4.77148 0.166992
c-31.8213 2.19531 -49.3594 31.4873 -58.5293 78.083c-2.95605 -9.96094 -6.27637 -19.7773 -10.0762 -29.3447c-12.9395 -32.583 -29.5908 -50.9453 -50.9043 -56.1357c-3.76367 -0.914062 -7.59863 -1.36621 -11.4531 -1.36621
c-13.7109 0 -27.6797 5.70215 -39.6367 16.4385c-19.2793 17.3115 -31.8848 45.126 -38.5312 85.0342c-4.33301 25.999 -6.16406 53.8545 -5.44727 82.7852c1.31348 53.0557 11.2803 106.658 28.8271 155.011c11.3408 31.2549 26.7334 53.2139 45.75 65.2695
c15.9561 10.1143 33.6719 12.29 51.2373 6.29297c13.5166 -4.61523 25.4512 -13.6895 35.3252 -24.2422c1.0459 0.588867 2.14941 1.09277 3.29395 1.50586c3.53418 1.66699 7.55273 2.41406 11.7217 1.9541c12.0225 -1.33301 20.6885 -12.1562 19.3584 -24.1758
l-1.70215 -15.3789c-0.164062 -11.8281 -0.624023 -26.1777 -1.1582 -42.7656c-1.60645 -49.9404 -3.80176 -118.339 1.05664 -173.231c6.85156 -77.415 23.7188 -82.0361 23.8857 -82.0469c29.4648 -2.03418 56.2412 57.4893 70.5684 89.4756
c4.5957 10.2627 8.56738 19.126 12.3203 25.958c5.82227 10.5986 19.1367 14.4717 29.7354 8.64941zM125.159 213.189l10.7373 96.9502c-5.28027 13.8184 -20.6396 35.8408 -35.6406 40.9648c-1.84766 0.629883 -3.55566 0.953125 -5.21484 0.953125
c-2.79199 0 -5.45508 -0.90918 -8.41992 -2.79199c-10.4922 -6.64941 -20.1826 -21.5957 -28.0283 -43.2178c-15.9502 -43.9619 -25.0166 -92.7715 -26.2129 -141.157c-0.648438 -26.166 0.988281 -51.2344 4.86426 -74.5049
c4.88086 -29.3086 13.1562 -49.376 24.5898 -59.6436c4.13574 -3.71484 8.75391 -5.76758 11.4668 -5.10547c1.61816 0.394531 10.208 3.67969 20.5605 29.7471c19.1748 48.2705 25.3389 103.956 31.2979 157.806z" />
    <glyph glyph-name="a" unicode="&#xe2;" horiz-adv-x="304" 
d="M318.815 158.251c10.6016 -5.8252 14.4756 -19.1338 8.65625 -29.7305c-2.89648 -5.27246 -6.53125 -13.3857 -10.7383 -22.7773c-19.4707 -43.4639 -51.709 -115.429 -108.788 -115.429c-1.57422 0 -3.16211 0.0546875 -4.77148 0.166992
c-31.8213 2.19531 -49.3594 31.4873 -58.5293 78.083c-2.95605 -9.96094 -6.27637 -19.7773 -10.0762 -29.3447c-12.9395 -32.583 -29.5908 -50.9453 -50.9043 -56.1357c-3.76367 -0.914062 -7.59863 -1.36621 -11.4531 -1.36621
c-13.7109 0 -27.6797 5.70215 -39.6367 16.4385c-19.2793 17.3115 -31.8848 45.126 -38.5312 85.0342c-4.33301 25.999 -6.16406 53.8545 -5.44727 82.7852c1.31348 53.0557 11.2803 106.658 28.8271 155.011c11.3408 31.2549 26.7334 53.2139 45.75 65.2695
c15.9561 10.1143 33.6719 12.29 51.2373 6.29297c13.5166 -4.61523 25.4512 -13.6895 35.3252 -24.2422c1.0459 0.588867 2.14941 1.09277 3.29395 1.50586c3.53418 1.66699 7.55273 2.41406 11.7217 1.9541c12.0225 -1.33301 20.6885 -12.1562 19.3584 -24.1758
l-1.70215 -15.3789c-0.164062 -11.8281 -0.624023 -26.1777 -1.1582 -42.7656c-1.60645 -49.9404 -3.80176 -118.339 1.05664 -173.231c6.85156 -77.415 23.7188 -82.0361 23.8857 -82.0469c29.4648 -2.03418 56.2412 57.4893 70.5684 89.4756
c4.5957 10.2627 8.56738 19.126 12.3203 25.958c5.82227 10.5986 19.1367 14.4717 29.7354 8.64941zM125.159 213.189l10.7373 96.9502c-5.28027 13.8184 -20.6396 35.8408 -35.6406 40.9648c-1.84766 0.629883 -3.55566 0.953125 -5.21484 0.953125
c-2.79199 0 -5.45508 -0.90918 -8.41992 -2.79199c-10.4922 -6.64941 -20.1826 -21.5957 -28.0283 -43.2178c-15.9502 -43.9619 -25.0166 -92.7715 -26.2129 -141.157c-0.648438 -26.166 0.988281 -51.2344 4.86426 -74.5049
c4.88086 -29.3086 13.1562 -49.376 24.5898 -59.6436c4.13574 -3.71484 8.75391 -5.76758 11.4668 -5.10547c1.61816 0.394531 10.208 3.67969 20.5605 29.7471c19.1748 48.2705 25.3389 103.956 31.2979 157.806z" />
    <glyph glyph-name="a" unicode="&#xe1;" horiz-adv-x="304" 
d="M318.815 158.251c10.6016 -5.8252 14.4756 -19.1338 8.65625 -29.7305c-2.89648 -5.27246 -6.53125 -13.3857 -10.7383 -22.7773c-19.4707 -43.4639 -51.709 -115.429 -108.788 -115.429c-1.57422 0 -3.16211 0.0546875 -4.77148 0.166992
c-31.8213 2.19531 -49.3594 31.4873 -58.5293 78.083c-2.95605 -9.96094 -6.27637 -19.7773 -10.0762 -29.3447c-12.9395 -32.583 -29.5908 -50.9453 -50.9043 -56.1357c-3.76367 -0.914062 -7.59863 -1.36621 -11.4531 -1.36621
c-13.7109 0 -27.6797 5.70215 -39.6367 16.4385c-19.2793 17.3115 -31.8848 45.126 -38.5312 85.0342c-4.33301 25.999 -6.16406 53.8545 -5.44727 82.7852c1.31348 53.0557 11.2803 106.658 28.8271 155.011c11.3408 31.2549 26.7334 53.2139 45.75 65.2695
c15.9561 10.1143 33.6719 12.29 51.2373 6.29297c13.5166 -4.61523 25.4512 -13.6895 35.3252 -24.2422c1.0459 0.588867 2.14941 1.09277 3.29395 1.50586c3.53418 1.66699 7.55273 2.41406 11.7217 1.9541c12.0225 -1.33301 20.6885 -12.1562 19.3584 -24.1758
l-1.70215 -15.3789c-0.164062 -11.8281 -0.624023 -26.1777 -1.1582 -42.7656c-1.60645 -49.9404 -3.80176 -118.339 1.05664 -173.231c6.85156 -77.415 23.7188 -82.0361 23.8857 -82.0469c29.4648 -2.03418 56.2412 57.4893 70.5684 89.4756
c4.5957 10.2627 8.56738 19.126 12.3203 25.958c5.82227 10.5986 19.1367 14.4717 29.7354 8.64941zM125.159 213.189l10.7373 96.9502c-5.28027 13.8184 -20.6396 35.8408 -35.6406 40.9648c-1.84766 0.629883 -3.55566 0.953125 -5.21484 0.953125
c-2.79199 0 -5.45508 -0.90918 -8.41992 -2.79199c-10.4922 -6.64941 -20.1826 -21.5957 -28.0283 -43.2178c-15.9502 -43.9619 -25.0166 -92.7715 -26.2129 -141.157c-0.648438 -26.166 0.988281 -51.2344 4.86426 -74.5049
c4.88086 -29.3086 13.1562 -49.376 24.5898 -59.6436c4.13574 -3.71484 8.75391 -5.76758 11.4668 -5.10547c1.61816 0.394531 10.208 3.67969 20.5605 29.7471c19.1748 48.2705 25.3389 103.956 31.2979 157.806z" />
    <glyph glyph-name="b" unicode="b" horiz-adv-x="317" 
d="M335.437 142.864c9.49023 -7.49512 11.1113 -21.2646 3.61621 -30.7549c-22.9639 -29.0762 -58.0293 -46.5264 -101.402 -50.46c-9.0332 -0.818359 -17.9844 -1.08691 -26.8203 -1.08984c-3.16406 -13.3145 -6.92773 -25.2383 -11.4004 -36.2314
c-8.66113 -21.2861 -24.7764 -50.2119 -52.3584 -67.1426c-13.6133 -8.35156 -28.4062 -12.5205 -42.8838 -12.5205c-15.0879 0 -29.8281 4.52734 -42.5322 13.5576c-12.8057 9.10156 -22.0225 22.2002 -26.3252 36.5547
c-3.40234 -4.23242 -8.3623 -7.22461 -14.1709 -7.99414c-0.977539 -0.131836 -1.94629 -0.192383 -2.9043 -0.192383c-10.8154 0 -20.2207 8.0127 -21.6797 19.0254c-10.2217 77.1855 -11.7734 156.612 -12.4248 225c-1.59082 166.705 2.33496 335.562 11.667 501.878
c0.678711 12.0771 11.0312 21.3125 23.0918 20.6387c12.0742 -0.678711 21.3154 -11.0176 20.6367 -23.0918c-9.16504 -163.376 -13.0635 -329.21 -11.6348 -493.016c3.46582 16.4766 7.25684 32.8623 11.4668 49.0947c5.6748 21.874 12.9092 46.9834 27.0068 68.1816
c17.7959 26.7549 43.4609 40.8408 68.6611 37.6768c19.9141 -2.49609 38.375 -15.5039 51.9824 -36.625c11.626 -18.0449 17.8232 -38.8027 21.9209 -54.8682c14.8662 -58.2588 18.2773 -125.302 9.8623 -193.886
c-0.0878906 -0.722656 -0.178711 -1.44531 -0.269531 -2.16016c5.09375 0.120117 10.1328 0.37207 15.1475 0.829102c31.5537 2.86035 55.4395 14.2969 70.9902 33.9863c7.49512 9.4873 21.2637 11.1074 30.7568 3.60938zM158.858 40.8369
c2.5918 6.36719 4.90723 13.2041 6.98242 20.6328c-1.1084 0.0078125 -2.21387 0.0136719 -3.31445 0.0136719c-6.66016 0 -13.2158 -0.169922 -19.7334 -0.651367c-15.7422 -1.16016 -27.6494 -4.06738 -37.4707 -9.14551
c-11.4043 -5.89648 -20.5576 -15.4004 -25.7754 -26.7607c-1.95996 -4.27051 -3.01953 -8.08398 -3.14258 -11.3359c-0.314453 -8.14941 5.11133 -15.751 10.627 -19.6738c12.3506 -8.77832 27.2744 -5.44727 37.126 0.59668c13.627 8.3623 25.9502 24.8164 34.7012 46.3242
zM175.34 111.934c7.75781 63.2324 4.70117 124.688 -8.83203 177.73c-4.87207 19.0898 -9.90039 32.0352 -16.3027 41.9746c-6.18652 9.59766 -14.0869 16.0713 -20.6182 16.8896c-0.481445 0.0605469 -0.97168 0.0908203 -1.46973 0.0908203
c-7.79297 0 -17.7373 -7.24023 -25.2705 -18.5674c-10.3359 -15.5371 -16.3008 -36.4971 -21.0801 -54.9219c-18.915 -72.9287 -29.418 -150.139 -38.8643 -225.654c9.56445 17.4014 24.374 31.8467 42.2979 41.1152c15.2529 7.88672 32.5283 12.3135 54.3701 13.9229
c11.8037 0.870117 23.4707 0.864258 34.8906 0.628906c0.303711 2.21973 0.59375 4.4834 0.878906 6.79102z" />
    <glyph glyph-name="c" unicode="c" horiz-adv-x="202" 
d="M216.377 162.209c10.9717 -5.08887 15.7432 -18.1084 10.6543 -29.082c-50.8027 -109.535 -102.471 -165.032 -153.612 -165.032c-1.00781 0 -2.00977 0.0195312 -3.01465 0.0634766c-14.6973 0.626953 -28.3789 5.19238 -39.5693 13.2021
c-20.6064 14.7461 -34.668 42.0625 -41.7959 81.1875c-5.41699 29.7578 -7.3418 62.2744 -6.05566 102.336c0.580078 17.9678 3.75293 81.1621 20.3389 140.054c18.124 64.3604 45.9463 98.0273 82.6895 100.072c20.626 1.14453 40.6963 -11.9014 52.4912 -34.041
c8.76758 -16.4629 12.3154 -34.9453 15.4473 -51.2549c2.28027 -11.877 -5.49902 -23.3545 -17.376 -25.6348c-11.8828 -2.28027 -23.3555 5.50195 -25.6357 17.3789c-2.66895 13.9111 -5.43066 28.2959 -11.0889 38.9199
c-4.21582 7.91406 -9.48535 11.0049 -11.4043 10.9004c-15.1104 -0.84082 -31.1729 -26.3418 -42.9658 -68.2119c-12.1104 -43.0117 -17.6123 -95.1416 -18.7178 -129.586c-1.18848 -36.8809 0.519531 -66.4551 5.36719 -93.0811
c4.875 -26.7715 13.4707 -45.7441 24.1953 -53.4199c4.31641 -3.09082 9.68164 -4.79297 15.9443 -5.06152c23.6895 -1.00781 66.5566 35.1309 115.027 139.638c5.08887 10.9736 18.1074 15.7422 29.0811 10.6533z" />
    <glyph glyph-name="d" unicode="d" horiz-adv-x="344" 
d="M352.415 162.836c11.79 -2.69629 19.1602 -14.4395 16.4609 -26.2207c-7.79297 -34.0742 -18.6846 -67.0898 -32.3711 -98.126c-8.67969 -19.6875 -21.0908 -44.6221 -40.1455 -62.8477c-16.5469 -15.8242 -36.0967 -24.2197 -55.0938 -24.2197
c-7.12793 0 -14.1768 1.17969 -20.9629 3.59375c-20.0781 7.14453 -37.375 24.9541 -48.7051 50.1514c-9.39746 20.9023 -13.5938 43.9531 -16.46 63.7471c-1.44824 10.002 -2.66406 20.0234 -3.69629 29.9707c-4.5332 -20.4014 -10.2676 -40.5186 -17.875 -59.6689
c-12.9424 -32.583 -29.5938 -50.9424 -50.9043 -56.1328c-3.76074 -0.916992 -7.59863 -1.36914 -11.4531 -1.36914c-13.7109 0 -27.6797 5.70215 -39.6367 16.4385c-19.2793 17.3115 -31.8848 45.126 -38.5312 85.0342c-4.33008 25.9941 -6.16406 53.8496 -5.44727 82.7861
c1.31348 53.0605 11.2832 106.663 28.8271 155.013c8.62012 23.7549 21.7871 52.7432 47.2803 66.1533c26.5879 13.9854 59.4502 6.46289 84.1768 -19.0898c0.875977 27.6826 1.90234 55.209 2.92578 82.4023l11.043 293.103
c0.454102 12.085 10.6426 21.5068 22.7061 21.0576c12.085 -0.454102 21.5156 -10.6211 21.0586 -22.7061l-11.043 -293.103c-2.93457 -77.9131 -5.96777 -158.481 -5.00195 -237.528c0.46582 -37.8955 1.89746 -87.6113 8.91602 -136.087
c2.43066 -16.7881 5.88281 -36.1006 13.0605 -52.0645c6.20312 -13.7959 14.9678 -23.834 23.4424 -26.8477c10.5225 -3.74707 22.9688 3.2334 31.1045 11.0127c13.4814 12.8906 23.2979 32.8867 30.3438 48.8643c12.5674 28.4961 22.5752 58.8506 29.7529 90.2178
c2.69629 11.79 14.4473 19.1621 26.2285 16.4658zM124.159 213.187l10.7705 97.3115c-4.88086 10.0684 -10.29 18.3047 -17.7822 26.3311c-6.89258 7.38281 -16.5332 13.3965 -25.3037 13.3965c-2.7041 0 -5.32422 -0.569336 -7.75781 -1.85059
c-13.7637 -7.24023 -23.3467 -33.6533 -26.4971 -42.333c-15.9502 -43.9541 -25.0137 -92.7666 -26.2129 -141.155c-0.648438 -26.1719 0.988281 -51.2383 4.86426 -74.5059c4.88379 -29.3086 13.1562 -49.376 24.5928 -59.6436
c4.13867 -3.71484 8.74609 -5.76758 11.4668 -5.10547c1.61523 0.394531 10.2051 3.67969 20.5605 29.75c19.1729 48.2646 25.3369 103.953 31.2988 157.805z" />
    <glyph glyph-name="e" unicode="e" horiz-adv-x="206" 
d="M223.829 161.347c10.498 -6.00879 14.1318 -19.3857 8.13184 -29.8809c-39.6367 -69.2334 -79.9336 -115.773 -119.775 -138.332c-13.8672 -7.85059 -27.5762 -11.8145 -40.5371 -11.8145c-7.62891 0 -14.998 1.37109 -21.9893 4.12988
c-23.5166 9.2793 -37.4473 32.0488 -44.9941 49.5156c-12.9473 29.9688 -16.5 63.0059 -18.4111 94.2441c-2.37891 38.8154 -2.00977 72.9717 1.14062 103.874c0.0302734 0.410156 0.0712891 0.818359 0.125977 1.22363c0.493164 4.70312 1.04883 9.33203 1.66992 13.8896
c5.96191 43.6934 17.96 82.0078 35.6602 113.885c16.7002 30.0781 36.6006 46.2725 59.1484 48.1396c11.1982 0.930664 22.7031 -1.91309 33.2725 -8.21484c17.3086 -10.3203 30.3193 -28.8877 35.6924 -50.9453c5.02832 -20.6367 2.87402 -43.6631 -5.90723 -63.1777
c-23.9434 -53.2119 -80.5107 -68.6533 -117.433 -75.2969c-1.5957 -24.2998 -1.47754 -50.9619 0.342773 -80.7031c1.66699 -27.2637 4.62598 -55.7705 14.8994 -79.5498c5.8418 -13.5195 13.6436 -23.2949 20.8643 -26.1445
c8.17383 -3.22461 19.0879 1.78223 24.8691 5.05566c22.6211 12.8076 58.9131 44.3662 103.346 121.979c6.00586 10.498 19.3887 14.1328 29.8838 8.12402zM63.1396 340.821c-12.8984 -23.2266 -22.292 -50.8945 -28.0049 -82.4287
c27.3135 6.27148 58.9736 18.5596 71.9785 47.4629c4.78809 10.6348 6.01953 23.6592 3.2959 34.8389c-2.53223 10.3994 -8.49707 19.4766 -15.5674 23.6924c-2.40918 1.4375 -4.75488 2.20898 -6.67969 2.20898c-0.188477 0 -0.37207 -0.0078125 -0.552734 -0.0214844
c-5.15137 -0.426758 -14.2891 -7.41504 -24.4697 -25.7529z" />
    <glyph glyph-name="e" unicode="&#xeb;" horiz-adv-x="206" 
d="M223.829 161.347c10.498 -6.00879 14.1318 -19.3857 8.13184 -29.8809c-39.6367 -69.2334 -79.9336 -115.773 -119.775 -138.332c-13.8672 -7.85059 -27.5762 -11.8145 -40.5371 -11.8145c-7.62891 0 -14.998 1.37109 -21.9893 4.12988
c-23.5166 9.2793 -37.4473 32.0488 -44.9941 49.5156c-12.9473 29.9688 -16.5 63.0059 -18.4111 94.2441c-2.37891 38.8154 -2.00977 72.9717 1.14062 103.874c0.0302734 0.410156 0.0712891 0.818359 0.125977 1.22363c0.493164 4.70312 1.04883 9.33203 1.66992 13.8896
c5.96191 43.6934 17.96 82.0078 35.6602 113.885c16.7002 30.0781 36.6006 46.2725 59.1484 48.1396c11.1982 0.930664 22.7031 -1.91309 33.2725 -8.21484c17.3086 -10.3203 30.3193 -28.8877 35.6924 -50.9453c5.02832 -20.6367 2.87402 -43.6631 -5.90723 -63.1777
c-23.9434 -53.2119 -80.5107 -68.6533 -117.433 -75.2969c-1.5957 -24.2998 -1.47754 -50.9619 0.342773 -80.7031c1.66699 -27.2637 4.62598 -55.7705 14.8994 -79.5498c5.8418 -13.5195 13.6436 -23.2949 20.8643 -26.1445
c8.17383 -3.22461 19.0879 1.78223 24.8691 5.05566c22.6211 12.8076 58.9131 44.3662 103.346 121.979c6.00586 10.498 19.3887 14.1328 29.8838 8.12402zM63.1396 340.821c-12.8984 -23.2266 -22.292 -50.8945 -28.0049 -82.4287
c27.3135 6.27148 58.9736 18.5596 71.9785 47.4629c4.78809 10.6348 6.01953 23.6592 3.2959 34.8389c-2.53223 10.3994 -8.49707 19.4766 -15.5674 23.6924c-2.40918 1.4375 -4.75488 2.20898 -6.67969 2.20898c-0.188477 0 -0.37207 -0.0078125 -0.552734 -0.0214844
c-5.15137 -0.426758 -14.2891 -7.41504 -24.4697 -25.7529z" />
    <glyph glyph-name="e" unicode="&#xea;" horiz-adv-x="206" 
d="M223.829 161.347c10.498 -6.00879 14.1318 -19.3857 8.13184 -29.8809c-39.6367 -69.2334 -79.9336 -115.773 -119.775 -138.332c-13.8672 -7.85059 -27.5762 -11.8145 -40.5371 -11.8145c-7.62891 0 -14.998 1.37109 -21.9893 4.12988
c-23.5166 9.2793 -37.4473 32.0488 -44.9941 49.5156c-12.9473 29.9688 -16.5 63.0059 -18.4111 94.2441c-2.37891 38.8154 -2.00977 72.9717 1.14062 103.874c0.0302734 0.410156 0.0712891 0.818359 0.125977 1.22363c0.493164 4.70312 1.04883 9.33203 1.66992 13.8896
c5.96191 43.6934 17.96 82.0078 35.6602 113.885c16.7002 30.0781 36.6006 46.2725 59.1484 48.1396c11.1982 0.930664 22.7031 -1.91309 33.2725 -8.21484c17.3086 -10.3203 30.3193 -28.8877 35.6924 -50.9453c5.02832 -20.6367 2.87402 -43.6631 -5.90723 -63.1777
c-23.9434 -53.2119 -80.5107 -68.6533 -117.433 -75.2969c-1.5957 -24.2998 -1.47754 -50.9619 0.342773 -80.7031c1.66699 -27.2637 4.62598 -55.7705 14.8994 -79.5498c5.8418 -13.5195 13.6436 -23.2949 20.8643 -26.1445
c8.17383 -3.22461 19.0879 1.78223 24.8691 5.05566c22.6211 12.8076 58.9131 44.3662 103.346 121.979c6.00586 10.498 19.3887 14.1328 29.8838 8.12402zM63.1396 340.821c-12.8984 -23.2266 -22.292 -50.8945 -28.0049 -82.4287
c27.3135 6.27148 58.9736 18.5596 71.9785 47.4629c4.78809 10.6348 6.01953 23.6592 3.2959 34.8389c-2.53223 10.3994 -8.49707 19.4766 -15.5674 23.6924c-2.40918 1.4375 -4.75488 2.20898 -6.67969 2.20898c-0.188477 0 -0.37207 -0.0078125 -0.552734 -0.0214844
c-5.15137 -0.426758 -14.2891 -7.41504 -24.4697 -25.7529z" />
    <glyph glyph-name="e" unicode="&#xe9;" horiz-adv-x="206" 
d="M223.829 161.347c10.498 -6.00879 14.1318 -19.3857 8.13184 -29.8809c-39.6367 -69.2334 -79.9336 -115.773 -119.775 -138.332c-13.8672 -7.85059 -27.5762 -11.8145 -40.5371 -11.8145c-7.62891 0 -14.998 1.37109 -21.9893 4.12988
c-23.5166 9.2793 -37.4473 32.0488 -44.9941 49.5156c-12.9473 29.9688 -16.5 63.0059 -18.4111 94.2441c-2.37891 38.8154 -2.00977 72.9717 1.14062 103.874c0.0302734 0.410156 0.0712891 0.818359 0.125977 1.22363c0.493164 4.70312 1.04883 9.33203 1.66992 13.8896
c5.96191 43.6934 17.96 82.0078 35.6602 113.885c16.7002 30.0781 36.6006 46.2725 59.1484 48.1396c11.1982 0.930664 22.7031 -1.91309 33.2725 -8.21484c17.3086 -10.3203 30.3193 -28.8877 35.6924 -50.9453c5.02832 -20.6367 2.87402 -43.6631 -5.90723 -63.1777
c-23.9434 -53.2119 -80.5107 -68.6533 -117.433 -75.2969c-1.5957 -24.2998 -1.47754 -50.9619 0.342773 -80.7031c1.66699 -27.2637 4.62598 -55.7705 14.8994 -79.5498c5.8418 -13.5195 13.6436 -23.2949 20.8643 -26.1445
c8.17383 -3.22461 19.0879 1.78223 24.8691 5.05566c22.6211 12.8076 58.9131 44.3662 103.346 121.979c6.00586 10.498 19.3887 14.1328 29.8838 8.12402zM63.1396 340.821c-12.8984 -23.2266 -22.292 -50.8945 -28.0049 -82.4287
c27.3135 6.27148 58.9736 18.5596 71.9785 47.4629c4.78809 10.6348 6.01953 23.6592 3.2959 34.8389c-2.53223 10.3994 -8.49707 19.4766 -15.5674 23.6924c-2.40918 1.4375 -4.75488 2.20898 -6.67969 2.20898c-0.188477 0 -0.37207 -0.0078125 -0.552734 -0.0214844
c-5.15137 -0.426758 -14.2891 -7.41504 -24.4697 -25.7529z" />
    <glyph glyph-name="f" unicode="f" horiz-adv-x="194" 
d="M219.807 153.402c6.10938 -10.4375 2.60059 -23.8506 -7.84277 -29.9629c-11.1816 -6.54199 -23.0918 -13.1172 -35.7031 -20.0752c-27.1357 -14.9785 -56.1162 -30.9834 -82.127 -49.0693c17.9189 -0.837891 35.5479 -6.64941 49.9844 -17.3145
c27.5596 -20.3604 39.3271 -53.8516 32.2891 -91.8896c-1.86719 -10.084 -13.1123 -61.5137 -51.4238 -83.8125c-11.2012 -6.52051 -23.5771 -9.79688 -36.6396 -9.79688c-9.51758 0 -19.3994 1.73828 -29.4678 5.22559c-20.0898 6.96387 -37.4473 24.7949 -48.876 50.2109
c-9.39746 20.9023 -13.5938 43.9531 -16.46 63.7471c-7.38574 51.0049 -8.88281 102.588 -9.36426 141.828c-0.848633 69.4053 -0.3125 371.801 10.9189 553.017c0.74707 12.0713 11.1904 21.2471 23.21 20.5029c12.0713 -0.74707 21.25 -11.1377 20.5029 -23.209
c-11.1543 -179.981 -11.6826 -480.724 -10.8369 -549.773c0.200195 -16.2383 0.588867 -34.6689 1.50586 -54.2168c36.3848 33.6279 83.1035 59.4277 125.623 82.8955c12.3623 6.82422 24.04 13.2676 34.7461 19.5332c10.4346 6.10742 23.8535 2.59766 29.9609 -7.83984z
M118.095 1.75293c-14.0674 10.3965 -34.9492 11.8867 -50.7822 3.61719c-17.0918 -8.92383 -26.3086 -27.708 -26.0703 -53.0176c2.11914 -9.51465 4.88672 -18.9697 8.70801 -27.4717c6.24414 -13.8867 14.9463 -23.9023 23.2734 -26.7871
c15.6963 -5.44434 24.4863 -2.01465 29.7314 1.03711c18.0967 10.5303 27.792 39.8799 30.3896 53.9277c3.98535 21.54 -1.28711 38.3799 -15.25 48.6943z" />
    <glyph glyph-name="g" unicode="g" horiz-adv-x="308" 
d="M331.765 166.173c8.5293 -8.57324 8.49316 -22.4375 -0.0751953 -30.9668c-54.293 -54.0273 -101.654 -105.243 -142.235 -153.919c-0.757812 -103.836 -4.08887 -209.75 -11.8682 -314.134c-3.84082 -51.5303 -9.30469 -106.537 -23.1641 -159.647
c-14.3408 -54.9688 -37.8516 -87.1104 -69.8838 -95.5303c-5.41699 -1.42578 -10.749 -2.09668 -15.9639 -2.09668c-38.8682 0 -71.3193 37.1953 -86.5254 76.0439c-35.0596 89.5713 -27.5098 186.43 23.0742 296.112c30.6172 66.3867 77.1055 137.618 140.629 215.203
c0.150391 31.1514 0.0761719 62.1055 -0.169922 92.7607c-4.18848 -17.3496 -9.32422 -34.417 -15.8252 -50.7832c-12.9424 -32.583 -29.5938 -50.9453 -50.9043 -56.1357c-3.76367 -0.914062 -7.59863 -1.36621 -11.4531 -1.36621
c-13.7109 0 -27.6797 5.70215 -39.6367 16.4385c-19.2793 17.3115 -31.8848 45.126 -38.5312 85.0342c-4.33008 25.9941 -6.16406 53.8496 -5.44727 82.7861c1.31348 53.0605 11.2832 106.663 28.8271 155.013c8.62012 23.7549 21.7871 52.7432 47.2803 66.1533
c26.5332 13.958 59.3105 6.49023 84.0205 -18.9375c3.82129 5.5625 10.1338 9.30176 17.3936 9.51562c12.0967 0.358398 22.1787 -9.15625 22.5342 -21.2441c2.85547 -96.7549 5.4834 -200.682 5.76562 -307.723c33.2344 37.6494 70.2627 76.7686 111.191 117.5
c8.56836 8.5293 22.4355 8.49609 30.9678 -0.0771484zM120.348 213.187l10.7676 97.2812c-4.90527 10.1172 -10.3252 18.376 -17.7793 26.3613c-6.89258 7.38281 -16.5332 13.3965 -25.3037 13.3965c-2.7041 0 -5.32422 -0.569336 -7.75781 -1.85059
c-13.7637 -7.24023 -23.3467 -33.6533 -26.4971 -42.333c-15.9502 -43.9541 -25.0137 -92.7666 -26.2129 -141.155c-0.648438 -26.1719 0.988281 -51.2383 4.86426 -74.5059c4.88379 -29.3086 13.1562 -49.376 24.5928 -59.6436
c4.13574 -3.71484 8.74316 -5.76758 11.4668 -5.10547c1.61816 0.394531 10.2051 3.67969 20.5605 29.75c19.1729 48.2646 25.3369 103.953 31.2988 157.805zM133.902 -329.594c6.30176 84.5381 9.6543 170.183 11.0781 254.97
c-128.604 -170.23 -167.493 -307.651 -122.151 -423.493c10.3857 -26.5332 32.665 -52.2588 50.5674 -47.5557c14.7129 3.87109 29.1602 27.8828 38.6426 64.2324c12.9746 49.7354 18.1758 102.372 21.8633 151.847z" />
    <glyph glyph-name="h" unicode="h" horiz-adv-x="307" 
d="M315.691 161.552c11.749 -2.87402 18.9385 -14.7314 16.0674 -26.4746c-9.83789 -40.2227 -23.4512 -78.7568 -40.4668 -114.523c-8.27734 -17.3984 -18.8164 -37.0908 -34.2168 -51.2236c-13.2266 -12.1377 -28.7305 -18.4746 -43.7422 -18.4746
c-8.04004 0 -15.9375 1.81445 -23.2705 5.53223c-15.71 7.95996 -28.3926 24.4688 -35.7041 46.4883c-5.9375 17.8779 -7.69238 36.8232 -8.62598 53.001c-2.77539 48.0957 0.490234 96.3193 3.64648 142.953c1.99805 29.5605 4.06738 60.126 4.5166 89.9443
c0.235352 15.6494 0.0986328 33.957 -2.69043 51.0898c-1.92188 11.79 -4.37207 16.7471 -6.09082 18.8301c-0.481445 0.583008 -1.60059 1.94629 -4.41211 0.875977c-2.53223 -0.96582 -7.92188 -4.17383 -15.5781 -14.8086
c-17.4365 -24.2119 -27.6826 -58.3818 -35.9189 -88.5088c-17.0186 -62.2451 -31.8027 -144.183 -45.1992 -250.496c-0.0166016 -0.125977 -0.046875 -0.246094 -0.0664062 -0.37207c-0.0654297 -0.457031 -0.147461 -0.908203 -0.240234 -1.35742
c-0.0576172 -0.279297 -0.115234 -0.552734 -0.183594 -0.826172c-0.104492 -0.410156 -0.219727 -0.80957 -0.345703 -1.20898c-0.0957031 -0.30957 -0.191406 -0.616211 -0.300781 -0.919922c-0.123047 -0.341797 -0.259766 -0.678711 -0.399414 -1.0127
c-0.142578 -0.339844 -0.285156 -0.676758 -0.444336 -1.00781c-0.136719 -0.290039 -0.287109 -0.569336 -0.4375 -0.851562c-0.186523 -0.350586 -0.373047 -0.695312 -0.578125 -1.03516c-0.15918 -0.259766 -0.329102 -0.511719 -0.499023 -0.766602
c-0.21875 -0.328125 -0.4375 -0.65625 -0.672852 -0.970703c-0.191406 -0.259766 -0.399414 -0.508789 -0.604492 -0.760742c-0.229492 -0.285156 -0.461914 -0.567383 -0.705078 -0.837891c-0.243164 -0.273438 -0.5 -0.530273 -0.756836 -0.787109
c-0.229492 -0.229492 -0.454102 -0.457031 -0.692383 -0.675781c-0.300781 -0.279297 -0.615234 -0.539062 -0.932617 -0.798828c-0.21582 -0.177734 -0.429688 -0.355469 -0.654297 -0.525391c-0.344727 -0.262695 -0.706055 -0.505859 -1.06738 -0.749023
c-0.22168 -0.147461 -0.44043 -0.297852 -0.667969 -0.4375c-0.367188 -0.224609 -0.742188 -0.432617 -1.12305 -0.637695c-0.249023 -0.133789 -0.498047 -0.267578 -0.75293 -0.393555c-0.355469 -0.174805 -0.722656 -0.333984 -1.0918 -0.490234
c-0.306641 -0.128906 -0.610352 -0.257812 -0.922852 -0.373047c-0.326172 -0.120117 -0.657227 -0.226562 -0.991211 -0.333008c-0.375 -0.118164 -0.75293 -0.233398 -1.13574 -0.332031c-0.290039 -0.0742188 -0.585938 -0.139648 -0.884766 -0.202148
c-0.429688 -0.0908203 -0.862305 -0.172852 -1.2998 -0.238281c-0.133789 -0.0195312 -0.259766 -0.0546875 -0.393555 -0.0712891c-0.123047 -0.0166016 -0.243164 -0.0107422 -0.366211 -0.0244141c-0.678711 -0.0791016 -1.36328 -0.123047 -2.05566 -0.136719
c-0.15918 -0.00292969 -0.320312 -0.0302734 -0.479492 -0.0302734c-0.0898438 0 -0.177734 0.0107422 -0.265625 0.0107422c-0.246094 0.00292969 -0.492188 0.0224609 -0.738281 0.0332031c-0.493164 0.0214844 -0.977539 0.0546875 -1.46191 0.109375
c-0.0820312 0.0107422 -0.164062 0.0078125 -0.246094 0.0185547c-0.139648 0.0166016 -0.268555 0.0517578 -0.405273 0.0712891c-0.495117 0.0742188 -0.985352 0.15625 -1.46973 0.262695c-0.235352 0.0488281 -0.464844 0.103516 -0.694336 0.161133
c-0.4375 0.109375 -0.867188 0.232422 -1.29395 0.366211c-0.262695 0.0820312 -0.525391 0.166992 -0.782227 0.257812c-0.369141 0.133789 -0.730469 0.279297 -1.0918 0.432617c-0.290039 0.120117 -0.580078 0.238281 -0.862305 0.37207
c-0.314453 0.147461 -0.618164 0.311523 -0.924805 0.475586c-0.300781 0.15918 -0.604492 0.3125 -0.894531 0.485352c-0.285156 0.169922 -0.558594 0.358398 -0.837891 0.541992c-0.285156 0.186523 -0.578125 0.364258 -0.854492 0.564453
c-0.53125 0.382812 -1.04297 0.788086 -1.53613 1.21777c-0.145508 0.125977 -0.279297 0.268555 -0.421875 0.400391c-0.361328 0.333984 -0.719727 0.667969 -1.05957 1.02344c-0.139648 0.147461 -0.265625 0.306641 -0.402344 0.457031
c-0.323242 0.358398 -0.643555 0.719727 -0.942383 1.10059c-0.125977 0.161133 -0.241211 0.328125 -0.361328 0.492188c-0.285156 0.382812 -0.567383 0.771484 -0.827148 1.17676c-0.120117 0.183594 -0.229492 0.375 -0.341797 0.561523
c-0.235352 0.394531 -0.462891 0.789062 -0.676758 1.19434c-0.118164 0.224609 -0.224609 0.454102 -0.333984 0.683594c-0.177734 0.375 -0.350586 0.75 -0.509766 1.13574c-0.118164 0.282227 -0.222656 0.569336 -0.327148 0.856445
c-0.123047 0.339844 -0.238281 0.681641 -0.344727 1.02637c-0.104492 0.344727 -0.200195 0.689453 -0.288086 1.03711c-0.0761719 0.303711 -0.147461 0.613281 -0.209961 0.922852c-0.0820312 0.385742 -0.150391 0.774414 -0.210938 1.16602
c-0.0214844 0.136719 -0.0546875 0.270508 -0.0742188 0.407227c-10.2217 77.1855 -11.7734 156.612 -12.4248 225c-1.59082 166.705 2.33496 335.562 11.667 501.878c0.678711 12.0771 11.0176 21.3125 23.0918 20.6387
c12.0742 -0.678711 21.3154 -11.0176 20.6367 -23.0918c-9.27734 -165.366 -13.1807 -333.257 -11.6016 -499.009c0.0742188 -8.00684 0.164062 -16.1748 0.279297 -24.4609c4.72754 22.1318 9.62695 42.5391 14.7373 61.2266
c9.24707 33.8174 20.9277 72.4199 42.624 102.553c11.084 15.3926 22.7012 25.2529 35.5176 30.1416c19.5557 7.45898 40.6768 1.99219 53.8047 -13.9287c10.1338 -12.2822 13.7168 -28.5146 15.5312 -39.6582c3.33984 -20.5029 3.52051 -41.2217 3.25488 -58.7871
c-0.46582 -30.9678 -2.57324 -62.1191 -4.6123 -92.2412c-3.06543 -45.2891 -6.23535 -92.1201 -3.61523 -137.473c0.766602 -13.3203 2.1377 -28.6904 6.46582 -41.7227c4.1748 -12.5703 10.1152 -19.29 13.9365 -21.2256
c5.17676 -2.63086 12.7236 1.66406 17.6045 6.14258c9.87109 9.05469 17.8125 24.1729 24.2812 37.7695c15.7344 33.0781 28.3428 68.7812 37.4717 106.113c2.87402 11.749 14.7236 18.9424 26.4727 16.0713z" />
    <glyph glyph-name="i" unicode="i" horiz-adv-x="155" 
d="M168.294 159.961c11.5459 -3.59668 17.9941 -15.877 14.3945 -27.4229c-8.54102 -27.3896 -17.2344 -54.0244 -29.7002 -78.7432c-15.0723 -29.9004 -33.4346 -52.0977 -54.5781 -65.9814c-10.3281 -6.7832 -20.043 -10.5303 -29.6953 -11.4609
c-1.56348 -0.150391 -3.13184 -0.224609 -4.69727 -0.224609c-18.2285 0 -36.4707 10.0732 -49.5801 27.6201c-9.69336 12.9697 -16.7998 29.7441 -21.7295 51.2812c-7.41797 32.4209 -8.13281 65.792 -8.23145 97.1924c-0.205078 66.1016 2.37305 132.97 7.66406 198.754
c0.96875 12.0557 11.5322 21.042 23.582 20.0732c12.0557 -0.96875 21.042 -11.5264 20.0732 -23.582c-5.19238 -64.5742 -7.72461 -130.219 -7.52441 -195.107c0.0898438 -28.9336 0.713867 -59.5264 7.12793 -87.5566c3.49023 -15.2471 8.24219 -26.9707 14.1221 -34.8408
c4.7002 -6.29297 10.8838 -10.4072 14.9902 -10.0127c1.62598 0.15625 4.65332 1.05957 9.85449 4.47559c14.4365 9.47949 28.0986 26.4541 39.5107 49.0889c10.96 21.7373 19.0215 46.4912 26.9922 72.0605c3.59961 11.543 15.8789 17.9863 27.4248 14.3867zM14.4844 417.9
c-12.0879 0 -21.8896 9.79395 -21.8975 21.8789c-0.0195312 27.7402 0.631836 42.6807 1.1543 54.6836c0.358398 8.24512 0.670898 15.3652 0.670898 24.7188c0.00292969 12.0938 9.80859 21.8965 21.8994 21.8965h0.00292969c12.0938 0 21.8994 -9.80762 21.8965 -21.9014
c-0.00292969 -10.3037 -0.331055 -17.8613 -0.711914 -26.6123c-0.53125 -12.1787 -1.13086 -25.9775 -1.11426 -52.752c0.0078125 -12.0938 -9.79199 -21.9043 -21.8857 -21.9121h-0.0146484z" />
    <glyph glyph-name="i" unicode="&#xef;" horiz-adv-x="155" 
d="M168.294 159.961c11.5459 -3.59668 17.9941 -15.877 14.3945 -27.4229c-8.54102 -27.3896 -17.2344 -54.0244 -29.7002 -78.7432c-15.0723 -29.9004 -33.4346 -52.0977 -54.5781 -65.9814c-10.3281 -6.7832 -20.043 -10.5303 -29.6953 -11.4609
c-1.56348 -0.150391 -3.13184 -0.224609 -4.69727 -0.224609c-18.2285 0 -36.4707 10.0732 -49.5801 27.6201c-9.69336 12.9697 -16.7998 29.7441 -21.7295 51.2812c-7.41797 32.4209 -8.13281 65.792 -8.23145 97.1924c-0.205078 66.1016 2.37305 132.97 7.66406 198.754
c0.96875 12.0557 11.5322 21.042 23.582 20.0732c12.0557 -0.96875 21.042 -11.5264 20.0732 -23.582c-5.19238 -64.5742 -7.72461 -130.219 -7.52441 -195.107c0.0898438 -28.9336 0.713867 -59.5264 7.12793 -87.5566c3.49023 -15.2471 8.24219 -26.9707 14.1221 -34.8408
c4.7002 -6.29297 10.8838 -10.4072 14.9902 -10.0127c1.62598 0.15625 4.65332 1.05957 9.85449 4.47559c14.4365 9.47949 28.0986 26.4541 39.5107 49.0889c10.96 21.7373 19.0215 46.4912 26.9922 72.0605c3.59961 11.543 15.8789 17.9863 27.4248 14.3867zM14.4844 417.9
c-12.0879 0 -21.8896 9.79395 -21.8975 21.8789c-0.0195312 27.7402 0.631836 42.6807 1.1543 54.6836c0.358398 8.24512 0.670898 15.3652 0.670898 24.7188c0.00292969 12.0938 9.80859 21.8965 21.8994 21.8965h0.00292969c12.0938 0 21.8994 -9.80762 21.8965 -21.9014
c-0.00292969 -10.3037 -0.331055 -17.8613 -0.711914 -26.6123c-0.53125 -12.1787 -1.13086 -25.9775 -1.11426 -52.752c0.0078125 -12.0938 -9.79199 -21.9043 -21.8857 -21.9121h-0.0146484z" />
    <glyph glyph-name="i" unicode="&#xee;" horiz-adv-x="155" 
d="M168.294 159.961c11.5459 -3.59668 17.9941 -15.877 14.3945 -27.4229c-8.54102 -27.3896 -17.2344 -54.0244 -29.7002 -78.7432c-15.0723 -29.9004 -33.4346 -52.0977 -54.5781 -65.9814c-10.3281 -6.7832 -20.043 -10.5303 -29.6953 -11.4609
c-1.56348 -0.150391 -3.13184 -0.224609 -4.69727 -0.224609c-18.2285 0 -36.4707 10.0732 -49.5801 27.6201c-9.69336 12.9697 -16.7998 29.7441 -21.7295 51.2812c-7.41797 32.4209 -8.13281 65.792 -8.23145 97.1924c-0.205078 66.1016 2.37305 132.97 7.66406 198.754
c0.96875 12.0557 11.5322 21.042 23.582 20.0732c12.0557 -0.96875 21.042 -11.5264 20.0732 -23.582c-5.19238 -64.5742 -7.72461 -130.219 -7.52441 -195.107c0.0898438 -28.9336 0.713867 -59.5264 7.12793 -87.5566c3.49023 -15.2471 8.24219 -26.9707 14.1221 -34.8408
c4.7002 -6.29297 10.8838 -10.4072 14.9902 -10.0127c1.62598 0.15625 4.65332 1.05957 9.85449 4.47559c14.4365 9.47949 28.0986 26.4541 39.5107 49.0889c10.96 21.7373 19.0215 46.4912 26.9922 72.0605c3.59961 11.543 15.8789 17.9863 27.4248 14.3867zM14.4844 417.9
c-12.0879 0 -21.8896 9.79395 -21.8975 21.8789c-0.0195312 27.7402 0.631836 42.6807 1.1543 54.6836c0.358398 8.24512 0.670898 15.3652 0.670898 24.7188c0.00292969 12.0938 9.80859 21.8965 21.8994 21.8965h0.00292969c12.0938 0 21.8994 -9.80762 21.8965 -21.9014
c-0.00292969 -10.3037 -0.331055 -17.8613 -0.711914 -26.6123c-0.53125 -12.1787 -1.13086 -25.9775 -1.11426 -52.752c0.0078125 -12.0938 -9.79199 -21.9043 -21.8857 -21.9121h-0.0146484z" />
    <glyph glyph-name="i" unicode="&#xed;" horiz-adv-x="155" 
d="M168.294 159.961c11.5459 -3.59668 17.9941 -15.877 14.3945 -27.4229c-8.54102 -27.3896 -17.2344 -54.0244 -29.7002 -78.7432c-15.0723 -29.9004 -33.4346 -52.0977 -54.5781 -65.9814c-10.3281 -6.7832 -20.043 -10.5303 -29.6953 -11.4609
c-1.56348 -0.150391 -3.13184 -0.224609 -4.69727 -0.224609c-18.2285 0 -36.4707 10.0732 -49.5801 27.6201c-9.69336 12.9697 -16.7998 29.7441 -21.7295 51.2812c-7.41797 32.4209 -8.13281 65.792 -8.23145 97.1924c-0.205078 66.1016 2.37305 132.97 7.66406 198.754
c0.96875 12.0557 11.5322 21.042 23.582 20.0732c12.0557 -0.96875 21.042 -11.5264 20.0732 -23.582c-5.19238 -64.5742 -7.72461 -130.219 -7.52441 -195.107c0.0898438 -28.9336 0.713867 -59.5264 7.12793 -87.5566c3.49023 -15.2471 8.24219 -26.9707 14.1221 -34.8408
c4.7002 -6.29297 10.8838 -10.4072 14.9902 -10.0127c1.62598 0.15625 4.65332 1.05957 9.85449 4.47559c14.4365 9.47949 28.0986 26.4541 39.5107 49.0889c10.96 21.7373 19.0215 46.4912 26.9922 72.0605c3.59961 11.543 15.8789 17.9863 27.4248 14.3867zM14.4844 417.9
c-12.0879 0 -21.8896 9.79395 -21.8975 21.8789c-0.0195312 27.7402 0.631836 42.6807 1.1543 54.6836c0.358398 8.24512 0.670898 15.3652 0.670898 24.7188c0.00292969 12.0938 9.80859 21.8965 21.8994 21.8965h0.00292969c12.0938 0 21.8994 -9.80762 21.8965 -21.9014
c-0.00292969 -10.3037 -0.331055 -17.8613 -0.711914 -26.6123c-0.53125 -12.1787 -1.13086 -25.9775 -1.11426 -52.752c0.0078125 -12.0938 -9.79199 -21.9043 -21.8857 -21.9121h-0.0146484z" />
    <glyph glyph-name="j" unicode="j" horiz-adv-x="147" 
d="M-4.06152 417.902c-12.0879 0 -21.8896 9.79395 -21.8975 21.8789c-0.0195312 27.7402 0.631836 42.6807 1.1543 54.6836c0.358398 8.24512 0.670898 15.3652 0.670898 24.7188c0.00292969 12.0938 9.80859 21.8965 21.8994 21.8965h0.00292969
c12.0938 0 21.8994 -9.80762 21.8965 -21.9014c-0.00292969 -10.3037 -0.331055 -17.8613 -0.711914 -26.6123c-0.53125 -12.1787 -1.13086 -25.9775 -1.11426 -52.752c0.0078125 -12.0938 -9.79199 -21.9043 -21.8857 -21.9121h-0.0146484zM171.393 166.173
c8.5293 -8.57324 8.49609 -22.4375 -0.0722656 -30.9668c-54.293 -54.0273 -101.654 -105.243 -142.235 -153.919c-0.757812 -103.836 -4.08887 -209.755 -11.8682 -314.133c-3.84082 -51.5283 -9.30469 -106.535 -23.1611 -159.648
c-14.3408 -54.9688 -37.8545 -87.1104 -69.8848 -95.5303c-5.41699 -1.42578 -10.749 -2.09668 -15.9639 -2.09668c-38.8682 0 -71.3193 37.1953 -86.5254 76.0439c-35.0596 89.5713 -27.5098 186.43 23.0742 296.112c30.6172 66.3867 77.1055 137.618 140.629 215.203
c0.604492 124.624 -2.39258 246.1 -5.69141 357.945c-0.355469 12.0879 9.1543 22.1777 21.2451 22.5332c12.0635 0.358398 22.1777 -9.1543 22.5332 -21.2451c2.85254 -96.7568 5.48047 -200.681 5.7627 -307.723c33.2344 37.6494 70.2627 76.7686 111.191 117.5
c8.57031 8.53223 22.4346 8.49707 30.9668 -0.0761719zM-26.4629 -329.595c6.29883 84.5352 9.65039 170.185 11.0762 254.969c-128.604 -170.23 -167.493 -307.651 -122.151 -423.493c10.3857 -26.5332 32.6592 -52.2588 50.5674 -47.5557
c14.7109 3.86816 29.1592 27.8828 38.6445 64.2324c12.9746 49.7354 18.1758 102.375 21.8633 151.848z" />
    <glyph glyph-name="k" unicode="k" horiz-adv-x="289" 
d="M301.095 151.186c11.084 -4.84277 16.1387 -17.7549 11.291 -28.8389c-15.8682 -36.3027 -56.5156 -122.529 -91.0889 -139.09c-8.46094 -4.05176 -18.5371 -7.01367 -29.9111 -7.01367c-22.7422 -0.00292969 -50.6768 11.8311 -81.3076 50.4385
c-26.582 33.5049 -48.4727 77.7021 -64.4531 109.973c-4.48633 9.06055 -9.71484 19.6074 -13.5391 26.5742c1.34375 -49.1768 4.19336 -101.228 10.8994 -151.866c1.58789 -11.9893 -6.84277 -22.9961 -18.832 -24.584
c-0.977539 -0.131836 -1.94629 -0.192383 -2.9043 -0.192383c-10.8154 0 -20.2207 8.0127 -21.6797 19.0254c-10.2217 77.1855 -11.7734 156.612 -12.4248 225c-1.59082 166.705 2.33496 335.562 11.667 501.878c0.678711 12.0771 11.0479 21.3125 23.0918 20.6387
c12.0742 -0.678711 21.3154 -11.0176 20.6367 -23.0918c-8.15723 -145.433 -12.1514 -292.812 -11.9238 -438.976c12.792 29.5771 28.0771 55.4863 45.7549 77.3965c13.6836 16.9639 26.4619 28.4658 40.2119 36.2012c19.3418 10.8867 40.2061 13.4404 58.7402 7.19629
c9.17285 -3.09082 16.7168 -8.05664 22.4297 -14.7578c7.86426 -9.22461 12.4658 -22.1914 12.9609 -36.5049c0.341797 -9.87402 -1.13086 -20.0381 -4.63477 -31.9844c-15.4414 -52.6309 -52.9785 -85.876 -81.748 -104.498
c-21.6357 -14.0068 -42.5898 -22.7197 -62.6797 -26.1191c5.82812 -7.10352 11.9219 -19.082 23.2217 -41.8975c24.6387 -49.7461 75.8906 -153.262 117.504 -133.337c9.61914 4.78809 38.4873 45.3281 69.8789 117.135c4.84277 11.084 17.7549 16.1396 28.8389 11.2949z
M110.459 340.961c-21.0967 -26.1504 -38.4541 -59.335 -51.7607 -98.9121c12.9561 2.9043 26.9326 9.19238 41.832 18.8359c22.5449 14.5928 51.8643 40.3262 63.5225 80.0615c2.14648 7.31738 3.06348 13.082 2.89062 18.1406
c-0.177734 5.08008 -1.60645 8.52637 -2.52344 9.60449c-0.481445 0.563477 -1.57324 1.1543 -3.0791 1.66113c-2.20898 0.744141 -4.45117 1.05078 -6.64648 1.05078c-6.69531 0 -12.9775 -2.85254 -16.6348 -4.91113
c-8.62793 -4.85645 -17.6582 -13.208 -27.6006 -25.5312z" />
    <glyph glyph-name="l" unicode="l" horiz-adv-x="177" 
d="M189.807 162.836c11.79 -2.69629 19.1562 -14.4375 16.457 -26.2275c-7.79297 -34.0742 -18.6846 -67.0898 -32.3711 -98.126c-8.67969 -19.6846 -21.0879 -44.6191 -40.1455 -62.8447c-16.5469 -15.8242 -36.0967 -24.2197 -55.0938 -24.2197
c-7.12793 0 -14.1768 1.17969 -20.9629 3.59375c-20.0781 7.14453 -37.375 24.9541 -48.7051 50.1514c-9.39746 20.9023 -13.5938 43.9531 -16.46 63.7471c-7.38574 50.9971 -8.88281 102.585 -9.36426 141.83c-0.979492 80.1416 2.0752 161.263 5.03125 239.713
l11.043 293.103c0.454102 12.085 10.7002 21.5068 22.7061 21.0576c12.085 -0.454102 21.5156 -10.6211 21.0586 -22.7061l-11.043 -293.103c-2.93457 -77.9131 -5.96777 -158.481 -5.00195 -237.528c0.46582 -37.9014 1.89746 -87.623 8.91602 -136.088
c2.43066 -16.7881 5.88281 -36.1006 13.0605 -52.0645c6.20312 -13.7959 14.9658 -23.8311 23.4434 -26.8477c10.5254 -3.74707 22.9697 3.2334 31.1055 11.0127c13.4814 12.8926 23.2979 32.8857 30.3438 48.8633c12.5674 28.4961 22.5752 58.8506 29.7529 90.2178
c2.69629 11.79 14.4502 19.1621 26.2295 16.4658z" />
    <glyph glyph-name="m" unicode="m" horiz-adv-x="484" 
d="M497.445 161.552c11.749 -2.87402 18.9395 -14.7236 16.0654 -26.4834c-9.83496 -40.2168 -23.4482 -78.748 -40.4668 -114.522c-8.27539 -17.3955 -18.8145 -37.085 -34.2178 -51.2236c-13.2266 -12.1377 -28.7305 -18.4746 -43.7422 -18.4746
c-8.04004 0 -15.9375 1.81445 -23.2705 5.53223c-15.71 7.95996 -28.3926 24.4688 -35.7041 46.4883c-5.9375 17.8779 -7.69238 36.8232 -8.62598 53.001c-2.77539 48.0957 0.487305 96.3193 3.64355 142.953c2.00098 29.5605 4.07031 60.126 4.51953 89.9443
c0.235352 15.6494 0.0986328 33.957 -2.69043 51.0898c-1.92188 11.79 -4.37207 16.7471 -6.09082 18.8301c-0.481445 0.583008 -1.60059 1.94629 -4.41211 0.875977c-2.53223 -0.96582 -7.92188 -4.17383 -15.5811 -14.8115
c-17.4365 -24.2119 -27.6826 -58.3818 -35.9189 -88.5088c-20.8506 -76.2549 -36.5352 -155.523 -46.6279 -235.6c-0.279297 -2.21484 -0.883789 -4.30371 -1.75195 -6.23926c-0.00292969 -1.0127 -0.0107422 -1.99805 -0.0107422 -3.0166
c-0.0107422 -12.085 -9.81348 -21.877 -21.8984 -21.877h-0.0214844c-12.0938 0.0136719 -21.8877 9.82715 -21.877 21.9209c0.0332031 31.959 0.745117 60.5098 1.43262 88.1162c0.936523 37.5732 1.82324 73.0605 1.04883 115.196
c-0.651367 35.5195 -2.5459 77.0918 -11.6504 116.112c-5.70508 24.4414 -13.2959 32.8779 -16.5127 33.9238c-1.17969 0.385742 -3.99121 -0.333984 -7.03516 -2.46387c-4.42676 -3.09863 -9.18945 -8.59277 -14.5576 -16.8018
c-18.1182 -27.71 -29.2041 -62.9229 -38.1719 -93.7539c-22.0576 -75.8252 -42.9082 -186.475 -53.7861 -262.494c-0.0712891 -0.498047 -0.175781 -0.982422 -0.280273 -1.4668c-0.0273438 -0.136719 -0.0439453 -0.273438 -0.0771484 -0.410156
c-0.227539 -0.982422 -0.53418 -1.92383 -0.884766 -2.84375c-0.0302734 -0.0791016 -0.0439453 -0.161133 -0.0742188 -0.240234c-0.0273438 -0.0683594 -0.0683594 -0.128906 -0.0957031 -0.194336c-0.382812 -0.947266 -0.823242 -1.8584 -1.33008 -2.72656
c-0.0742188 -0.128906 -0.15332 -0.24707 -0.229492 -0.373047c-0.514648 -0.845703 -1.07031 -1.66113 -1.68848 -2.4248l-0.123047 -0.146484c-0.59082 -0.714844 -1.23438 -1.37695 -1.9082 -2.00977c-0.15332 -0.142578 -0.300781 -0.290039 -0.457031 -0.429688
c-0.681641 -0.602539 -1.39844 -1.1582 -2.14844 -1.67285c-0.166992 -0.112305 -0.336914 -0.22168 -0.506836 -0.331055c-0.798828 -0.514648 -1.62012 -0.994141 -2.47949 -1.40234c-0.0351562 -0.0166016 -0.0703125 -0.0302734 -0.103516 -0.0439453
c-0.868164 -0.410156 -1.77148 -0.75 -2.69434 -1.04297c-0.118164 -0.0380859 -0.233398 -0.0791016 -0.353516 -0.114258c-0.911133 -0.271484 -1.84473 -0.482422 -2.79688 -0.632812c-0.169922 -0.0273438 -0.342773 -0.046875 -0.515625 -0.0712891
c-0.950195 -0.128906 -1.91113 -0.216797 -2.88867 -0.216797c-0.0166016 0 -0.0332031 -0.00292969 -0.0498047 -0.00292969c-0.936523 0 -1.87793 0.0849609 -2.81934 0.208008c-0.0927734 0.0107422 -0.182617 0.00488281 -0.275391 0.0185547
c-0.120117 0.0166016 -0.232422 0.0498047 -0.352539 0.0693359c-0.443359 0.0712891 -0.880859 0.15918 -1.32129 0.257812c-0.298828 0.0683594 -0.597656 0.133789 -0.890625 0.212891c-0.347656 0.0927734 -0.692383 0.202148 -1.03711 0.314453
c-0.367188 0.118164 -0.731445 0.236328 -1.08691 0.373047c-0.0908203 0.0351562 -0.183594 0.0566406 -0.273438 0.0917969c-0.238281 0.0927734 -0.459961 0.208008 -0.692383 0.306641c-0.287109 0.125977 -0.577148 0.246094 -0.859375 0.382812
c-11.8936 5.48047 -18.2607 17.6836 -18.9014 36.3389c-0.583008 16.9062 -1.24023 34.1846 -1.90527 51.7256c-3.8623 101.726 -8.23633 217.022 0.219727 317.453c1.01562 12.0527 11.6006 21.0039 23.6582 19.9854c12.0498 -1.01562 20.998 -11.6064 19.9824 -23.6592
c-5.41406 -64.3164 -5.38672 -135.597 -3.6543 -205.457c7.42383 34.0059 15.4365 66.7607 23.624 94.9062c9.85156 33.8613 22.1533 72.7373 43.5703 105.489c8.59766 13.1475 16.8916 22.2734 26.1025 28.7168c14.3135 10.0156 30.9619 13.0156 45.6865 8.23047
c21.7646 -7.07324 37.1162 -29.1523 45.624 -65.625c7.14453 -30.6201 10.2373 -61.9629 11.6826 -91.1348c1.58203 6.0498 3.13379 12.1133 4.7793 18.124c9.24707 33.8174 20.9277 72.4199 42.624 102.553c11.0859 15.3945 22.7031 25.2549 35.5166 30.1406
c19.5557 7.45898 40.6768 1.99219 53.8047 -13.9287c10.1338 -12.2822 13.7168 -28.5146 15.5312 -39.6582c3.33984 -20.5029 3.52051 -41.2217 3.25488 -58.7871c-0.46582 -30.9678 -2.57324 -62.1191 -4.6123 -92.2412
c-3.06543 -45.2891 -6.23535 -92.1201 -3.61523 -137.473c0.766602 -13.3203 2.1377 -28.6904 6.46582 -41.7227c4.1748 -12.5703 10.1152 -19.29 13.9336 -21.2256c5.19043 -2.63086 12.7295 1.66406 17.6074 6.14258c9.87402 9.06055 17.8154 24.1758 24.2812 37.7695
c15.7373 33.084 28.3457 68.7871 37.4717 106.113c2.86914 11.749 14.7168 18.9453 26.4736 16.0713z" />
    </font>
</defs>
</svg>
