<?xml version="1.0" standalone="no"?>
<!DOCTYPE svg PUBLIC "-//W3C//DTD SVG 1.1//EN" "http://www.w3.org/Graphics/SVG/1.1/DTD/svg11.dtd" >
<svg xmlns="http://www.w3.org/2000/svg" xmlns:xlink="http://www.w3.org/1999/xlink" version="1.1">
<metadata>
Created by FontForge 20170812 at Wed Aug 31 14:45:20 2022
 By www-data
</metadata>
<defs>
<font id="CashewRegular" horiz-adv-x="0" >
  <font-face 
    font-family="Cashew"
    font-weight="400"
    font-stretch="normal"
    units-per-em="1000"
    panose-1="0 0 0 0 0 0 0 0 0 0"
    ascent="800"
    descent="-200"
    x-height="447.432"
    cap-height="910.694"
    bbox="-248.001 -413.142 1087.88 1054.85"
    underline-thickness="50"
    underline-position="-100"
    unicode-range="U+000A-20AC"
  />
<missing-glyph horiz-adv-x="527" 
d="M50 700h427v-700h-427v700zM78 680l185 -309l186 309h-371zM251 350l-180 300v-601zM264 329l-185 -308h370zM276 350l181 -303v605z" />
    <glyph glyph-name=".notdef" horiz-adv-x="527" 
d="M50 700h427v-700h-427v700zM78 680l185 -309l186 309h-371zM251 350l-180 300v-601zM264 329l-185 -308h370zM276 350l181 -303v605z" />
    <glyph glyph-name=".null" 
 />
    <glyph glyph-name=".null" 
 />
    <glyph glyph-name="LF" unicode="&#xa;" 
 />
    <glyph glyph-name="controlCR" unicode="&#xd;" 
 />
    <glyph glyph-name="space" unicode=" " horiz-adv-x="310" 
 />
    <glyph glyph-name="exclam" unicode="!" horiz-adv-x="217" 
d="M155.883 37.3838c-3.0498 -41.0234 -103.385 -40.9883 -104.56 0c-3.62012 126.651 1.06152 253.455 3.51074 380.11c1.22266 63.373 2.29297 126.707 4.18164 190.063c1.80957 60.6982 -0.322266 127.104 19.5352 185.057c4.98145 14.5273 41.1797 13.7139 46.6748 0
c22.8682 -57.0693 23.6777 -124.276 27.3633 -185.057c3.8418 -63.3428 6.05176 -126.625 7.60547 -190.063c3.09766 -126.625 5.08203 -253.729 -4.31152 -380.11zM166.488 -112.383c2.28809 -18.2383 -29.876 -23.2656 -41.332 -23.5576
c-12.5781 -0.322266 -42.751 5.63379 -41.333 23.5586c1.70996 21.6582 -0.62207 45.1875 6.26562 66.0361c6.8916 20.8486 59.7754 19.8955 67.3242 -0.000976562c7.77441 -20.4922 6.37793 -44.4951 9.0752 -66.0361z" />
    <glyph glyph-name="quotedbl" unicode="&#x22;" horiz-adv-x="283" 
d="M58.7305 659.62c10.2021 21.2666 71.5186 23.0078 72.7764 -5.61133c0.696289 -15.8369 -3.3457 -30.8252 -6.46484 -46.3057c-3.05469 -15.1406 -6.63965 -28.7715 -16.085 -41.1143c-7.82715 -10.2334 -32.792 -8.85449 -40.9717 -0.000976562
c-21.5889 23.3721 -22.5332 65.3525 -9.25488 93.0322zM152.199 674.118c9.42773 23.668 83.4199 24.2695 80.2529 -6.19043c-1.95312 -18.8086 -7.55273 -37.3691 -12.1426 -55.6855c-4.82031 -19.2393 -8.20996 -37.4121 -24.0293 -50.7256
c-9.8584 -8.29297 -28.7842 -9.1416 -38.5078 -0.000976562c-27.458 25.8086 -18.1514 81.0029 -5.57324 112.603z" />
    <glyph glyph-name="quotedbl" unicode="&#x201d;" horiz-adv-x="283" 
d="M58.7305 659.62c10.2021 21.2666 71.5186 23.0078 72.7764 -5.61133c0.696289 -15.8369 -3.3457 -30.8252 -6.46484 -46.3057c-3.05469 -15.1406 -6.63965 -28.7715 -16.085 -41.1143c-7.82715 -10.2334 -32.792 -8.85449 -40.9717 -0.000976562
c-21.5889 23.3721 -22.5332 65.3525 -9.25488 93.0322zM152.199 674.118c9.42773 23.668 83.4199 24.2695 80.2529 -6.19043c-1.95312 -18.8086 -7.55273 -37.3691 -12.1426 -55.6855c-4.82031 -19.2393 -8.20996 -37.4121 -24.0293 -50.7256
c-9.8584 -8.29297 -28.7842 -9.1416 -38.5078 -0.000976562c-27.458 25.8086 -18.1514 81.0029 -5.57324 112.603z" />
    <glyph glyph-name="quotedbl" unicode="&#x201c;" horiz-adv-x="283" 
d="M58.7305 659.62c10.2021 21.2666 71.5186 23.0078 72.7764 -5.61133c0.696289 -15.8369 -3.3457 -30.8252 -6.46484 -46.3057c-3.05469 -15.1406 -6.63965 -28.7715 -16.085 -41.1143c-7.82715 -10.2334 -32.792 -8.85449 -40.9717 -0.000976562
c-21.5889 23.3721 -22.5332 65.3525 -9.25488 93.0322zM152.199 674.118c9.42773 23.668 83.4199 24.2695 80.2529 -6.19043c-1.95312 -18.8086 -7.55273 -37.3691 -12.1426 -55.6855c-4.82031 -19.2393 -8.20996 -37.4121 -24.0293 -50.7256
c-9.8584 -8.29297 -28.7842 -9.1416 -38.5078 -0.000976562c-27.458 25.8086 -18.1514 81.0029 -5.57324 112.603z" />
    <glyph glyph-name="numbersign" unicode="#" horiz-adv-x="545" 
d="M471.446 245.343c7.43555 0.448242 23.4912 -3.33105 23.4951 -13.3896c0 -10.707 -15.7363 -12.9346 -23.4854 -13.3867c-17.207 -1.00098 -34.3975 -2.23633 -51.5703 -3.66797c-3.37598 -103.814 -4.95996 -208.699 -21.293 -310.733
c-4.85547 -30.3467 -70.2656 -29.376 -76.0039 0.000976562c-18.9346 96.9004 -20.083 198.2 -17.5029 297.902c-21.0928 -2.95898 -42.1328 -6.27832 -63.125 -9.89355c-1.51855 -37.4824 -2.80664 -74.9727 -3.85547 -112.498
c-0.905273 -32.5703 -1.94043 -65.2754 -3.61133 -97.8145c-1.64453 -32.0303 -3.75879 -62.4639 -17.0068 -91.9053c-9.46777 -21.0449 -49.6602 -15.4102 -60.8984 0c-37.4736 51.3701 -33.4141 128.566 -35.2891 189.721
c-0.896484 29.1543 -1.43555 58.3652 -1.70996 87.5811c-9.32812 -2.20117 -18.6475 -4.44141 -27.9453 -6.76953c-8.89258 -2.23242 -24.373 -3.66406 -31.1602 4.6543c-6.13867 7.51855 -0.460938 15.5811 8.1709 17.7607
c16.8857 4.26855 33.8145 8.32812 50.7783 12.1875c-0.0693359 27.6318 0.0830078 55.2598 0.605469 82.835c0.0996094 5.19043 0.299805 10.3857 0.425781 15.5762c-14.249 -2.73242 -28.4717 -5.6123 -42.6641 -8.69238
c-23.1113 -5.0166 -42.5117 18.9648 -12.3604 25.5566c18.543 4.05469 37.1465 7.77441 55.7939 11.2373c1.72266 51.4824 4.59863 102.965 7.83984 154.339c4.18066 66.2969 7.7959 133.182 24.333 197.729c5.62988 21.9844 46.3447 24.7773 63.3604 23.5762
c18.2207 -1.28809 48.8193 -9.30176 50.0723 -32.3301c3.56738 -65.6836 -5.70801 -132.103 -10.4111 -197.582c-3.03223 -42.2158 -5.26855 -84.4492 -7.3916 -126.699c20.3838 2.29688 40.7979 4.28125 61.2461 5.89551c4.97266 109.496 13.5566 218.588 34.8711 326.356
c7.21387 36.4854 97.8623 39.2266 97.4141 0c-1.21777 -107.203 -9.67969 -213.976 -16.1885 -320.922c12.0215 0.182617 24.0469 0.291016 36.0771 0.243164c7.52246 -0.0302734 23.7246 -3.00586 23.7246 -13.5215c0 -10.4727 -15.8887 -13.5664 -23.7246 -13.5225
c-12.5605 0.0693359 -25.1123 -0.0351562 -37.6602 -0.235352c-0.682617 -11.96 -1.37012 -23.9248 -1.9707 -35.8896c-0.791992 -15.7363 -1.44434 -31.5205 -2.02734 -47.3359c16.8545 1.40527 33.7402 2.62305 50.6475 3.63672zM307.94 289.039
c0.365234 10.0762 0.755859 20.1533 1.16504 30.2256c-20.5186 -1.68359 -41.0107 -3.70703 -61.459 -6.11328c-0.657227 -13.1787 -1.30957 -26.3574 -1.98828 -39.54c-0.930664 -18.0518 -1.77051 -36.0947 -2.56641 -54.1416
c20.875 3.49414 41.7979 6.63965 62.7646 9.51953c0.634766 20.1182 1.36133 40.1582 2.08398 60.0498z" />
    <glyph glyph-name="dollar" unicode="$" horiz-adv-x="482" 
d="M424.459 119.01c33.958 -91.293 -48.0215 -159.335 -132.47 -161.219c1.65332 -27.7969 3.37207 -55.5938 5.21289 -83.3906c1.19238 -18.043 -45.3262 -18.5518 -46.9756 0c-2.66309 29.9336 -5.00781 59.9014 -7.16992 89.8867
c-29.4551 8.55762 -57.5264 25.4385 -74.4551 50.6338c-22.4414 33.4014 -33.0576 77.3311 -31.0391 117.158c0.914062 17.9775 45.8145 17.6855 45.5488 0c-0.713867 -47.2148 16.3721 -93.6201 56.6602 -119.246c-3.50195 55.3418 -6.19922 110.753 -8.14355 166.208
c-30.7988 21.9717 -62.1855 43.0596 -90.0527 68.9512c-70.4697 65.4746 -106.973 158.099 -85.4014 253.59c18.7256 82.8994 87.1719 155.24 175.245 147.97c0.983398 31.7998 2.11914 63.5869 3.45508 95.3477c0.726562 17.2988 44.2256 16.8467 43.6426 0
c-1.21777 -35.2236 -2.13574 -70.4385 -2.79688 -105.641c69.3252 -27.4443 102.509 -101.473 91.2842 -176.977c-2.72363 -18.3301 -48.2891 -17.0244 -46.0225 0c6.57422 49.3643 -3.59375 106.003 -45.8613 136.95c-1.42676 -109.861 -0.304688 -219.632 2.8623 -329.372
c19.2695 -16.3936 39.374 -31.752 59.8965 -47.2539c35.7158 -26.9746 70.6436 -60.75 86.5801 -103.597zM228.245 317.845c-1.32715 98.332 -0.484375 196.704 2.12207 294.932c-22.541 -3.80273 -40.3877 -24.3467 -51.373 -50.0381
c-36.0371 -84.2881 -8.74512 -178.631 49.251 -244.894zM289.56 -0.192383c23.1982 3.19336 42.2852 19.8916 42.6553 49.1807c0.443359 35.3105 -23.3428 66.2188 -49.5605 90.2393c1.98438 -46.4746 4.30762 -92.9453 6.90527 -139.42z" />
    <glyph glyph-name="percent" unicode="%" horiz-adv-x="649" 
d="M553.932 728.837c16.3506 -2.61523 56.499 -18.4785 42.168 -42.3291c-84.2832 -140.226 -167.966 -281.078 -243.926 -426.029c-37.6299 -71.8008 -74.2285 -144.028 -109.918 -216.812c-37.1514 -75.7646 -71.9102 -155.075 -116.471 -226.824
c-8.64062 -13.9141 -27.1406 -16.7773 -42.2158 -15.7109c-9.00195 0.634766 -36.1982 6.74316 -33.3613 21.54c15.1885 79.1846 47.5449 156.794 78.3398 231.001c31.1865 75.1465 65.8662 149.332 102.486 221.969c74.5381 147.861 155.458 292.203 248.639 429.166
c15.8457 23.29 47.9629 28.2373 74.2588 24.0303zM164.113 375.841c-32.1436 -0.730469 -63.5459 11.9297 -82.4326 38.3994c-20.3359 28.5059 -18.9873 62.9375 -13.5361 95.9561c1.10059 6.64844 5.20801 11.9873 11.0732 16.0469
c10.2939 40.1709 40.8926 73.6367 84.5615 81.3809c66.6406 11.8213 117.388 -39.1182 118.632 -104.371c1.26172 -66.0273 -51.5869 -125.898 -118.298 -127.412zM158.92 424.359c0.0351562 -0.147461 0.291992 -0.0908203 0.709961 0.113281
c-0.235352 -0.0478516 -0.474609 -0.0566406 -0.709961 -0.113281zM165.076 565.077c-13.5049 -8.05371 -24.0869 -18.8008 -31.4785 -31.2832c14.1094 -3.49805 24.5684 -11.3682 23.3984 -23.5938c-1.87988 -19.6348 -5.85645 -42.498 -0.740234 -61.8984
c1.88867 -7.16602 5.67773 -12.918 9.16309 -19.2793c0.078125 -0.0957031 0.173828 -0.178711 0.251953 -0.274414c3.74609 2.90234 7.72754 6.21777 8.11523 6.5918c6.2959 6.11328 11.1992 13.1221 15.3936 20.8008c8.10547 14.8408 12.3477 30.3467 13.918 47.1104
c1.50977 16.1201 1.06152 32.54 -5.23828 47.6895c-7.52246 18.0908 -15.2451 24.5957 -32.7832 14.1367zM487.912 158.957c54.2324 -15.624 84.7744 -70.418 66.3926 -124.385c-20.04 -58.8486 -89.8008 -93.5205 -148.963 -75.9697
c-25.791 7.65332 -47.6582 26.0742 -58.4004 50.9385c-14.084 32.6045 -6.37402 65.2314 0.178711 98.4541c2.1709 11.0078 11.543 18.2305 23.3428 21.998c23.6641 35.2891 76.9961 40.6191 117.449 28.9639zM482.643 39.2539
c11.8213 25.3604 9.51855 62.0723 -14.5586 80.2412c-11.9297 9.00586 -29.1807 9.86719 -42.3633 3.58008c6.36523 -5.25977 9.49805 -12.5166 6.80078 -21.666c-9.66309 -32.7568 -15.293 -67.9287 4.41602 -97.5576c5.63867 -8.47559 8.49707 -4.16797 17.5205 1.91895
c12.208 8.23633 22.002 20.2227 28.1846 33.4834z" />
    <glyph glyph-name="ampersand" unicode="&#x26;" horiz-adv-x="564" 
d="M471.151 211.241c39.6055 -21.9629 49.0859 -68.3584 39.8711 -109.904c-18.5391 -83.5 -98.502 -140.922 -169.629 -178.504c-8.70605 -4.59863 -17.8252 -8.83594 -27.2402 -12.6689c2.6582 -16.1719 5.52539 -32.3174 8.67578 -48.4199
c3.2373 -16.5459 -42.9336 -18.5557 -46.501 0c-2.19238 11.4033 -4.21582 22.8242 -6.16016 34.2578c-58.8535 -14.1709 -123.032 -10.8164 -172.949 23.4238c-84.832 58.1914 -37.9219 162.91 5.72949 231.914c35.0498 55.4072 79.9111 104.697 128.501 149.176
c-43.2646 11.9824 -84.2051 31.0605 -118.603 60.9287c-49.8555 43.2949 -68.3594 113.352 -29.1982 170.033c19.1172 27.6758 44.3516 47.2021 73.2324 63.8574c26.1611 15.0889 51.2959 28.8721 80.7988 36.5732c5.69043 1.48828 11.5684 2.81934 17.5596 3.98535
c1.66211 31.417 3.31934 62.7646 4.85938 94.0078c0.852539 17.3379 44.4131 16.7725 43.6426 0c-1.36621 -29.6982 -2.83691 -59.4883 -4.32031 -89.3477c38.4697 0.404297 76.7217 -9.66797 102.353 -39.6406c39.1914 -45.8311 14.2959 -98.1357 -29.5205 -128.844
c-14.1357 -9.90234 -55.7295 3.07129 -33.2188 18.9346c22.8242 16.0889 42.2422 43.251 34.3584 72.501c-7.60547 28.2109 -34.0146 45.3662 -62.1211 47.376c-4.44238 0.317383 -8.88477 0.260742 -13.3271 0.0429688
c-3.91992 -79.2803 -7.6748 -158.991 -9.4502 -238.729c21.7451 -6.38672 39.8359 -9.32324 63.4648 -14.4922c16.4502 -3.59375 38.3389 -9.05859 46.1611 -26.3096c6.9873 -15.4189 -3.83301 -29.3984 -16.998 -36.6553
c-33.4316 -18.4346 -64.4922 -39.2188 -93.3164 -62.7217c1.43164 -96.1348 7.32715 -191.943 20.915 -286.69c58.4658 23.6504 117.614 72.2793 144.715 128.922c13.4785 28.1709 20.3613 64.9609 6.07324 94.25c-18.4736 37.8691 -57.1826 31.1562 -87.7295 13.2002
c-13.7354 -8.0791 -54.2588 3.6377 -31.8701 18.165c38.3916 24.9043 89.4873 34.5283 131.242 11.3779zM218.319 404.539c8.80566 -6.30859 17.2549 -11.2891 25.8262 -15.5527c2.04883 70.7129 5.54297 141.374 9.23633 211.713
c-6.35645 -2.58887 -12.5254 -5.56934 -18.4336 -8.88477c-22.8457 -12.8135 -36.3115 -29.5898 -48.0938 -52.749c-11.5771 -22.75 -21.1533 -49.9424 -14.3535 -75.7168c6.51758 -24.7168 25.5918 -44.3301 45.8184 -58.8096zM138.695 -35.1504
c22.0283 -45.0137 79.332 -44.0957 125.838 -33.3926c-12.7607 86.041 -19.0605 172.965 -21.2705 260.237c-13.0918 -13.1484 -25.6611 -27.0098 -37.7002 -41.6543c-36.7725 -44.7344 -96.6787 -124.279 -66.8672 -185.19z" />
    <glyph glyph-name="quotesingle" unicode="'" horiz-adv-x="179" 
d="M97.2891 671.032c11.0117 -0.77832 31.2568 -5.88672 31.5049 -20.3398c0.226562 -12.9258 -3.34082 -25.2998 -6.52539 -37.834c-3.24121 -12.7656 -6.66504 -24.4736 -14.8711 -34.8984c-8.13574 -10.3379 -34.7324 -9.75098 -43.0254 -0.000976562
c-17.2295 20.249 -18.2217 54.96 -6.94922 78.2363c6.55664 13.54 26.8613 15.7549 39.8662 14.8369z" />
    <glyph glyph-name="quotesingle" unicode="&#x2019;" horiz-adv-x="179" 
d="M97.2891 671.032c11.0117 -0.77832 31.2568 -5.88672 31.5049 -20.3398c0.226562 -12.9258 -3.34082 -25.2998 -6.52539 -37.834c-3.24121 -12.7656 -6.66504 -24.4736 -14.8711 -34.8984c-8.13574 -10.3379 -34.7324 -9.75098 -43.0254 -0.000976562
c-17.2295 20.249 -18.2217 54.96 -6.94922 78.2363c6.55664 13.54 26.8613 15.7549 39.8662 14.8369z" />
    <glyph glyph-name="quotesingle" unicode="&#x2018;" horiz-adv-x="179" 
d="M97.2891 671.032c11.0117 -0.77832 31.2568 -5.88672 31.5049 -20.3398c0.226562 -12.9258 -3.34082 -25.2998 -6.52539 -37.834c-3.24121 -12.7656 -6.66504 -24.4736 -14.8711 -34.8984c-8.13574 -10.3379 -34.7324 -9.75098 -43.0254 -0.000976562
c-17.2295 20.249 -18.2217 54.96 -6.94922 78.2363c6.55664 13.54 26.8613 15.7549 39.8662 14.8369z" />
    <glyph glyph-name="parenleft" unicode="(" horiz-adv-x="496" 
d="M430.798 -142.247c10.1592 -3.72852 21.3271 -13.958 11.1592 -24.2607c-74.5986 -75.5557 -199.849 -61.6113 -279.059 -1.47461c-76.9824 58.4443 -106.041 152.856 -111.375 245.929c-5.92969 103.501 5.95215 209.104 27.1445 310.342
c10.6465 50.8564 24.5781 100.678 41.9072 149.663c16.6768 47.1455 36.2461 96.6875 64.4736 138.281c26.7832 39.4658 64.5654 74.8555 110.949 89.0352c31.3174 9.57129 76.1396 25.1816 101.727 -4.94727c14.1094 -16.6152 -26.7188 -22.7021 -36.8652 -12.2822
c-22.124 22.7324 -67.7119 -50.5479 -75.8301 -65.8887c-20.4961 -38.7266 -34.1709 -80.4111 -46.7275 -122.23c-46.4229 -154.645 -75.7207 -319.896 -67.0889 -481.968c3.74121 -70.2656 20.5479 -145.19 68.6504 -199.192
c37.5518 -42.1631 98.8193 -64.7568 148.384 -27.3662c11.7949 8.90137 28.4502 11.5293 42.5508 6.36035z" />
    <glyph glyph-name="parenright" unicode=")" horiz-adv-x="497" 
d="M424.396 352.377c18.291 -100.864 29.5195 -208.267 16.9238 -310.497c-11.4121 -92.6504 -52.6318 -180.876 -136.188 -228.856c-76.8701 -44.1436 -185.953 -45.4531 -251.045 20.4746c-10.2812 10.4072 0.852539 20.6016 11.1553 24.2559
c14.1621 5.02051 30.6904 2.58887 42.5547 -6.36035c57.335 -43.2559 126.595 -6.7793 162.275 45.1953c43.3125 63.0859 55.0508 138.485 55.7168 213.614c0.713867 80.751 -6.24707 162.484 -19.1123 242.174c-13.0566 80.877 -33.2441 160.322 -58.3701 238.254
c-11.7861 36.5508 -25.5127 74.0244 -46.0352 106.69c-8.59668 13.6875 -47.7363 70.5869 -67.0801 50.7168c-10.25 -10.5293 -50.8994 -4.25098 -36.8643 12.2822c28.4277 33.4834 89.3994 12.8086 122.183 -2.47168c48.3545 -22.541 84.1094 -66.1621 108.443 -112.363
c47.998 -91.1318 77.1309 -192.127 95.4434 -293.108z" />
    <glyph glyph-name="asterisk" unicode="*" horiz-adv-x="282" 
d="M231.573 500.595c0 -9.75488 -15.0996 -13.1719 -22.5303 -12.8369c-12.8955 0.561523 -25.8047 1.06641 -38.7139 1.39746c13.709 -12.1475 27.3574 -24.334 39.918 -37.7559c15.0146 -16.0498 -27.749 -24.6211 -38.5088 -12.8301
c-4.26367 4.67676 -8.66699 9.19727 -13.1484 13.6309c0.430664 -8.46191 0.866211 -16.9375 1.26172 -25.4521c0.818359 -17.5166 -42.002 -17.1514 -44.5947 -0.000976562c-0.722656 4.75586 -1.2793 9.55469 -1.83594 14.3535
c-6.2168 -7.04785 -12.4258 -14.1094 -18.6211 -21.21c-10.4111 -11.9297 -52.8701 -4.27637 -38.5078 12.8311c15.9062 18.9473 32.5176 37.5078 49.5898 55.6855c-10.6416 -0.648438 -21.2666 -1.58789 -31.874 -2.9668
c-19.5352 -2.54102 -36.999 16.9287 -10.5898 21.8975c11.1074 2.08887 22.2363 3.58105 33.3789 4.69531c-10.6074 12.1035 -21.1621 24.4639 -33.8096 33.457c-20.2354 14.3877 17.2158 25.7871 29.8506 17.0156c6.61328 -4.58984 12.5957 -9.85449 18.3252 -15.4014
c0.517578 10.7031 1.15234 21.3623 1.8916 31.9131c1.21777 17.3467 44.5947 16.7119 43.6416 0.000976562c-0.765625 -13.3828 -1.06152 -26.6787 -1.06152 -39.9316c10.1377 9.90234 20.3574 19.6875 30.6426 29.3027c10.1982 9.53223 48.916 2.56641 34.8105 -11.5996
c-13.9443 -14.001 -27.5928 -28.1758 -41.0713 -42.4814c9.66309 -0.230469 19.335 -0.522461 29.0195 -0.866211c7.14355 -0.256836 22.5371 -2.69727 22.5371 -12.8477z" />
    <glyph glyph-name="plus" unicode="+" horiz-adv-x="373" 
d="M299.966 308.112c7.375 -0.165039 23.2539 -2.85352 23.2539 -13.252c0 -10.1855 -15.5762 -13.4141 -23.251 -13.2529c-24.2559 0.504883 -48.4727 0.348633 -72.6631 -0.360352c-0.513672 -9.34082 -0.99707 -18.6865 -1.38867 -28.0273
c-1.37891 -32.8135 -2.61914 -65.7529 -5.31641 -98.4883c-2.62793 -31.8525 -5.08203 -62.2168 -19.8271 -91.0498c-10.7725 -21.0664 -57.6309 -20.3662 -68.6992 0c-16.1504 29.7207 -18.8828 62.0127 -21.1016 95.3311
c-2.08398 31.3125 -2.29688 62.8428 -1.89648 94.208c0.0869141 6.56055 0.165039 13.1348 0.248047 19.709c-9.96777 -1.12695 -19.9307 -2.33691 -29.8857 -3.68164c-7.63965 -1.03125 -25.748 -0.496094 -28.8936 9.34961
c-3.16309 9.91504 8.13574 15.3623 16.4062 16.4678c14.2402 1.90527 28.5068 3.53711 42.7822 5.03809c0.882812 48.7158 2.89258 97.5361 10.5938 145.582c6.95703 43.4033 112.824 45.3789 113.595 0c0.774414 -45.9404 -2.27539 -91.8721 -5.06445 -137.777
c23.6855 0.609375 47.3926 0.726562 71.1084 0.204102z" />
    <glyph glyph-name="comma" unicode="," horiz-adv-x="227" 
d="M84.1289 67.2305c12.1826 32.9746 106.068 23.4277 91.1846 -14.3281c-16.4678 -41.7715 -35.5508 -96.3477 -75.6738 -120.864c-11.1426 -6.80859 -40.2842 -8.1875 -46.4141 6.9834c-8.08398 20.001 0.808594 41.9727 7.21777 61.5029
c7.375 22.4893 15.4844 44.5039 23.6855 66.7061z" />
    <glyph glyph-name="hyphen" unicode="-" horiz-adv-x="360" 
d="M309.123 279.058c6.7002 -17.2334 -15.0635 -26.1963 -28.3682 -28.4805c-64.1738 -11.0117 -129.579 -16.2852 -194.527 -20.1484c-11.4424 -0.682617 -33.1357 4.35156 -35.9199 18.0781c-2.86719 14.123 15.0322 21.2363 26.1963 22.8721
c60.6846 8.91016 121.587 18.0029 182.654 23.8506c14.3096 1.37012 43.2471 1.10938 49.9648 -16.1719z" />
    <glyph glyph-name="period" unicode="." horiz-adv-x="191" 
d="M135.222 24.332c4.01562 -4.08984 7.6377 -11.8555 4.02246 -17.5244c-4.6123 -7.24414 -8.43652 -14.8271 -12.5176 -22.3623c-4.5166 -8.33594 -8.87207 -18.2471 -16.5947 -24.0254c-15.502 -11.6035 -43.8164 -13.2051 -55.9727 4.16797
c-10.4336 14.9102 1.23535 40.0791 8.13184 54.3105c7.9707 16.4463 33.8096 17.9209 49.085 15.8848c7.83105 -1.04004 18.1162 -4.6123 23.8457 -10.4512z" />
    <glyph glyph-name="slash" unicode="/" horiz-adv-x="669" 
d="M580.029 785.088c16.0156 -2.5625 47.2021 -15.2617 36.8428 -36.9854c-75.2949 -158.033 -161.897 -310.119 -240.808 -466.352c-39.4268 -78.0664 -78.1006 -156.546 -115.813 -235.452c-38.6738 -80.9199 -75.4072 -163.794 -121.765 -240.664
c-16.1367 -26.7617 -98.2969 -26.8057 -87.5117 13.752c22.4453 84.3926 59.4316 165.392 95.2559 244.828c35.7891 79.3584 72.8662 158.081 111.414 236.139c78.4189 158.791 158.643 316.533 257.492 463.733c13.7051 20.4092 42.0332 24.6553 64.8926 21.001z" />
    <glyph glyph-name="zero" unicode="0" horiz-adv-x="446" 
d="M351.16 58.0566c-35.9463 -51.7217 -103.047 -73.998 -163.705 -55.5068c-107.369 32.7393 -130.307 167.553 -135.897 263.331c-3.40625 58.3486 -1.02637 116.976 5.23828 175.062c3.32422 30.8076 8.05762 60.998 15.0713 91.1836
c6.38281 27.4756 12.6738 56.4775 27.249 80.8682c11.9688 20.0312 60.541 27.6709 82.5303 11.6729c19.8613 11.752 44.5693 16.2686 67.4629 12.418c54.2979 -9.12793 90.4873 -44.9307 112.646 -93.7637c22.6113 -49.8291 27.8672 -107.325 31.5654 -161.262
c3.97656 -58.0312 3.50195 -116.676 -1.22754 -174.667c-4.01172 -49.2207 -12.0693 -107.809 -40.9326 -149.337zM167.142 298.742c-0.143555 -44.8086 1.83594 -89.96 10.9678 -133.938c6.93555 -33.3877 18.9043 -72.2188 44.8564 -95.8779
c0.0302734 -0.0302734 0.0654297 -0.0566406 0.100586 -0.0869141c8.22266 10.7725 14.4834 21.8496 19.9395 35.0068c16.1719 38.9961 22.2324 81.3945 26.4307 123.132c8.70605 86.5674 15.458 178.147 7.94824 265.016
c-3.08496 35.7285 -8.53613 74.4893 -28.3711 105.224c-9.14062 14.1709 -16.7285 18.8525 -33.4746 11.374c-9.62793 -4.29883 -17.1592 -11.2822 -22.7627 -19.7012c-0.666016 -20.3447 -4.8125 -40.915 -7.50098 -60.8809
c-3.52832 -26.209 -7.12598 -52.457 -10.1455 -78.7314c-5.74707 -50.0205 -7.82715 -100.211 -7.98828 -150.536z" />
    <glyph glyph-name="one" unicode="1" horiz-adv-x="333" 
d="M194.309 -28.7637c-10.6338 0 -29.4941 2.3291 -43.2344 9.28613c-11.4512 -0.787109 -22.8936 -1.60938 -34.3359 -2.47559c-22.502 -1.70508 -31.7217 23.6777 -6.11719 25.7656c7.43555 0.604492 14.8711 1.16602 22.3066 1.74023
c-6.76953 28.0801 -6.61328 57.2822 -7.14453 86.1064c-0.526367 28.4932 -1.04883 56.9863 -1.5752 85.4756c-1.0791 58.4268 -1.56641 116.793 -1.49219 175.229c0.0742188 58.0176 1.46191 116.161 4.12012 174.122c1.11816 24.4736 3.46289 48.6943 2.79297 73.1201
c-0.0175781 0.182617 -0.0869141 0.356445 -0.113281 0.539062c-4.125 -3.92871 -9.06738 -7.63574 -12.874 -11.6953c-8.4668 -9.02344 -16.5898 -18.3906 -24.8652 -27.5879c-10.498 -11.6729 -53.0967 -5.03809 -38.917 12.9658
c17.3594 22.0371 33.4746 47.9502 61.9678 56.2998c25.3652 7.43066 53.8672 0.708984 73.75 -16.3896c49.3291 -42.4199 52.2832 -124.924 57.8916 -184.843c6.76074 -72.1973 8.30566 -145.099 9.99805 -217.569c0.800781 -34.1924 1.59668 -68.3848 2.39746 -102.573
c0.739258 -31.7002 2.97559 -63.8047 -2.01465 -95.0908c0.822266 0.0439453 1.64062 0.0957031 2.46289 0.139648c7.50977 0.391602 23.7256 -3.31543 23.7256 -13.5225c0 -10.751 -15.8936 -13.1611 -23.7246 -13.5225
c-4.27246 -0.195312 -8.54883 -0.430664 -12.8213 -0.639648c-12.8525 -11.5166 -38.9355 -14.8799 -52.1836 -14.8799z" />
    <glyph glyph-name="two" unicode="2" horiz-adv-x="356" 
d="M172.229 -31.418c-36.6855 -9.17578 -78.1367 -3.13184 -102.719 28.0635c-45.9746 58.3613 0.265625 129.457 26.6709 185.104c29.8984 63.0039 57.1992 126.369 77.8828 193.049c19.2656 62.0947 30.708 128.601 34.9111 193.44
c0.800781 12.3604 2.49316 32.082 -10.0635 38.5693c-14.084 7.2793 -31.0264 -7.33887 -40.2061 -17.2236c-18.0518 -19.4395 -44.8262 -60.6025 -33.9229 -87.7646c6.63086 -16.5244 -33.0742 -19.5479 -39.3311 -6.18262
c-15.0322 32.1221 7.44824 69.8438 26.5088 95.6006c18.3125 24.7471 44.874 41.2842 76.0518 42.9678c64.6523 3.48926 102.387 -54.9941 112.502 -111.715c13.248 -74.2988 2.00586 -150.12 -20.3008 -221.586c-21.8018 -69.8428 -53.001 -135.301 -85.5664 -200.619
c-8.78418 -17.6162 -16.2109 -35.4238 -22.6934 -54.0059c-3.82031 -10.96 -10.2939 -31.4561 -5.24707 -42.7246c2.01465 -0.212891 6.00391 -0.177734 6.91309 -0.0693359c9.35449 1.12207 18.6787 2.14844 27.9414 3.93262
c17.4775 3.36328 34.3672 8.8584 51.0527 14.9883c18.7734 6.90039 54.5283 -12.0391 24.6689 -24.0557c-34.1924 -13.7617 -69.4727 -20.8711 -105.054 -29.7686z" />
    <glyph glyph-name="three" unicode="3" horiz-adv-x="395" 
d="M209.695 -33.0488c-43.9648 -7.43945 -90.7119 0.213867 -122.351 33.4668c-25.7871 27.1006 -37.7734 64.8223 -31.3564 101.678c3.07617 17.6768 47.2666 16.8506 45.0693 0c-4.64258 -35.6289 11.3291 -77.9443 49.0029 -88.3691
c30.1201 -8.33594 48.4717 10.1641 60.1143 36.9434c24.2686 55.8164 8.04883 122.692 -23.4375 171.756c-15.1318 23.5859 -36.7334 44.7002 -58.9307 61.6641c-21.9932 16.8066 -71.4004 33.2959 -61.4854 68.7285c4.89453 17.4902 22.459 31.0645 33.8145 44.6953
c9.36719 11.2383 17.6289 23.0986 25.5127 35.4111c17.9814 28.0889 31.8301 58.4619 42.5117 90.0527c6.92676 20.4795 20.9668 69.8047 -8.98438 78.3457c-32.9053 9.37988 -59.1191 -31.165 -68.4648 -56.4951c-5.26465 -14.2754 -45.4355 -11.2646 -40.249 6.3252
c12.4346 42.1855 45.9961 73.1279 90.4912 77.3311c41.5459 3.9248 89.1562 -17.2158 110.214 -54.1494c21.5977 -37.874 14.1582 -85.167 -0.177734 -123.897c-7.28711 -19.6914 -16.7148 -38.1992 -28.3535 -55.6719
c-6.9834 -10.4902 -14.5234 -20.7148 -22.2852 -30.6387c-1.54883 -1.98438 -7.54004 -11.0996 -12.3994 -16.8125c0.208984 -0.130859 0.426758 -0.256836 0.635742 -0.387695c3.88086 -2.41504 7.73535 -4.87793 11.542 -7.40527
c9.25 -6.13477 18.2256 -12.665 27.1748 -19.2217c16.4717 -12.0693 32.3867 -24.7695 46.7832 -39.292c31.4346 -31.7168 55.1504 -68.79 65.6484 -112.39c10.3633 -43.0508 7.25293 -87.9639 -17.4287 -125.898c-25.8613 -39.7402 -65.4707 -67.7939 -112.611 -75.7686z
" />
    <glyph glyph-name="four" unicode="4" horiz-adv-x="363" 
d="M190.984 205.383c-29.5723 -7.52246 -60.75 -9.10645 -88.8564 -0.788086c-47.7412 14.1357 -56.0166 60.8672 -50.7393 104.597c6.9834 57.8564 29.7773 113.551 54.1807 165.999c25.1953 54.1494 53.584 107.786 88.2725 156.484
c1.81445 2.5498 5.2041 4.44238 9.29395 5.68262c22.8369 30.9385 104.623 28.5498 108.143 -12.3516c4.67285 -54.2803 0.300781 -109.218 -0.495117 -163.599c-0.77832 -53.123 -1.17383 -106.25 -0.647461 -159.373c0.539062 -54.5459 1.9707 -109.07 2.62793 -163.611
c0.308594 -25.874 0.425781 -51.5654 -0.631836 -77.4307c-1.13965 -27.8271 -1.28711 -52.6523 -21.0615 -74.1064c-13.1875 -14.3096 -44.2344 -12.2168 -57.8174 0c-22.9766 20.666 -25.6699 49.3291 -30.1777 78.4053
c-3.98926 25.752 -6.39551 51.4609 -8.39258 77.4355c-1.60547 20.8799 -2.74512 41.7637 -3.69824 62.6562zM105.77 247.96c13.9268 -29.6768 53.1309 -23.207 83.9609 -11.3818c-0.739258 21.8018 -1.30078 43.6162 -1.68848 65.457
c-0.974609 54.5498 -1.20996 109.126 -0.183594 163.681c0.483398 25.5654 0.623047 51.3311 1.67188 77.0312c-28.3105 -54.0371 -54.1104 -109.274 -73.1758 -167.553c-12.0039 -36.6904 -28.1973 -89.709 -10.585 -127.234z" />
    <glyph glyph-name="five" unicode="5" horiz-adv-x="430" 
d="M211.282 -11.8389c-42.3027 -1.11816 -88.7295 12.3926 -117.428 45.0586c-23.7773 27.0576 -35.8984 62.9209 -40.8018 98.1016c-10.751 77.083 6.19531 173.361 61.9678 230.909c12.791 13.1963 79.4062 11.2686 64.2393 -15.4365
c-20.3184 -35.7725 -39.2529 -70.1562 -46.8672 -111.153c-7.07031 -38.082 -8.24023 -79.7012 0.996094 -117.558c6.84766 -28.0674 22.041 -61.7559 51.4004 -72.4375c19.6611 -7.15234 34.4316 10.999 44.3125 26.2969c19.043 29.4854 24.9121 65.5752 27.0352 99.9512
c2.11035 34.1709 1.70117 69.6689 -5.92188 103.196c-6.93945 30.5293 -20.4873 62.5684 -40.7578 86.6631c-23.2158 27.5879 -52.7793 46.292 -80.6504 68.4678c-29.3984 23.3896 -42.3896 53.2705 -30.1592 90.0654c8.53223 25.6611 22.7422 53.9023 40.4541 77.2578
c-11.9209 1.72754 -23.7119 3.95508 -35.2637 6.96582c-20.7529 5.41211 -21.1318 28.1885 0 33.4268c71.1611 17.6338 149.715 8.39746 222.408 9.47168c14.7139 0.22168 48.2588 -6.29102 47.7588 -27.2188c-0.5 -20.8965 -31.6211 -27.623 -47.7578 -27.2227
c-38.2607 0.953125 -78.3096 -0.996094 -118.011 -0.369141c-3.58984 -16.2852 -8.40625 -32.4219 -12.3955 -48.4678c-5.44727 -21.9062 -15.0322 -48.5117 0.735352 -68.1465c12.5264 -15.6016 34.4326 -24.6074 50.7129 -35.5625
c20.6143 -13.875 40.9805 -28.8848 58.5225 -46.5664c112.567 -113.473 108.513 -400.342 -94.5293 -405.693z" />
    <glyph glyph-name="six" unicode="6" horiz-adv-x="365" 
d="M314.884 89.8779c6.84766 -71.5488 -60.4385 -111.523 -124.282 -110.566c-98.7061 1.4834 -142.579 97.083 -140.53 184.455c2.00098 85.2627 28.084 172.365 57.4258 251.793c14.3232 38.7744 32.5664 77.0049 52.7275 113.09
c11.6035 20.7705 24.3291 41.3496 38.2861 60.6152c13.6699 18.8652 29.0322 32.6924 45.9824 48.4727c9.23633 8.60156 24.4424 10.4727 36.4678 8.45801c6.63477 -1.10938 26.1523 -7.13965 23.707 -17.7471c-4.33301 -18.8086 -6.08203 -35.5723 -13.2871 -53.7764
c-7.36621 -18.6035 -15.3281 -36.9854 -22.7461 -55.585c-15.1104 -37.8906 -29.0371 -75.8467 -41.7549 -114.607c-24.5039 -74.6729 -46.4365 -154.019 -50.9092 -232.812c-0.0566406 -0.987305 -0.108398 -1.97949 -0.160156 -2.97168
c58.6836 17.1816 132.63 -11.4727 139.073 -78.8184zM174.77 136.884c-0.125977 -28.9502 2.59277 -58.0479 13.2568 -84.9658c8.01367 -20.2178 25.2861 -44.0381 49.3506 -30.0898c61.4678 35.6289 18.6777 156.741 -50.4561 118.837
c-3.37598 -1.85352 -7.65723 -3.17188 -12.1514 -3.78125z" />
    <glyph glyph-name="seven" unicode="7" horiz-adv-x="373" 
d="M216.355 15.6357c-11.4336 -39.4619 -127.966 -36.749 -125.125 9.65234c3.70703 60.4238 18.3428 120.699 28.9111 180.218c5.39453 30.3682 11.2119 60.6582 16.8418 90.9834c-6.05176 -0.12207 -12.1084 -0.239258 -18.1602 -0.287109
c-20.3965 -0.152344 -29.8242 20.7314 -5.67285 23.8984c9.53223 1.24902 19.1172 2.25391 28.7236 3.1543c3.25 18.0859 6.38281 36.1895 9.22852 54.3457c9.01465 57.5176 18.6035 114.904 20.4785 173.183c0.439453 13.6611 8.44043 50.7861 -9.18457 56.2764
c-22.2676 6.93066 -56.5479 -17.46 -72.0889 -30.3516c-10.9551 -9.08398 -52.4053 -2.2793 -36.8643 12.2832c40.5752 38.0176 109.562 65.8848 164.678 46.4189c67.2412 -23.7422 66.375 -119.155 64.6953 -177.564
c-1.24414 -43.2773 -5.56445 -86.3281 -11.2461 -129.223c9.30176 0.104492 18.5908 0.196289 27.8447 0.295898c7.44434 0.078125 23.4854 -3.05859 23.4854 -13.3877c0 -10.4551 -15.7285 -13.3047 -23.4863 -13.3877
c-10.5371 -0.117188 -21.0742 -0.386719 -31.6113 -0.712891c-3.22363 -22.2285 -6.7002 -44.4219 -10.2764 -66.5801c-11.7598 -72.8369 -20.6133 -148.258 -41.1709 -219.215z" />
    <glyph glyph-name="eight" unicode="8" horiz-adv-x="384" 
d="M244.336 -19.5615c-40.9102 -17.96 -92.8271 -6.60547 -122.3 26.9785c-34.2881 39.0791 -35.4541 93.3594 -25.252 141.806c5.45996 25.9131 13.1611 51.6699 24.4209 75.6816c3.0459 6.5 5.95703 12.2998 9.35938 17.1553
c-14.4922 19.4482 -28.7061 39.0703 -41.1973 59.8281c-26.166 43.4902 -45.1309 92.2754 -37.7695 143.828c6.92188 48.4414 29.7246 93.6152 64.7002 127.899c32.6748 32.0352 86.5771 54.0889 132.608 47.7451c46.3838 -6.39551 75.9258 -45.1475 82.8438 -89.4258
c7.90137 -50.5781 -6.04688 -106.237 -17.6807 -155.283c-11.4639 -48.3506 -30.3896 -93.2988 -47.875 -139.443c3.97656 -6.33008 7.875 -12.7041 11.625 -19.165c22.9199 -39.4707 48.3721 -95.8047 38.4736 -142.536
c-8.21387 -38.7783 -34.7666 -78.7441 -71.957 -95.0684zM168.702 499.281c-11.2773 -49.1113 3.83887 -97.5273 24.3438 -141.884c9.96289 -21.5586 22.1318 -41.8291 34.9492 -61.7256c17.1904 37.6084 32.7139 76.3174 44.3564 115.109
c13.709 45.6748 34.2188 152.404 -23.7471 178.078c-40.5928 17.9814 -73.3018 -60.8242 -79.9023 -89.5781zM191.468 0.759766c31.2383 -8.78418 44.2725 17.0625 42.2715 43.624c-3.46777 45.957 -29.6416 92.5059 -54.3975 130.201
c-6.4043 9.75488 -13.1484 19.2871 -20.0137 28.7324c-0.356445 -1.02246 -0.708984 -2.00977 -1.06152 -2.93652c-5.89062 -15.4277 -10.7852 -31.3125 -14.3574 -47.4404c-6.72656 -30.3594 -10.3203 -63.7773 -1.28809 -94.0371
c7.08301 -23.7246 23.377 -50.9824 48.8467 -58.1436z" />
    <glyph glyph-name="nine" unicode="9" horiz-adv-x="471" 
d="M228.322 413.176c-20.6484 -20.0918 -49.793 -35.0459 -79.0176 -35.6025c-33.9404 -0.652344 -75.3164 12.7441 -91.3145 45.0918c-29.6416 59.9453 29.3857 135.793 75.1211 170.26c50.5 38.0605 124.394 48.7852 177.408 10.8379
c16.3984 1.63184 34.9414 -4.22461 46.8145 -14.9492c20.2051 -18.2471 35.5674 -50.5996 43.9727 -76.0078c8.25781 -24.9648 13.2051 -50.0947 16.251 -76.1777c6.54395 -56.0293 2.17578 -113.312 -3.78027 -169.188
c-6.11719 -57.3867 -9.99805 -115.718 -20.3311 -172.518c-8.72754 -47.9678 -27.501 -106.777 -72.1924 -133.156c-47.0801 -27.7881 -101.104 -11.7861 -130.397 32.1436c-25.043 37.5557 -31.4775 83.2734 -32.0518 127.447c-0.230469 17.8037 45.1523 17.8691 45.5479 0
c0.791992 -35.5459 5.11621 -106.808 44.3213 -125.237c24.5645 20.8359 19.9443 80.3848 21.8105 106.772c3.90234 55.085 9.97168 109.657 16.1152 164.547c6.30859 56.334 11.4082 112.48 12.1133 169.188c0.347656 28.0107 -1.5752 56.0039 -1.78809 83.9883
c-0.0214844 2.39746 0.0224609 4.79492 0.0576172 7.19629c-5.9082 -12.3564 -11.6074 -24.8174 -17.5205 -37.1738c-13.292 -27.7666 -28.8506 -55.7773 -51.1396 -77.4619zM183.449 512.36c-13.7529 -22.6367 -24.8916 -45.4697 -20.8369 -72.7139
c1.04883 -7.03516 3.19824 -14.4619 5.64355 -21.4141c1.08301 0.291992 2.47949 0.543945 4.23242 0.739258c4.25977 3.0625 8.4668 5.14648 12.6699 8.5791c38.0088 31.0166 54.4502 85.04 75.9258 127.36c5.26465 10.3809 10.6641 22.0234 18.2168 31.3516
c-39.918 17.834 -78.2227 -44.8828 -95.8516 -73.9023z" />
    <glyph glyph-name="colon" unicode=":" horiz-adv-x="190" 
d="M136.683 406.522c5.77832 -20.9531 2.88086 -42.4531 -3.97168 -62.7363c-4.10742 -12.1689 -24.9785 -13.8096 -35.168 -13.0869c-8.43164 0.600586 -29.0674 5.38184 -27.793 17.9473c1.94434 19.1221 3.72852 39.3877 9.13672 57.874
c2.1709 7.41406 14.5488 11.0732 20.9316 11.9307c0.661133 0.0917969 1.32715 0.178711 1.98828 0.270508c4.75098 0.634766 9.24121 0.334961 13.9443 -0.269531c6.27344 -0.804688 18.8955 -4.55469 20.9316 -11.9297zM104.644 158.007
c10.4111 -2.37109 20.6045 -5.79395 23.0889 -17.2842c4.0293 -18.6826 1.94531 -38.6094 -0.608398 -57.418c-4.65137 -34.2275 -87.4473 -26.9707 -76.0479 5.86914c6.43066 18.5127 9.43262 37.582 14.8799 56.3164c2.36719 8.13184 15.2109 11.0986 21.9678 12.5166
c0.735352 0.152344 1.4707 0.304688 2.20605 0.460938c4.52441 0.953125 9.98926 0.570312 14.5137 -0.460938z" />
    <glyph glyph-name="semicolon" unicode=";" horiz-adv-x="257" 
d="M206.673 428.768c1.22266 -7.91016 -0.999023 -16.4424 -1.96973 -24.3564c-1.00977 -8.21875 -2.18848 -16.3984 -3.01953 -24.6387c-1.95801 -19.3955 -27.4189 -24.1074 -42.999 -24.5078c-9.72363 -0.248047 -21.8975 2.1709 -30.4033 7.17871
c-5.18652 3.05469 -13.4883 10.0898 -12.5967 17.3291c1.21387 9.85059 2.69336 19.5615 4.99902 29.2158c2.08398 8.73242 3.56348 18.1777 8.54102 25.7529c9.24121 14.0615 27.5146 17.3027 43.2598 16.0977c13.7793 -1.05273 31.752 -6.29102 34.1885 -22.0713z
M142.14 148.063c10.0332 8.09277 35.7129 11.0732 42.4961 -3.16699c15.1455 -31.8262 -1.79688 -75.9297 -10.2588 -108.147c-10.124 -38.5439 -21.4531 -76.583 -33.4834 -114.569c-10.25 -32.3564 -101.821 -24.9258 -89.8086 14.1143
c11.3604 36.9297 23.5205 73.4023 36.4033 109.831c12.335 34.8799 24.8916 77.9395 54.6514 101.938z" />
    <glyph glyph-name="less" unicode="&#x3c;" horiz-adv-x="401" 
d="M310.521 264.104c16.9639 -2.10547 48.3027 -15.8564 38.3477 -38.4893c-10.1201 -22.9941 -46.7627 -24.4033 -67.5293 -21.8535c-47.6631 5.85156 -95.3916 11.7949 -142.25 22.5586c-34.9502 8.02734 -105.154 28.9111 -85.7588 79.7236
c14.3623 37.626 71.5664 59.9414 105.307 75.3994c43.4902 19.9268 87.4199 37.4521 134.326 47.4287c11.834 2.51465 57.665 -8.29688 36.7334 -27.2402c-46.9932 -42.5381 -110.858 -58.0791 -159.822 -97.502c-2.27148 -1.82715 -9.0498 -6.42188 -10.0195 -9.36328
c-0.147461 -0.430664 1.11816 -5.46484 0.299805 -5.85254c3.75 -1.98828 13.5918 -3.27637 16.4678 -3.9375c9.61914 -2.21484 19.3428 -4.04688 29.0537 -5.82227c34.7451 -6.35254 69.8076 -10.6992 104.845 -15.0498z" />
    <glyph glyph-name="equal" unicode="=" horiz-adv-x="343" 
d="M100.44 312.036c-13.3564 -1.08301 -40.1533 -1.16797 -46.4531 15.0303c-6.34766 16.3242 14.1484 23.8984 26.374 26.4785c52.875 11.1514 112.229 17.7432 165.125 4.1123c9.90723 -2.55371 21.4062 -11.4727 19.0527 -22.6631
c-2.42383 -11.5293 -18.0693 -17.7207 -28.585 -18.9082c-44.791 -5.05957 -90.4609 -0.395508 -135.514 -4.0498zM248.55 286.147c13.8271 -0.208984 45.3779 -5.62207 44.9033 -25.6006c-0.487305 -20.4619 -29.7158 -24.7734 -44.9004 -25.5918
c-30.8857 -1.66211 -61.7803 -3.04102 -92.6885 -4.21973c-30.6641 -1.16602 -61.1631 -3.51953 -91.1924 4.04199c-14.832 3.7334 -20.9531 19.1699 -6.24707 27.6318c26.3916 15.1797 59.8145 16.7725 89.5088 19.5918c33.4746 3.18066 66.9932 4.65527 100.616 4.14648z
" />
    <glyph glyph-name="greater" unicode="&#x3e;" horiz-adv-x="404" 
d="M350.256 292.153c19.4824 -43.2861 -52.7295 -59.7422 -80.1309 -67.9824c-44.6523 -13.4307 -89.5566 -22.6064 -135.14 -31.917c-16.916 -3.4541 -53.3799 -0.0605469 -61.0898 19.7705c-8.31836 21.4014 18.5742 31.5303 34.6855 34.8193
c31.5039 6.43945 62.8857 15.3936 94.0283 23.4951c15.9238 4.1377 31.7305 8.70117 47.6328 12.9082c0.935547 0.239258 1.86621 0.487305 2.79688 0.730469c-0.078125 0.0996094 -0.15625 0.173828 -0.230469 0.27832c-2.76758 1.76172 -5.62207 3.3584 -8.56738 4.78516
c-58.8486 30.3945 -123.68 50.2256 -183.921 77.8926c-13.3564 6.13477 -13.1133 19.8184 -2.91504 27.9062c13.165 10.4414 32.8174 9.55371 48.1016 5.47266c47.7021 -12.7344 94.0166 -29.3584 140.052 -47.1875c32.4219 -12.5566 88.7861 -25.626 104.697 -60.9717z" />
    <glyph glyph-name="question" unicode="?" horiz-adv-x="446" 
d="M356.818 666.699c34.8018 -27.0098 41.0771 -66.8945 38.6582 -108.545c-5.37305 -92.7627 -42.2637 -180.87 -64.9092 -270.131c-24.2773 -95.709 -29.9639 -193.862 -47.2842 -290.715c-4.95508 -27.71 -38.082 -35.6279 -62.5078 -35.6279
c-19.7051 0 -63.7607 8.07031 -62.5078 35.6279c4.12891 90.8271 20.1133 181.984 44.2861 269.604c20.501 74.3242 52.3486 145.181 78.8711 217.447c13.1914 35.9551 27.3574 73.6895 34.541 111.38c6.38672 33.5059 -3.5459 68.4863 -41.0625 75.2344
c-65.0098 11.6992 -126.878 -45.8271 -155.502 -98.1406c-16.5371 -30.2246 -27.5186 -64.9004 -22.998 -99.6367c3.95898 -30.4512 24.1641 -65.2012 56.4248 -71.8447c29.1377 -6.00391 10.2031 -28.9629 -11.8555 -24.5117
c-38.4307 7.75781 -70.6309 32.9834 -83.9316 70.6094c-15.167 42.9121 -4.03809 90.3398 16.3457 129.558c33.8662 65.1445 98.0928 115.23 172.491 121.474c39.5576 3.31543 79.3672 -7.27832 110.94 -31.7822zM256.365 -88.5244
c4.5293 -2.66699 11.4453 -8.59082 10.7793 -14.8389c-1.74512 -16.4326 -2.78516 -32.7959 -5.71289 -49.0723c-3.04102 -16.8721 -22.8105 -21.0137 -37.5244 -21.3877c-12.0732 -0.308594 -37.9434 5.02148 -37.5254 21.3887
c0.426758 16.7246 3.67285 32.7402 7.14062 49.0732c3.50684 16.5068 21.9365 20.6055 36.8115 20.9844c8.32715 0.208984 18.752 -1.85742 26.0312 -6.14746z" />
    <glyph glyph-name="at" unicode="@" horiz-adv-x="778" 
d="M657.385 617.544c55.8555 -62.0596 72.3252 -146.075 70.7461 -227.413c-1.73633 -89.835 -24.9043 -186.971 -71.9668 -264.123c-21.5889 -35.3848 -49.4639 -65.2793 -93.2158 -68.2549c-43.5293 -2.95898 -97.209 15.6758 -122.505 52.3223
c-19.626 28.4414 -23.3594 63.9746 -22.3848 98.8984c-6.88281 -11.582 -14.4658 -22.8203 -23.1279 -33.5361c-18.6035 -23.0156 -41.3145 -47.5762 -70.4473 -56.1387c-44.4473 -13.0615 -93.9248 4.67676 -118.067 44.2598
c-38.2959 62.7988 -3.97656 143.602 23.5205 203.429c28.8584 62.7949 78.7969 125.429 151.921 134.161c28.5586 3.41113 61.4414 -6.72168 80.6631 -28.9189c9.29785 -10.7373 14.5801 -23.1367 17.4951 -36.2627c24.8516 3.85938 56.416 -4.93359 58.2256 -25.3428
c4.50781 -50.8516 0.357422 -102.187 -0.643555 -153.169c-0.874023 -44.582 -3.1543 -90.4434 10.9463 -133.312c2.66309 -8.09668 7.2832 -30.873 16.2852 -33.6836c15.6279 -4.87695 38.7178 33.2363 44.5869 42.8994c22.75 37.4385 40.3711 79.8584 49.1426 122.844
c14.4795 70.9521 16.2373 149.201 1.61035 220.258c-13.8525 67.2891 -43.4727 135.374 -106.546 169.036c-130.841 69.8213 -291.054 -5.42578 -370.19 -117.642c-88.2734 -125.172 -114.791 -314.253 -44.3125 -453.356
c33.0967 -65.3223 89.3652 -118.084 161.536 -135.953c71.9443 -17.8164 144.759 1.8623 209.611 33.8447c12.0078 5.92188 29.8115 7.61914 41.6279 0.000976562c10.0508 -6.48242 11.1602 -17.4766 0 -23.7285c-84.749 -47.4453 -193.271 -59.8926 -286.434 -31.791
c-90.8447 27.3965 -159.018 100.92 -190.261 189.263c-61.0156 172.526 -8.6582 386.659 129.097 507.759c63.5088 55.8252 145.282 93.3154 230.306 96.3916c86.0801 3.11523 165.173 -28.7285 222.781 -92.7412zM371.093 221.829
c32.2041 49.207 46.5645 108.015 68.3184 162.399c-0.108398 18.8564 0.191406 38.8135 -6.94434 56.6211c-2.54102 6.34375 -5.83008 12.8135 -10.459 17.8818c-2.10156 2.61914 -4.58105 4.78613 -7.43945 6.49609
c-0.370117 0.226562 -0.666016 0.414062 -0.970703 0.601562c-20.627 -5.58594 -36.3506 -37.0547 -45.6875 -53.6143c-13.9795 -24.791 -23.4424 -52.1484 -32.4961 -79.041c-9.9502 -29.5596 -18.7041 -59.4717 -20.375 -90.8105
c-0.839844 -15.7588 0.700195 -30.8643 4.05859 -46.2266c1.35742 -6.19141 5.3252 -13.7402 7.95312 -20.7666c5.33887 3.54199 10.9727 7.23145 12.2822 8.40625c12.2559 10.9902 22.7715 24.3125 31.7598 38.0527z" />
    <glyph glyph-name="A" unicode="A" horiz-adv-x="716" 
d="M737.709 209.424c7.35742 0.483398 23.248 -3.32227 23.248 -13.251c0 -10.6338 -15.5801 -12.7529 -23.251 -13.2529c-47.2578 -3.08008 -94.4336 -2.87109 -141.553 -0.813477c-0.0175781 -0.739258 -0.0351562 -1.4834 -0.0566406 -2.22266
c46.21 -88.4863 86.999 -182.119 111.703 -278.646c13.2051 -51.5918 21.1016 -105.002 15.4111 -158.265c-4.12012 -38.5957 -10.8027 -89.0342 -54.998 -100.22c-42.6338 -10.7939 -84.4668 20.4492 -111.289 50.2041c-30.4121 33.7363 -48.3066 74.8516 -61.8945 117.672
c-29.542 93.085 -36.4033 191.761 -34.6582 288.857c0.552734 30.7598 1.90137 61.498 3.66309 92.2236c-44.6045 4.18555 -89.1699 8.92773 -133.718 13.0869c-26.7227 2.49707 -53.8232 5.21582 -81.0195 7.26465c-38.8828 -142.236 -74.1631 -285.395 -114.138 -427.387
c-3.74609 -13.3174 -44.126 -10.8984 -40.9932 3.16309c31.835 142.963 68.125 285.564 108.2 426.913c-24.8906 0.878906 -49.7207 0.756836 -74.2812 -1.0918c-30.2812 -2.28027 -61.5586 -8.79785 -87.124 -26.0186
c-11.6035 -7.81445 -22.3193 -17.9824 -29.6416 -29.9814c-5.27734 -8.65332 -17.6641 -30.6992 -8.28418 -40.0664c15.2061 -15.1885 -26.1914 -21.8193 -36.8643 -12.2822c-21.0273 18.791 -5.1123 51.9219 8.82324 70.1299
c18.3477 23.9727 45.2568 39.7266 73.3799 49.6592c50.7041 17.9033 106.829 18.0254 161.218 15.002c20.4482 71.2441 41.8408 142.157 64.1211 212.614c30.1729 95.4082 61.251 191.452 106.151 281.14c17.6729 35.3066 37.0908 77.9355 78.0576 90.4697
c38.709 11.8477 73.0625 -6.62988 91.375 -40.666c22.1719 -41.1973 30.0732 -86.6582 37.7354 -132.468c7.91016 -47.2979 12.6045 -95.2393 14.1885 -143.159c3.18066 -96.1875 -0.678711 -192.432 -3.88965 -288.571
c-0.12207 -3.62402 -0.226562 -7.25293 -0.34375 -10.8818c46.8184 -2.04492 93.707 -2.25391 140.722 0.84375zM260.32 236.77c68.499 -4.62891 136.879 -12.2891 205.316 -18.6807c10.0986 154.845 29.9209 309.397 23.7119 464.698
c-0.996094 24.8818 -4.75977 49.8115 -2.70605 74.6455c0.770508 9.32812 1.15332 18.8955 -1.35254 28.0449c-2.23633 8.1709 -3.89844 15.0664 -12.1123 12.3252c-21.1143 -7.05273 -35.7803 -45.8877 -44.917 -63.6953
c-10.5596 -20.5791 -20.3359 -41.5586 -29.5205 -62.7861c-40.1357 -92.7676 -70.1865 -190.008 -99.7373 -286.556c-15.0146 -49.0508 -29.1768 -98.3145 -42.8467 -147.709c1.38379 -0.0957031 2.78516 -0.195312 4.16406 -0.287109zM655.24 -71.1514
c-16.8027 53.2275 -37.4463 105.396 -60.8096 156.3c-0.200195 -50.7471 0.953125 -101.481 4.79492 -152.194c3.62402 -47.8584 7.53125 -95.6992 15.3018 -143.109c6.19531 -37.7998 11.4463 -81.5254 35.1885 -113.155
c9.10156 -12.1299 12.5166 -2.29297 17.5635 9.14941c4.75098 10.7686 7.52246 22.5898 9.75879 34.1016c4.18555 21.5713 5.42969 43.6475 4.87305 65.5889c-1.24023 48.8594 -12.0088 96.8662 -26.6709 143.319z" />
    <glyph glyph-name="A" unicode="&#xc5;" horiz-adv-x="716" 
d="M737.709 209.424c7.35742 0.483398 23.248 -3.32227 23.248 -13.251c0 -10.6338 -15.5801 -12.7529 -23.251 -13.2529c-47.2578 -3.08008 -94.4336 -2.87109 -141.553 -0.813477c-0.0175781 -0.739258 -0.0351562 -1.4834 -0.0566406 -2.22266
c46.21 -88.4863 86.999 -182.119 111.703 -278.646c13.2051 -51.5918 21.1016 -105.002 15.4111 -158.265c-4.12012 -38.5957 -10.8027 -89.0342 -54.998 -100.22c-42.6338 -10.7939 -84.4668 20.4492 -111.289 50.2041c-30.4121 33.7363 -48.3066 74.8516 -61.8945 117.672
c-29.542 93.085 -36.4033 191.761 -34.6582 288.857c0.552734 30.7598 1.90137 61.498 3.66309 92.2236c-44.6045 4.18555 -89.1699 8.92773 -133.718 13.0869c-26.7227 2.49707 -53.8232 5.21582 -81.0195 7.26465c-38.8828 -142.236 -74.1631 -285.395 -114.138 -427.387
c-3.74609 -13.3174 -44.126 -10.8984 -40.9932 3.16309c31.835 142.963 68.125 285.564 108.2 426.913c-24.8906 0.878906 -49.7207 0.756836 -74.2812 -1.0918c-30.2812 -2.28027 -61.5586 -8.79785 -87.124 -26.0186
c-11.6035 -7.81445 -22.3193 -17.9824 -29.6416 -29.9814c-5.27734 -8.65332 -17.6641 -30.6992 -8.28418 -40.0664c15.2061 -15.1885 -26.1914 -21.8193 -36.8643 -12.2822c-21.0273 18.791 -5.1123 51.9219 8.82324 70.1299
c18.3477 23.9727 45.2568 39.7266 73.3799 49.6592c50.7041 17.9033 106.829 18.0254 161.218 15.002c20.4482 71.2441 41.8408 142.157 64.1211 212.614c30.1729 95.4082 61.251 191.452 106.151 281.14c17.6729 35.3066 37.0908 77.9355 78.0576 90.4697
c38.709 11.8477 73.0625 -6.62988 91.375 -40.666c22.1719 -41.1973 30.0732 -86.6582 37.7354 -132.468c7.91016 -47.2979 12.6045 -95.2393 14.1885 -143.159c3.18066 -96.1875 -0.678711 -192.432 -3.88965 -288.571
c-0.12207 -3.62402 -0.226562 -7.25293 -0.34375 -10.8818c46.8184 -2.04492 93.707 -2.25391 140.722 0.84375zM260.32 236.77c68.499 -4.62891 136.879 -12.2891 205.316 -18.6807c10.0986 154.845 29.9209 309.397 23.7119 464.698
c-0.996094 24.8818 -4.75977 49.8115 -2.70605 74.6455c0.770508 9.32812 1.15332 18.8955 -1.35254 28.0449c-2.23633 8.1709 -3.89844 15.0664 -12.1123 12.3252c-21.1143 -7.05273 -35.7803 -45.8877 -44.917 -63.6953
c-10.5596 -20.5791 -20.3359 -41.5586 -29.5205 -62.7861c-40.1357 -92.7676 -70.1865 -190.008 -99.7373 -286.556c-15.0146 -49.0508 -29.1768 -98.3145 -42.8467 -147.709c1.38379 -0.0957031 2.78516 -0.195312 4.16406 -0.287109zM655.24 -71.1514
c-16.8027 53.2275 -37.4463 105.396 -60.8096 156.3c-0.200195 -50.7471 0.953125 -101.481 4.79492 -152.194c3.62402 -47.8584 7.53125 -95.6992 15.3018 -143.109c6.19531 -37.7998 11.4463 -81.5254 35.1885 -113.155
c9.10156 -12.1299 12.5166 -2.29297 17.5635 9.14941c4.75098 10.7686 7.52246 22.5898 9.75879 34.1016c4.18555 21.5713 5.42969 43.6475 4.87305 65.5889c-1.24023 48.8594 -12.0088 96.8662 -26.6709 143.319z" />
    <glyph glyph-name="A" unicode="&#xc4;" horiz-adv-x="716" 
d="M737.709 209.424c7.35742 0.483398 23.248 -3.32227 23.248 -13.251c0 -10.6338 -15.5801 -12.7529 -23.251 -13.2529c-47.2578 -3.08008 -94.4336 -2.87109 -141.553 -0.813477c-0.0175781 -0.739258 -0.0351562 -1.4834 -0.0566406 -2.22266
c46.21 -88.4863 86.999 -182.119 111.703 -278.646c13.2051 -51.5918 21.1016 -105.002 15.4111 -158.265c-4.12012 -38.5957 -10.8027 -89.0342 -54.998 -100.22c-42.6338 -10.7939 -84.4668 20.4492 -111.289 50.2041c-30.4121 33.7363 -48.3066 74.8516 -61.8945 117.672
c-29.542 93.085 -36.4033 191.761 -34.6582 288.857c0.552734 30.7598 1.90137 61.498 3.66309 92.2236c-44.6045 4.18555 -89.1699 8.92773 -133.718 13.0869c-26.7227 2.49707 -53.8232 5.21582 -81.0195 7.26465c-38.8828 -142.236 -74.1631 -285.395 -114.138 -427.387
c-3.74609 -13.3174 -44.126 -10.8984 -40.9932 3.16309c31.835 142.963 68.125 285.564 108.2 426.913c-24.8906 0.878906 -49.7207 0.756836 -74.2812 -1.0918c-30.2812 -2.28027 -61.5586 -8.79785 -87.124 -26.0186
c-11.6035 -7.81445 -22.3193 -17.9824 -29.6416 -29.9814c-5.27734 -8.65332 -17.6641 -30.6992 -8.28418 -40.0664c15.2061 -15.1885 -26.1914 -21.8193 -36.8643 -12.2822c-21.0273 18.791 -5.1123 51.9219 8.82324 70.1299
c18.3477 23.9727 45.2568 39.7266 73.3799 49.6592c50.7041 17.9033 106.829 18.0254 161.218 15.002c20.4482 71.2441 41.8408 142.157 64.1211 212.614c30.1729 95.4082 61.251 191.452 106.151 281.14c17.6729 35.3066 37.0908 77.9355 78.0576 90.4697
c38.709 11.8477 73.0625 -6.62988 91.375 -40.666c22.1719 -41.1973 30.0732 -86.6582 37.7354 -132.468c7.91016 -47.2979 12.6045 -95.2393 14.1885 -143.159c3.18066 -96.1875 -0.678711 -192.432 -3.88965 -288.571
c-0.12207 -3.62402 -0.226562 -7.25293 -0.34375 -10.8818c46.8184 -2.04492 93.707 -2.25391 140.722 0.84375zM260.32 236.77c68.499 -4.62891 136.879 -12.2891 205.316 -18.6807c10.0986 154.845 29.9209 309.397 23.7119 464.698
c-0.996094 24.8818 -4.75977 49.8115 -2.70605 74.6455c0.770508 9.32812 1.15332 18.8955 -1.35254 28.0449c-2.23633 8.1709 -3.89844 15.0664 -12.1123 12.3252c-21.1143 -7.05273 -35.7803 -45.8877 -44.917 -63.6953
c-10.5596 -20.5791 -20.3359 -41.5586 -29.5205 -62.7861c-40.1357 -92.7676 -70.1865 -190.008 -99.7373 -286.556c-15.0146 -49.0508 -29.1768 -98.3145 -42.8467 -147.709c1.38379 -0.0957031 2.78516 -0.195312 4.16406 -0.287109zM655.24 -71.1514
c-16.8027 53.2275 -37.4463 105.396 -60.8096 156.3c-0.200195 -50.7471 0.953125 -101.481 4.79492 -152.194c3.62402 -47.8584 7.53125 -95.6992 15.3018 -143.109c6.19531 -37.7998 11.4463 -81.5254 35.1885 -113.155
c9.10156 -12.1299 12.5166 -2.29297 17.5635 9.14941c4.75098 10.7686 7.52246 22.5898 9.75879 34.1016c4.18555 21.5713 5.42969 43.6475 4.87305 65.5889c-1.24023 48.8594 -12.0088 96.8662 -26.6709 143.319z" />
    <glyph glyph-name="A" unicode="&#xc3;" horiz-adv-x="716" 
d="M737.709 209.424c7.35742 0.483398 23.248 -3.32227 23.248 -13.251c0 -10.6338 -15.5801 -12.7529 -23.251 -13.2529c-47.2578 -3.08008 -94.4336 -2.87109 -141.553 -0.813477c-0.0175781 -0.739258 -0.0351562 -1.4834 -0.0566406 -2.22266
c46.21 -88.4863 86.999 -182.119 111.703 -278.646c13.2051 -51.5918 21.1016 -105.002 15.4111 -158.265c-4.12012 -38.5957 -10.8027 -89.0342 -54.998 -100.22c-42.6338 -10.7939 -84.4668 20.4492 -111.289 50.2041c-30.4121 33.7363 -48.3066 74.8516 -61.8945 117.672
c-29.542 93.085 -36.4033 191.761 -34.6582 288.857c0.552734 30.7598 1.90137 61.498 3.66309 92.2236c-44.6045 4.18555 -89.1699 8.92773 -133.718 13.0869c-26.7227 2.49707 -53.8232 5.21582 -81.0195 7.26465c-38.8828 -142.236 -74.1631 -285.395 -114.138 -427.387
c-3.74609 -13.3174 -44.126 -10.8984 -40.9932 3.16309c31.835 142.963 68.125 285.564 108.2 426.913c-24.8906 0.878906 -49.7207 0.756836 -74.2812 -1.0918c-30.2812 -2.28027 -61.5586 -8.79785 -87.124 -26.0186
c-11.6035 -7.81445 -22.3193 -17.9824 -29.6416 -29.9814c-5.27734 -8.65332 -17.6641 -30.6992 -8.28418 -40.0664c15.2061 -15.1885 -26.1914 -21.8193 -36.8643 -12.2822c-21.0273 18.791 -5.1123 51.9219 8.82324 70.1299
c18.3477 23.9727 45.2568 39.7266 73.3799 49.6592c50.7041 17.9033 106.829 18.0254 161.218 15.002c20.4482 71.2441 41.8408 142.157 64.1211 212.614c30.1729 95.4082 61.251 191.452 106.151 281.14c17.6729 35.3066 37.0908 77.9355 78.0576 90.4697
c38.709 11.8477 73.0625 -6.62988 91.375 -40.666c22.1719 -41.1973 30.0732 -86.6582 37.7354 -132.468c7.91016 -47.2979 12.6045 -95.2393 14.1885 -143.159c3.18066 -96.1875 -0.678711 -192.432 -3.88965 -288.571
c-0.12207 -3.62402 -0.226562 -7.25293 -0.34375 -10.8818c46.8184 -2.04492 93.707 -2.25391 140.722 0.84375zM260.32 236.77c68.499 -4.62891 136.879 -12.2891 205.316 -18.6807c10.0986 154.845 29.9209 309.397 23.7119 464.698
c-0.996094 24.8818 -4.75977 49.8115 -2.70605 74.6455c0.770508 9.32812 1.15332 18.8955 -1.35254 28.0449c-2.23633 8.1709 -3.89844 15.0664 -12.1123 12.3252c-21.1143 -7.05273 -35.7803 -45.8877 -44.917 -63.6953
c-10.5596 -20.5791 -20.3359 -41.5586 -29.5205 -62.7861c-40.1357 -92.7676 -70.1865 -190.008 -99.7373 -286.556c-15.0146 -49.0508 -29.1768 -98.3145 -42.8467 -147.709c1.38379 -0.0957031 2.78516 -0.195312 4.16406 -0.287109zM655.24 -71.1514
c-16.8027 53.2275 -37.4463 105.396 -60.8096 156.3c-0.200195 -50.7471 0.953125 -101.481 4.79492 -152.194c3.62402 -47.8584 7.53125 -95.6992 15.3018 -143.109c6.19531 -37.7998 11.4463 -81.5254 35.1885 -113.155
c9.10156 -12.1299 12.5166 -2.29297 17.5635 9.14941c4.75098 10.7686 7.52246 22.5898 9.75879 34.1016c4.18555 21.5713 5.42969 43.6475 4.87305 65.5889c-1.24023 48.8594 -12.0088 96.8662 -26.6709 143.319z" />
    <glyph glyph-name="A" unicode="&#xc2;" horiz-adv-x="716" 
d="M737.709 209.424c7.35742 0.483398 23.248 -3.32227 23.248 -13.251c0 -10.6338 -15.5801 -12.7529 -23.251 -13.2529c-47.2578 -3.08008 -94.4336 -2.87109 -141.553 -0.813477c-0.0175781 -0.739258 -0.0351562 -1.4834 -0.0566406 -2.22266
c46.21 -88.4863 86.999 -182.119 111.703 -278.646c13.2051 -51.5918 21.1016 -105.002 15.4111 -158.265c-4.12012 -38.5957 -10.8027 -89.0342 -54.998 -100.22c-42.6338 -10.7939 -84.4668 20.4492 -111.289 50.2041c-30.4121 33.7363 -48.3066 74.8516 -61.8945 117.672
c-29.542 93.085 -36.4033 191.761 -34.6582 288.857c0.552734 30.7598 1.90137 61.498 3.66309 92.2236c-44.6045 4.18555 -89.1699 8.92773 -133.718 13.0869c-26.7227 2.49707 -53.8232 5.21582 -81.0195 7.26465c-38.8828 -142.236 -74.1631 -285.395 -114.138 -427.387
c-3.74609 -13.3174 -44.126 -10.8984 -40.9932 3.16309c31.835 142.963 68.125 285.564 108.2 426.913c-24.8906 0.878906 -49.7207 0.756836 -74.2812 -1.0918c-30.2812 -2.28027 -61.5586 -8.79785 -87.124 -26.0186
c-11.6035 -7.81445 -22.3193 -17.9824 -29.6416 -29.9814c-5.27734 -8.65332 -17.6641 -30.6992 -8.28418 -40.0664c15.2061 -15.1885 -26.1914 -21.8193 -36.8643 -12.2822c-21.0273 18.791 -5.1123 51.9219 8.82324 70.1299
c18.3477 23.9727 45.2568 39.7266 73.3799 49.6592c50.7041 17.9033 106.829 18.0254 161.218 15.002c20.4482 71.2441 41.8408 142.157 64.1211 212.614c30.1729 95.4082 61.251 191.452 106.151 281.14c17.6729 35.3066 37.0908 77.9355 78.0576 90.4697
c38.709 11.8477 73.0625 -6.62988 91.375 -40.666c22.1719 -41.1973 30.0732 -86.6582 37.7354 -132.468c7.91016 -47.2979 12.6045 -95.2393 14.1885 -143.159c3.18066 -96.1875 -0.678711 -192.432 -3.88965 -288.571
c-0.12207 -3.62402 -0.226562 -7.25293 -0.34375 -10.8818c46.8184 -2.04492 93.707 -2.25391 140.722 0.84375zM260.32 236.77c68.499 -4.62891 136.879 -12.2891 205.316 -18.6807c10.0986 154.845 29.9209 309.397 23.7119 464.698
c-0.996094 24.8818 -4.75977 49.8115 -2.70605 74.6455c0.770508 9.32812 1.15332 18.8955 -1.35254 28.0449c-2.23633 8.1709 -3.89844 15.0664 -12.1123 12.3252c-21.1143 -7.05273 -35.7803 -45.8877 -44.917 -63.6953
c-10.5596 -20.5791 -20.3359 -41.5586 -29.5205 -62.7861c-40.1357 -92.7676 -70.1865 -190.008 -99.7373 -286.556c-15.0146 -49.0508 -29.1768 -98.3145 -42.8467 -147.709c1.38379 -0.0957031 2.78516 -0.195312 4.16406 -0.287109zM655.24 -71.1514
c-16.8027 53.2275 -37.4463 105.396 -60.8096 156.3c-0.200195 -50.7471 0.953125 -101.481 4.79492 -152.194c3.62402 -47.8584 7.53125 -95.6992 15.3018 -143.109c6.19531 -37.7998 11.4463 -81.5254 35.1885 -113.155
c9.10156 -12.1299 12.5166 -2.29297 17.5635 9.14941c4.75098 10.7686 7.52246 22.5898 9.75879 34.1016c4.18555 21.5713 5.42969 43.6475 4.87305 65.5889c-1.24023 48.8594 -12.0088 96.8662 -26.6709 143.319z" />
    <glyph glyph-name="A" unicode="&#xc1;" horiz-adv-x="716" 
d="M737.709 209.424c7.35742 0.483398 23.248 -3.32227 23.248 -13.251c0 -10.6338 -15.5801 -12.7529 -23.251 -13.2529c-47.2578 -3.08008 -94.4336 -2.87109 -141.553 -0.813477c-0.0175781 -0.739258 -0.0351562 -1.4834 -0.0566406 -2.22266
c46.21 -88.4863 86.999 -182.119 111.703 -278.646c13.2051 -51.5918 21.1016 -105.002 15.4111 -158.265c-4.12012 -38.5957 -10.8027 -89.0342 -54.998 -100.22c-42.6338 -10.7939 -84.4668 20.4492 -111.289 50.2041c-30.4121 33.7363 -48.3066 74.8516 -61.8945 117.672
c-29.542 93.085 -36.4033 191.761 -34.6582 288.857c0.552734 30.7598 1.90137 61.498 3.66309 92.2236c-44.6045 4.18555 -89.1699 8.92773 -133.718 13.0869c-26.7227 2.49707 -53.8232 5.21582 -81.0195 7.26465c-38.8828 -142.236 -74.1631 -285.395 -114.138 -427.387
c-3.74609 -13.3174 -44.126 -10.8984 -40.9932 3.16309c31.835 142.963 68.125 285.564 108.2 426.913c-24.8906 0.878906 -49.7207 0.756836 -74.2812 -1.0918c-30.2812 -2.28027 -61.5586 -8.79785 -87.124 -26.0186
c-11.6035 -7.81445 -22.3193 -17.9824 -29.6416 -29.9814c-5.27734 -8.65332 -17.6641 -30.6992 -8.28418 -40.0664c15.2061 -15.1885 -26.1914 -21.8193 -36.8643 -12.2822c-21.0273 18.791 -5.1123 51.9219 8.82324 70.1299
c18.3477 23.9727 45.2568 39.7266 73.3799 49.6592c50.7041 17.9033 106.829 18.0254 161.218 15.002c20.4482 71.2441 41.8408 142.157 64.1211 212.614c30.1729 95.4082 61.251 191.452 106.151 281.14c17.6729 35.3066 37.0908 77.9355 78.0576 90.4697
c38.709 11.8477 73.0625 -6.62988 91.375 -40.666c22.1719 -41.1973 30.0732 -86.6582 37.7354 -132.468c7.91016 -47.2979 12.6045 -95.2393 14.1885 -143.159c3.18066 -96.1875 -0.678711 -192.432 -3.88965 -288.571
c-0.12207 -3.62402 -0.226562 -7.25293 -0.34375 -10.8818c46.8184 -2.04492 93.707 -2.25391 140.722 0.84375zM260.32 236.77c68.499 -4.62891 136.879 -12.2891 205.316 -18.6807c10.0986 154.845 29.9209 309.397 23.7119 464.698
c-0.996094 24.8818 -4.75977 49.8115 -2.70605 74.6455c0.770508 9.32812 1.15332 18.8955 -1.35254 28.0449c-2.23633 8.1709 -3.89844 15.0664 -12.1123 12.3252c-21.1143 -7.05273 -35.7803 -45.8877 -44.917 -63.6953
c-10.5596 -20.5791 -20.3359 -41.5586 -29.5205 -62.7861c-40.1357 -92.7676 -70.1865 -190.008 -99.7373 -286.556c-15.0146 -49.0508 -29.1768 -98.3145 -42.8467 -147.709c1.38379 -0.0957031 2.78516 -0.195312 4.16406 -0.287109zM655.24 -71.1514
c-16.8027 53.2275 -37.4463 105.396 -60.8096 156.3c-0.200195 -50.7471 0.953125 -101.481 4.79492 -152.194c3.62402 -47.8584 7.53125 -95.6992 15.3018 -143.109c6.19531 -37.7998 11.4463 -81.5254 35.1885 -113.155
c9.10156 -12.1299 12.5166 -2.29297 17.5635 9.14941c4.75098 10.7686 7.52246 22.5898 9.75879 34.1016c4.18555 21.5713 5.42969 43.6475 4.87305 65.5889c-1.24023 48.8594 -12.0088 96.8662 -26.6709 143.319z" />
    <glyph glyph-name="B" unicode="B" horiz-adv-x="699" 
d="M705.751 198.978c9.9375 2.80664 27.8398 3.96484 35.3975 -5.29785c7.08301 -8.67969 0.400391 -17.4678 -9.28027 -20.1738c-58.792 -16.4375 -116.983 -35.0459 -174.379 -55.8252c-20.2832 -120.073 -86.041 -232.433 -179.931 -309.772
c-58.1396 -47.8936 -125.834 -85.1367 -198.379 -105.955c-65.8574 -18.8994 -166.391 -44.2686 -214.837 20.5801c-39.3008 52.6143 23.9639 114.056 68.0156 152.038c-30.8164 54.0234 -32.4395 124.933 -34.5537 185.287
c-2.47949 70.748 2.07617 141.479 5.41309 212.131c6.97852 147.849 14.3838 296.715 30.9346 443.814c4.9248 43.7646 112.82 43.8994 112.168 0c-2.17578 -146.456 -13.5527 -293.521 -25.2568 -439.503c-5.66895 -70.709 -11.5254 -141.444 -14.8975 -212.31
c-1.62695 -34.2363 -1.92676 -68.5771 -1.91406 -102.849c0.00390625 -9.85938 0.216797 -19.6221 0.277344 -29.3115c42.5771 30.251 87.8467 56.7432 134.009 81.0732c63.8477 33.6533 129.283 64.2959 195.968 91.9453c8.79297 51.5527 9.49805 104.245 1.34082 154.623
c-9.71973 60.002 -38.4131 113.734 -83.6484 154.214c-43.251 38.7041 -92.8633 55.6631 -146.63 73.6357c-14.4404 4.8291 -30.8076 15.832 -27.6143 32.8525c3.28516 17.5166 26.3877 24.6738 41.4326 27.4102c74.5381 13.5654 146.187 45.1953 210.061 85.4355
c28.1406 17.7295 61.9766 38.2959 76.5469 69.5654c16.1846 34.7363 -7.42285 65.7617 -37.5 82.4902c-32.4785 18.0645 -71.6309 22.1934 -108.047 25.5215c-38.9961 3.56738 -78.4971 3.91113 -117.576 1.40039c-81.1592 -5.21191 -165.917 -22.6934 -241.729 -52.1523
c-18.2168 -7.0791 -52.5791 10.9336 -23.9512 23.3555c79.0713 34.3145 158.712 57.5781 244.958 65.2705c74.1416 6.61328 151.746 6.48242 224.748 -9.71094c58.7139 -13.0215 141.992 -50.5859 136.662 -123.688c-4.65527 -63.8174 -77.0957 -109.4 -125.041 -140.8
c-34.5537 -22.6289 -71.2529 -41.3242 -109.257 -57.0049c45.418 -20.3223 87.8291 -48.498 121.805 -81.7725c62.6465 -61.3545 90.8877 -142.588 92.9287 -229.265c0.413086 -17.5986 -0.248047 -35.1719 -1.84473 -52.6494
c47.4014 16.5898 95.2949 31.7432 143.602 45.3955zM342.133 -108.282c39.4746 50.2686 67.9727 110.511 84.0752 173.932c-52.8877 -22.8203 -104.945 -47.5762 -155.958 -74.3857c-58.9971 -31.0039 -116.832 -65.2705 -168.567 -107.504
c-1.32715 -8.1748 -3.23242 -16.3281 -5.97754 -24.4688c-3.51562 -10.4199 -20.5312 -13.6094 -34.2842 -11.3945c-11.4863 -11.29 -22.4414 -23.1152 -32.6006 -35.4844c-18.8477 -22.959 -41.085 -71.0264 0.177734 -85.5576
c27.3887 -9.64551 64.5137 3.41992 91.0098 11.6865c28.4062 8.8584 55.8076 20.2705 81.9385 34.5059c54.3242 29.5938 101.965 69.999 140.187 118.671z" />
    <glyph glyph-name="C" unicode="C" horiz-adv-x="582" 
d="M281.216 -191.349c-70.1299 -30.8818 -150.493 -18.623 -208.476 31.1104c-61.0371 52.3447 -90.2568 134.696 -100.586 212.389c-11.543 86.8291 -2.22363 173.889 13.4258 259.586c14.3838 78.7539 35.7549 157.325 67.6025 230.857
c31.5996 72.9717 74.5508 141.775 131.433 197.787c52.7012 51.8965 139.269 105.181 214.259 66.3457c60.0361 -31.0908 67.2451 -110.588 64.3301 -170.246c-3.89355 -79.6895 -31.0557 -157.063 -77.248 -221.994c-10.0156 -14.0791 -54.6719 -7.54004 -44.3779 6.97461
c46.2051 65.166 73.2803 142.288 75.46 222.347c0.917969 33.7881 -1.97949 68.3896 -16.3672 99.4277c-13.5352 29.2021 -40.1006 55.4678 -71.5264 33.418c-24.5996 -17.2598 -42.2812 -45.4141 -58.8008 -69.957c-18.0166 -26.7705 -34.2666 -54.8203 -49.4336 -83.2959
c-31.3477 -58.8574 -55.1729 -121.396 -75.0605 -184.938c-42.5029 -135.788 -69.5127 -283.536 -55.0508 -425.898c5.82617 -57.3604 19.2139 -129.231 62.3125 -171.438c57.2822 -56.0947 136.323 4.99902 180.37 48.5068c101.443 100.203 183.995 219.832 246.563 347.68
c7.57031 15.4717 52.8145 10.3555 44.3779 -6.97363c-40.4102 -83.0176 -89.1475 -161.614 -145.638 -234.655c-28.5762 -36.9473 -59.0879 -72.4238 -91.4795 -106.081c-30.9775 -32.1826 -64.7832 -62.7598 -106.09 -80.9502z" />
    <glyph glyph-name="D" unicode="D" horiz-adv-x="678" 
d="M120.094 819.604c57.8828 11.0332 116.744 18.8193 175.728 13.7158c98.5762 -8.53613 192.579 -60.8154 239.998 -149.559c43.4385 -81.2988 47.9199 -183.703 43.0771 -273.921c-4.96875 -92.5674 -26.248 -185.061 -60.1582 -271.307
c55.1113 22.4414 109.857 45.7881 164.177 70.0869c9.49316 4.25098 23.6113 6.44336 32.8789 0c7.10059 -4.93359 9.66797 -14.3926 0.000976562 -18.7393c-70.5303 -31.709 -141.679 -62.0166 -213.471 -90.7402c-34.998 -79.3672 -79.3633 -154.331 -131.703 -223.569
c-53.0752 -70.209 -128.021 -136.606 -214.885 -159.64c-48.624 -12.8916 -103.583 -18.3037 -152.403 -3.21484c-40.0488 12.3779 -76.4346 44.8691 -78.2617 89.2822c-1.78809 43.5078 30.9346 81.4814 62.7607 107.029c11.4473 9.18457 23.4463 17.7422 35.7676 25.8477
c-4.40332 31.0381 -7.84473 62.3721 -10.5684 93.5283c-6.45215 73.7715 -9.06738 148.092 -10.1768 222.111c-2.24512 149.715 2.07129 304.489 29.4199 451.994c4.64648 25.0605 34.3232 32.2393 56.5605 32.2393c17.5645 0 58.0439 -7.34375 56.5605 -32.2393
c-4.57227 -76.7002 -12.9824 -153.131 -17.6553 -229.835c-4.50781 -73.9766 -6.45215 -148.058 -7.0791 -222.16c-0.626953 -74.1416 1.92676 -148.057 5.02051 -222.111c0.53125 -12.7217 1.12695 -25.4473 1.72266 -38.1729
c73.6367 32.6396 150.85 57.0996 226.597 84.4922c22.1455 42.96 41.8066 87.1377 58.6055 132.812c29.0068 78.8662 50.4385 159.595 59.1318 243.364c7.99707 77.0869 12.0654 166.383 -14.2305 240.607c-12.8047 36.1377 -34.1846 67.3242 -68.0166 86.3984
c-36.6553 20.6621 -78.9668 29.8984 -120.77 31.1562c-48.8379 1.46582 -97.2578 -6.44824 -145.051 -15.6455c-42.168 -8.11426 -83.8398 -17.207 -119.434 -42.4551c-13.2217 -9.38477 -52.2529 2.74121 -31.1953 17.7822
c43.1465 30.8213 95.9434 41.1191 147.052 50.8604zM298.102 -22.9531c12.2344 19.335 23.8945 38.9375 35.0371 58.79c-62.79 -21.9238 -125.768 -43.6953 -185.931 -71.4707c-6.11328 -2.82324 -12.1826 -5.74707 -18.2305 -8.72266
c0.62207 -14.0879 1.20898 -28.1797 1.64844 -42.2676c0.574219 -18.4121 1.38379 -36.8467 1.72266 -55.2637c0.15625 -8.41406 0.478516 -17.0547 0.0654297 -25.4736c-0.643555 -13.0391 -2.91895 -17.1768 -10.8027 -27.627
c-12.752 -16.9023 -50.2773 -12.6992 -63.9824 0.000976562c-15.1104 14.001 -16.707 33.5449 -20.8799 53.1016c-2.42383 11.3467 -4.55566 22.8242 -6.53516 34.3145c-26.9707 -23.7334 -53.8496 -58 -39.4961 -95.0254c28.3711 -73.167 121.883 -26.3047 162.328 5.41211
c59.1533 46.3877 105.189 111.236 145.056 174.231z" />
    <glyph glyph-name="E" unicode="E" horiz-adv-x="531" 
d="M79.9482 483.093c-27.375 120.817 60.9307 236.392 160.616 292.687c45.6787 25.7998 115.918 42.8242 156.95 -1.01465c43.9385 -46.9453 19.4785 -112.386 -3.76758 -162.62c-7.42285 -16.0371 -54.0674 -11.1035 -45.7578 7.19141
c13.6094 29.9639 28.5586 61.8291 25.7393 95.6221c-2.04883 24.5557 -16.8896 59.1318 -46.2354 58.0488c-25.6084 -0.944336 -52.4355 -21.2412 -70.6699 -37.6699c-19.918 -17.9424 -32.6309 -39.4834 -44.9258 -63.1123
c-24.082 -46.292 -35.4639 -103.069 -25.2744 -154.817c5.23438 -26.5654 18.6865 -51.3174 40.4189 -67.9199c7.01758 -5.36035 16.7109 -10.5723 22.415 -13.0605c7.00879 -3.05469 14.4141 -5.48242 21.6885 -7.81055
c1.59668 -0.513672 18.4346 -5.24707 9.77246 -3.17188c15.2012 -3.6416 32.3955 -7.30469 41.7412 -21.2578c6.9834 -10.4248 7.75391 -23.8291 -3.24512 -32.6738c-70.583 -56.7646 -136.511 -119.329 -184.896 -196.625
c-43.1465 -68.9248 -82.2861 -151.046 -82.4648 -234.016c-0.078125 -37.1426 10.7471 -79.667 44.8047 -100.15c36.0508 -21.6797 83.7178 -7.76172 119.194 8.5625c74.6113 34.332 135.813 98.5713 188.797 159.809c55.0459 63.6172 100.516 135.271 125.794 215.934
c4.75586 15.1709 47.6807 11.6992 42.0859 -6.61328c-31.4082 -102.831 -95.9219 -191.2 -169.846 -267.856c-61.7764 -64.0566 -133.604 -125.646 -223.412 -143.236c-45.0264 -8.81934 -96.6357 -7.10059 -137.48 15.5889
c-40.2402 22.3545 -67.3408 63.1084 -77.9609 107.251c-21.2451 88.2949 17.0723 192.574 61.5068 268.339c39.2002 66.8408 90.1914 128.248 148.035 180.51c-44.4736 20.5664 -81.9033 52.3486 -93.624 104.084z" />
    <glyph glyph-name="E" unicode="&#xcb;" horiz-adv-x="531" 
d="M79.9482 483.093c-27.375 120.817 60.9307 236.392 160.616 292.687c45.6787 25.7998 115.918 42.8242 156.95 -1.01465c43.9385 -46.9453 19.4785 -112.386 -3.76758 -162.62c-7.42285 -16.0371 -54.0674 -11.1035 -45.7578 7.19141
c13.6094 29.9639 28.5586 61.8291 25.7393 95.6221c-2.04883 24.5557 -16.8896 59.1318 -46.2354 58.0488c-25.6084 -0.944336 -52.4355 -21.2412 -70.6699 -37.6699c-19.918 -17.9424 -32.6309 -39.4834 -44.9258 -63.1123
c-24.082 -46.292 -35.4639 -103.069 -25.2744 -154.817c5.23438 -26.5654 18.6865 -51.3174 40.4189 -67.9199c7.01758 -5.36035 16.7109 -10.5723 22.415 -13.0605c7.00879 -3.05469 14.4141 -5.48242 21.6885 -7.81055
c1.59668 -0.513672 18.4346 -5.24707 9.77246 -3.17188c15.2012 -3.6416 32.3955 -7.30469 41.7412 -21.2578c6.9834 -10.4248 7.75391 -23.8291 -3.24512 -32.6738c-70.583 -56.7646 -136.511 -119.329 -184.896 -196.625
c-43.1465 -68.9248 -82.2861 -151.046 -82.4648 -234.016c-0.078125 -37.1426 10.7471 -79.667 44.8047 -100.15c36.0508 -21.6797 83.7178 -7.76172 119.194 8.5625c74.6113 34.332 135.813 98.5713 188.797 159.809c55.0459 63.6172 100.516 135.271 125.794 215.934
c4.75586 15.1709 47.6807 11.6992 42.0859 -6.61328c-31.4082 -102.831 -95.9219 -191.2 -169.846 -267.856c-61.7764 -64.0566 -133.604 -125.646 -223.412 -143.236c-45.0264 -8.81934 -96.6357 -7.10059 -137.48 15.5889
c-40.2402 22.3545 -67.3408 63.1084 -77.9609 107.251c-21.2451 88.2949 17.0723 192.574 61.5068 268.339c39.2002 66.8408 90.1914 128.248 148.035 180.51c-44.4736 20.5664 -81.9033 52.3486 -93.624 104.084z" />
    <glyph glyph-name="E" unicode="&#xca;" horiz-adv-x="531" 
d="M79.9482 483.093c-27.375 120.817 60.9307 236.392 160.616 292.687c45.6787 25.7998 115.918 42.8242 156.95 -1.01465c43.9385 -46.9453 19.4785 -112.386 -3.76758 -162.62c-7.42285 -16.0371 -54.0674 -11.1035 -45.7578 7.19141
c13.6094 29.9639 28.5586 61.8291 25.7393 95.6221c-2.04883 24.5557 -16.8896 59.1318 -46.2354 58.0488c-25.6084 -0.944336 -52.4355 -21.2412 -70.6699 -37.6699c-19.918 -17.9424 -32.6309 -39.4834 -44.9258 -63.1123
c-24.082 -46.292 -35.4639 -103.069 -25.2744 -154.817c5.23438 -26.5654 18.6865 -51.3174 40.4189 -67.9199c7.01758 -5.36035 16.7109 -10.5723 22.415 -13.0605c7.00879 -3.05469 14.4141 -5.48242 21.6885 -7.81055
c1.59668 -0.513672 18.4346 -5.24707 9.77246 -3.17188c15.2012 -3.6416 32.3955 -7.30469 41.7412 -21.2578c6.9834 -10.4248 7.75391 -23.8291 -3.24512 -32.6738c-70.583 -56.7646 -136.511 -119.329 -184.896 -196.625
c-43.1465 -68.9248 -82.2861 -151.046 -82.4648 -234.016c-0.078125 -37.1426 10.7471 -79.667 44.8047 -100.15c36.0508 -21.6797 83.7178 -7.76172 119.194 8.5625c74.6113 34.332 135.813 98.5713 188.797 159.809c55.0459 63.6172 100.516 135.271 125.794 215.934
c4.75586 15.1709 47.6807 11.6992 42.0859 -6.61328c-31.4082 -102.831 -95.9219 -191.2 -169.846 -267.856c-61.7764 -64.0566 -133.604 -125.646 -223.412 -143.236c-45.0264 -8.81934 -96.6357 -7.10059 -137.48 15.5889
c-40.2402 22.3545 -67.3408 63.1084 -77.9609 107.251c-21.2451 88.2949 17.0723 192.574 61.5068 268.339c39.2002 66.8408 90.1914 128.248 148.035 180.51c-44.4736 20.5664 -81.9033 52.3486 -93.624 104.084z" />
    <glyph glyph-name="E" unicode="&#xc9;" horiz-adv-x="531" 
d="M79.9482 483.093c-27.375 120.817 60.9307 236.392 160.616 292.687c45.6787 25.7998 115.918 42.8242 156.95 -1.01465c43.9385 -46.9453 19.4785 -112.386 -3.76758 -162.62c-7.42285 -16.0371 -54.0674 -11.1035 -45.7578 7.19141
c13.6094 29.9639 28.5586 61.8291 25.7393 95.6221c-2.04883 24.5557 -16.8896 59.1318 -46.2354 58.0488c-25.6084 -0.944336 -52.4355 -21.2412 -70.6699 -37.6699c-19.918 -17.9424 -32.6309 -39.4834 -44.9258 -63.1123
c-24.082 -46.292 -35.4639 -103.069 -25.2744 -154.817c5.23438 -26.5654 18.6865 -51.3174 40.4189 -67.9199c7.01758 -5.36035 16.7109 -10.5723 22.415 -13.0605c7.00879 -3.05469 14.4141 -5.48242 21.6885 -7.81055
c1.59668 -0.513672 18.4346 -5.24707 9.77246 -3.17188c15.2012 -3.6416 32.3955 -7.30469 41.7412 -21.2578c6.9834 -10.4248 7.75391 -23.8291 -3.24512 -32.6738c-70.583 -56.7646 -136.511 -119.329 -184.896 -196.625
c-43.1465 -68.9248 -82.2861 -151.046 -82.4648 -234.016c-0.078125 -37.1426 10.7471 -79.667 44.8047 -100.15c36.0508 -21.6797 83.7178 -7.76172 119.194 8.5625c74.6113 34.332 135.813 98.5713 188.797 159.809c55.0459 63.6172 100.516 135.271 125.794 215.934
c4.75586 15.1709 47.6807 11.6992 42.0859 -6.61328c-31.4082 -102.831 -95.9219 -191.2 -169.846 -267.856c-61.7764 -64.0566 -133.604 -125.646 -223.412 -143.236c-45.0264 -8.81934 -96.6357 -7.10059 -137.48 15.5889
c-40.2402 22.3545 -67.3408 63.1084 -77.9609 107.251c-21.2451 88.2949 17.0723 192.574 61.5068 268.339c39.2002 66.8408 90.1914 128.248 148.035 180.51c-44.4736 20.5664 -81.9033 52.3486 -93.624 104.084z" />
    <glyph glyph-name="F" unicode="F" horiz-adv-x="421" 
d="M702.748 832.491c-12.3389 -33.3184 -50.2871 -44.1504 -82.0352 -49.7236c-48.2715 -8.47559 -97.5654 -12.6396 -146.438 -15.7334c-45.7617 -2.89746 -91.5977 -3.95898 -137.434 -3.74121c-9.49316 -162.476 -22.6758 -324.49 -23.5811 -487.354
c-0.0869141 -15.6064 -0.0908203 -31.208 -0.0908203 -46.8096c30.9512 1.43164 61.9463 2.14062 92.9629 1.94922c7.2959 -0.0439453 23.0107 -2.91113 23.0107 -13.1182c0 -10.1543 -15.4102 -13.165 -23.0107 -13.1172
c-31.0166 0.191406 -61.9902 -0.452148 -92.916 -1.83105c0.191406 -55.7158 0.953125 -111.41 2.48926 -167.14c1.13965 -41.3105 2.61914 -82.791 2.33594 -124.11c-0.27832 -40.7012 1.04004 -81.1201 -9.6582 -120.751c-6.25684 -23.168 -60.1846 -18.4561 -69.1602 0
c-18.8262 38.7129 -24.4775 82.9121 -31.1738 125.027c-6.28223 39.5273 -9.98438 79.9111 -12.8516 119.834c-3.75 52.2402 -6.43848 104.641 -7.90918 157.05c-16.9678 -1.9668 -33.9268 -4.09863 -50.8555 -6.56543
c-7.15234 -1.04004 -24.1982 -0.40918 -27.1348 8.78418c-3.00195 9.40234 7.6709 14.2969 15.4062 15.4668c17.042 2.57129 34.1191 4.8252 51.2129 6.92188c-32.4609 94.7949 -60.8887 191.422 -97.6748 284.611c-16.0322 40.6191 -34.4668 80.1152 -56.2246 117.993
c-20.7881 36.1855 -48.4072 72.7451 -62.0771 112.438c-27.3398 79.3848 143.781 66.6328 183.734 64.4004c32.7617 -1.82715 65.5234 -3.48438 98.2891 -4.74219c11.0947 4.38965 23.873 6.04688 34.5459 6.04688c9.87207 0 26.4922 -2.17578 39.8008 -8.10156
c34.4971 -0.508789 69.0029 -0.34375 103.535 0.800781c45.4004 1.50586 90.7354 4.64746 135.845 10.042c31.7568 3.79785 88.7568 2.20117 102.218 38.5176c5.96484 16.0889 51.8262 11.8203 44.8389 -7.04492zM216.139 763.867
c0.143555 0.914062 0.400391 1.75098 0.613281 2.61719c-5.03809 0.230469 -10.0811 0.425781 -15.1152 0.673828c-43.3467 2.11426 -86.9766 6.57812 -130.401 4.58594c-16.4414 -0.75293 -54.041 -0.513672 -64.9355 -14.7842
c-10.4336 -13.6611 10.0762 -41.6934 16.998 -54.3584c20.9189 -38.2822 44.9531 -74.7637 64.6836 -113.708c19.1309 -37.7559 35.0762 -77.0303 49.5166 -116.788c17.3379 -47.7373 33.2705 -96.001 48.6377 -144.447c0.905273 145.781 7.37891 292.229 30.0029 436.209z
" />
    <glyph glyph-name="G" unicode="G" horiz-adv-x="625" 
d="M514.699 19.6855c-18.6475 -92.876 -53.9238 -183.77 -134.544 -239.333c-41.2539 -28.4365 -100.49 -47.8145 -146.513 -18.0723c-32.5869 21.0576 -33.0527 66.71 -21.7842 99.6543c28.9502 84.6357 115.675 139.564 188.716 183.033
c1.2832 0.765625 2.58008 1.51855 3.86816 2.28027c7.49609 29.4766 13.5742 59.3447 17.9385 89.3301c3.57617 24.582 3.27637 48.2412 2.16699 72.9102c-0.53125 11.7646 4.52441 24.7998 0.508789 36.3857c-5.86035 16.9023 -18.1689 13.7871 -32.0869 6.62988
c-81.2207 -41.7715 -140.936 -114.49 -219.894 -159.673c-43.1338 -24.6777 -94.7471 -37.0039 -141.278 -12.9922c-40.7236 21.0098 -60.2979 68.1074 -65.4189 111.463c-11.7822 99.7637 21.8711 205.088 64.1348 294.353
c40.5498 85.6494 96.5361 165.412 163.308 232.723c67.0977 67.6416 165.986 140.378 267.107 107.478c35.0498 -11.4033 68.0283 -42.3857 80.0361 -77.4482c13.2441 -38.6826 6.7832 -80.542 -7.16113 -118.041c-5.27344 -14.1748 -45.6182 -10.7637 -39.792 6.25195
c14.0225 40.9629 23.124 116.736 -23.5908 142.646c-37.7861 20.9531 -82.6123 -5.83008 -110.331 -30.5771c-77.3174 -69.0293 -141.248 -158.499 -188.006 -250.579c-44.1514 -86.9502 -76.5215 -185.139 -82.9307 -282.875
c-1.88379 -28.7197 -10.2676 -86.3115 16.8164 -107.021c0.169922 0.0263672 0.331055 0.0527344 0.540039 0.0830078c0.161133 0.365234 0.618164 0.425781 1.37988 0.177734c1.05762 0.125977 2.29297 0.265625 3.89844 0.421875
c4.5293 1.55762 8.83691 2.24902 13.4531 3.99805c11.2471 4.26855 22.2109 10.4854 32.6396 16.4326c20.1924 11.5166 39.1484 25.2393 57.6738 39.249c36.8818 27.8887 71.501 58.6875 110.432 83.8262c32.9307 21.2666 80.415 51.1387 120.099 29.6064
c9.99414 -5.4209 17.7383 -13.9785 24.3818 -23.0068c8.01367 -10.8896 18.2637 -20.3262 25.9902 -31.1943c12.1426 -17.0723 17.1377 -41.3799 21.4453 -61.6631c3.37598 -15.8975 5.24219 -31.7168 5.91211 -47.5059c35.3721 23.2852 68.8379 49.1289 97.7441 80.9375
c12.2607 13.4873 60.7588 3.88477 43.8477 -14.6104c-41.0762 -44.9346 -90.875 -78.4268 -142.545 -109.291c-1.53613 -18.6299 -4.40332 -37.2686 -8.16211 -55.9854zM274.136 -207.813c0.212891 1.31836 -0.817383 1.64062 -2.31836 1.49316
c1.26562 -1.10547 2.26172 -1.84961 2.31836 -1.49316zM303.135 -172.607c11.2422 14.4443 22.0742 28.9795 31.5635 44.6465c23.4766 38.7041 41.5537 80.585 55.1064 123.745c0.0693359 0.217773 0.129883 0.435547 0.199219 0.65332
c-32.666 -21.5449 -63.835 -45.5137 -90.1924 -74.5381c-17.3818 -19.1387 -33.7412 -42.085 -40.3496 -67.4629c-3.02832 -11.6211 -4.35547 -25.9521 -1.52734 -37.8389c1.44434 -6.06055 4.24219 -12.9131 8.28418 -17.6992
c0.108398 -0.0302734 1.83105 -1.74414 3.66309 -3.45801c0.543945 0.326172 1.12305 0.678711 1.74512 1.05273c3.93262 2.37109 6.9043 4.5293 10.4287 7.65723c7.7832 6.91309 14.7051 15.0537 21.0791 23.2422z" />
    <glyph glyph-name="H" unicode="H" horiz-adv-x="917" 
d="M918.085 183.071c7.28711 14.6318 50.1719 9.72852 42.0752 -6.61328c-18.5908 -37.5605 -38.5605 -74.3984 -60.1748 -110.31c-21.5586 -35.8291 -44.5439 -70.875 -68.874 -104.881c-21.5059 -30.0596 -42.9072 -62.4473 -72.8193 -84.8408
c-59.0361 -44.2041 -135.432 -25.1045 -175.812 33.4697c-48.3896 70.1914 -40.4102 163.09 -34.3672 243.745c3.5459 47.2979 8.53613 94.6172 14.7578 141.771c-56.5732 -54.668 -119.533 -102.244 -188.798 -135.885
c-3.95898 -1.91895 -7.94824 -3.76758 -11.9639 -5.56445c-5.67773 -30.416 -11.6729 -60.75 -17.6982 -90.9834c-9.10645 -45.6963 -19.6875 -91.0615 -30.3076 -136.427c-5.20312 -22.2324 -10.5635 -44.1738 -17.3418 -65.9795
c-6.9834 -22.459 -16.5859 -42.6162 -26.4619 -64.0176c-11.0166 -23.8818 -81.0117 -25.7139 -81.6553 6.29883c-0.391602 19.4912 -1.91016 38.4346 0.586914 57.6914c2.51953 19.418 5.03906 38.5049 8.68066 57.748c12.9131 68.2246 25.4785 136.476 37.2949 204.844
c-25.5654 -0.84375 -51.2832 1.69238 -76.6748 8.48438c-73.1064 19.5479 -123.371 77.1787 -153.81 144.094c-65.1445 143.21 -43.3906 316.802 16.3633 458.08c27.5322 65.0918 70.2617 137.401 135.21 171.207c74.3721 38.709 147.448 -0.618164 185.762 -68.1992
c40.4189 -71.3008 52.9053 -158.878 56.9346 -239.516c4.46875 -89.4648 -1.01367 -179.252 -10.2812 -268.234c-4.78613 -45.9658 -11.7559 -91.7969 -19.7656 -137.458c13.8965 7.85742 27.3887 16.3242 40.3711 25.0693c59.5664 40.1357 113.59 88.1035 162.476 140.943
c3.44629 22.1455 7.15332 44.2305 11.1172 66.2412c16.2158 90.0439 35.7422 179.553 60.1201 267.761c18.4209 66.6582 50.3516 181.641 142.196 167.274c29.8857 -4.67285 55.1816 -26.6875 62.5215 -56.0381c9.59375 -38.3779 -6.0127 -82.3379 -18.7734 -118.354
c-25.1914 -71.1094 -64.3828 -136.763 -107.247 -198.652c-7.82715 -55.7295 -15.2979 -111.511 -22.3857 -167.292c-9.78906 -77.0391 -18.2646 -154.313 -26.8008 -231.501c-4.22852 -38.2607 -5.67773 -76.7129 -6.22168 -115.17
c-0.361328 -25.4043 0.265625 -51.374 13.1309 -74.1719c5.39062 -9.55859 11.9775 -17.916 23.4375 -14.8701c15.0576 4.00293 27.6445 16.5117 38.1826 27.376c25.3174 26.1045 46.4053 57.0166 67.1973 86.7324c41.3496 59.0967 77.6787 121.583 109.818 186.127z
M215.302 148.975c8.18359 -0.496094 16.3066 -0.433594 24.3682 0.0361328c12.752 75.1211 24.4902 150.416 34.5449 226.024c9.97656 75.0166 19.3916 150.572 22.5674 226.229c2.97168 70.874 -0.421875 144.955 -26.3613 211.792
c-9.21484 23.751 -24.3291 55.3857 -49.5029 65.8975c-28.9932 12.1084 -61.6592 -19.4873 -79.8848 -38.4131c-46.9014 -48.707 -75.1729 -111.48 -95.4561 -175.176c-41.4717 -130.228 -50.7871 -281.169 15.249 -405.145
c32.1484 -60.3496 83.6533 -106.955 154.476 -111.245zM780.965 817.426c-8.59668 -13.0127 -13.2764 -30.0283 -15.752 -45.2168c-10.4023 -63.6865 -20.3135 -127.543 -29.7764 -191.491c20.8096 36.4512 39.1221 74.2939 52.9443 113.956
c11.543 33.1182 29.2686 79.1143 13.6406 113.402c-1.97559 4.33301 -4.83398 8.34863 -8.08789 11.8027c-0.870117 0.922852 -4.37207 3.22461 -6.46875 5.06934c-1.71875 -2.24902 -5.13867 -5.45996 -6.5 -7.52246z" />
    <glyph glyph-name="I" unicode="I" horiz-adv-x="309" 
d="M16.8887 420.768c7.46191 71.875 13.6387 144.636 25.8906 215.88c10.2725 59.7754 19.5703 119.186 35.0547 177.534c-28.0586 -0.517578 -55.9082 -2.43164 -82.8398 -11.125c-15.458 -4.99023 -45.4258 10.9727 -20.3477 19.8398
c35.9463 12.7129 72.7188 14.2051 109.84 14.8926c1.5752 5.29883 3.19824 10.5898 4.89941 15.8721c3.99414 12.3779 11.665 21.2705 16.4287 33.2832c2.03613 5.13379 2.24512 9.81055 6.16992 14.1436c6.5918 7.2832 16.916 9.08008 26.3271 9.60645
c28.498 1.59277 58.6494 -5.36426 84.7061 -16.5459c17.7471 -7.61426 43.9473 -24.1777 26.4092 -45.71c-15.0098 -18.4297 -47.21 -24.8213 -69.2207 -28.876c-4.65527 -0.857422 -9.32812 -1.52734 -14.0137 -2.11914
c0.896484 -17.542 0.513672 -35.3457 0.178711 -51.3086c-0.600586 -28.7803 -1.28809 -57.5479 -2.23242 -86.3193c-1.88867 -57.6699 -5.97363 -115.157 -10.5205 -172.684c-9.25 -117.019 -22.1719 -233.785 -33.5752 -350.6
c-5.32129 -54.502 -11.4424 -110.079 -10.5898 -164.903c0.374023 -24.0859 1.02637 -54.7373 9.68848 -77.4531c3.67188 -9.63672 5.27344 -14.8623 11.2646 -14.832c12.2646 0.0654297 26.0215 11.6562 34.2529 19.1611c74.1807 67.6504 112.119 169.589 147.821 260.733
c5.71289 14.5928 47.4199 10.4287 40.707 -6.39551c-26.2139 -65.6924 -53.0449 -132.042 -91.7969 -191.548c-31.8867 -48.959 -76.5254 -110.205 -141.017 -111.201c-30.1426 -0.46582 -60.9854 7.6875 -80.7861 31.1904
c-22.0586 26.1787 -29.8027 57.2041 -36.0986 90.3398c-13.1523 69.1904 -11.5254 141.353 -6.86133 211.317c4.84668 72.7969 12.7256 145.272 20.2607 217.826zM203.606 871.777c-11.5771 7.73145 -29.9902 10.9346 -43.2949 12.627
c-1.93164 0.299805 -3.87207 0.521484 -5.81641 0.700195c0.914062 -2.00977 0.905273 -5.66895 -0.104492 -11.1035c2.41504 -5.95605 4.11621 -7.54395 5.59961 -12.9385c1.65332 -6.00879 2.8457 -12.3828 3.81152 -18.9004
c5.77832 0.926758 11.5254 2.02344 17.168 3.5459c11.251 3.03711 43.3076 12.2646 22.6367 26.0693z" />
    <glyph glyph-name="I" unicode="&#xcf;" horiz-adv-x="309" 
d="M16.8887 420.768c7.46191 71.875 13.6387 144.636 25.8906 215.88c10.2725 59.7754 19.5703 119.186 35.0547 177.534c-28.0586 -0.517578 -55.9082 -2.43164 -82.8398 -11.125c-15.458 -4.99023 -45.4258 10.9727 -20.3477 19.8398
c35.9463 12.7129 72.7188 14.2051 109.84 14.8926c1.5752 5.29883 3.19824 10.5898 4.89941 15.8721c3.99414 12.3779 11.665 21.2705 16.4287 33.2832c2.03613 5.13379 2.24512 9.81055 6.16992 14.1436c6.5918 7.2832 16.916 9.08008 26.3271 9.60645
c28.498 1.59277 58.6494 -5.36426 84.7061 -16.5459c17.7471 -7.61426 43.9473 -24.1777 26.4092 -45.71c-15.0098 -18.4297 -47.21 -24.8213 -69.2207 -28.876c-4.65527 -0.857422 -9.32812 -1.52734 -14.0137 -2.11914
c0.896484 -17.542 0.513672 -35.3457 0.178711 -51.3086c-0.600586 -28.7803 -1.28809 -57.5479 -2.23242 -86.3193c-1.88867 -57.6699 -5.97363 -115.157 -10.5205 -172.684c-9.25 -117.019 -22.1719 -233.785 -33.5752 -350.6
c-5.32129 -54.502 -11.4424 -110.079 -10.5898 -164.903c0.374023 -24.0859 1.02637 -54.7373 9.68848 -77.4531c3.67188 -9.63672 5.27344 -14.8623 11.2646 -14.832c12.2646 0.0654297 26.0215 11.6562 34.2529 19.1611c74.1807 67.6504 112.119 169.589 147.821 260.733
c5.71289 14.5928 47.4199 10.4287 40.707 -6.39551c-26.2139 -65.6924 -53.0449 -132.042 -91.7969 -191.548c-31.8867 -48.959 -76.5254 -110.205 -141.017 -111.201c-30.1426 -0.46582 -60.9854 7.6875 -80.7861 31.1904
c-22.0586 26.1787 -29.8027 57.2041 -36.0986 90.3398c-13.1523 69.1904 -11.5254 141.353 -6.86133 211.317c4.84668 72.7969 12.7256 145.272 20.2607 217.826zM203.606 871.777c-11.5771 7.73145 -29.9902 10.9346 -43.2949 12.627
c-1.93164 0.299805 -3.87207 0.521484 -5.81641 0.700195c0.914062 -2.00977 0.905273 -5.66895 -0.104492 -11.1035c2.41504 -5.95605 4.11621 -7.54395 5.59961 -12.9385c1.65332 -6.00879 2.8457 -12.3828 3.81152 -18.9004
c5.77832 0.926758 11.5254 2.02344 17.168 3.5459c11.251 3.03711 43.3076 12.2646 22.6367 26.0693z" />
    <glyph glyph-name="I" unicode="&#xce;" horiz-adv-x="309" 
d="M16.8887 420.768c7.46191 71.875 13.6387 144.636 25.8906 215.88c10.2725 59.7754 19.5703 119.186 35.0547 177.534c-28.0586 -0.517578 -55.9082 -2.43164 -82.8398 -11.125c-15.458 -4.99023 -45.4258 10.9727 -20.3477 19.8398
c35.9463 12.7129 72.7188 14.2051 109.84 14.8926c1.5752 5.29883 3.19824 10.5898 4.89941 15.8721c3.99414 12.3779 11.665 21.2705 16.4287 33.2832c2.03613 5.13379 2.24512 9.81055 6.16992 14.1436c6.5918 7.2832 16.916 9.08008 26.3271 9.60645
c28.498 1.59277 58.6494 -5.36426 84.7061 -16.5459c17.7471 -7.61426 43.9473 -24.1777 26.4092 -45.71c-15.0098 -18.4297 -47.21 -24.8213 -69.2207 -28.876c-4.65527 -0.857422 -9.32812 -1.52734 -14.0137 -2.11914
c0.896484 -17.542 0.513672 -35.3457 0.178711 -51.3086c-0.600586 -28.7803 -1.28809 -57.5479 -2.23242 -86.3193c-1.88867 -57.6699 -5.97363 -115.157 -10.5205 -172.684c-9.25 -117.019 -22.1719 -233.785 -33.5752 -350.6
c-5.32129 -54.502 -11.4424 -110.079 -10.5898 -164.903c0.374023 -24.0859 1.02637 -54.7373 9.68848 -77.4531c3.67188 -9.63672 5.27344 -14.8623 11.2646 -14.832c12.2646 0.0654297 26.0215 11.6562 34.2529 19.1611c74.1807 67.6504 112.119 169.589 147.821 260.733
c5.71289 14.5928 47.4199 10.4287 40.707 -6.39551c-26.2139 -65.6924 -53.0449 -132.042 -91.7969 -191.548c-31.8867 -48.959 -76.5254 -110.205 -141.017 -111.201c-30.1426 -0.46582 -60.9854 7.6875 -80.7861 31.1904
c-22.0586 26.1787 -29.8027 57.2041 -36.0986 90.3398c-13.1523 69.1904 -11.5254 141.353 -6.86133 211.317c4.84668 72.7969 12.7256 145.272 20.2607 217.826zM203.606 871.777c-11.5771 7.73145 -29.9902 10.9346 -43.2949 12.627
c-1.93164 0.299805 -3.87207 0.521484 -5.81641 0.700195c0.914062 -2.00977 0.905273 -5.66895 -0.104492 -11.1035c2.41504 -5.95605 4.11621 -7.54395 5.59961 -12.9385c1.65332 -6.00879 2.8457 -12.3828 3.81152 -18.9004
c5.77832 0.926758 11.5254 2.02344 17.168 3.5459c11.251 3.03711 43.3076 12.2646 22.6367 26.0693z" />
    <glyph glyph-name="I" unicode="&#xcd;" horiz-adv-x="309" 
d="M16.8887 420.768c7.46191 71.875 13.6387 144.636 25.8906 215.88c10.2725 59.7754 19.5703 119.186 35.0547 177.534c-28.0586 -0.517578 -55.9082 -2.43164 -82.8398 -11.125c-15.458 -4.99023 -45.4258 10.9727 -20.3477 19.8398
c35.9463 12.7129 72.7188 14.2051 109.84 14.8926c1.5752 5.29883 3.19824 10.5898 4.89941 15.8721c3.99414 12.3779 11.665 21.2705 16.4287 33.2832c2.03613 5.13379 2.24512 9.81055 6.16992 14.1436c6.5918 7.2832 16.916 9.08008 26.3271 9.60645
c28.498 1.59277 58.6494 -5.36426 84.7061 -16.5459c17.7471 -7.61426 43.9473 -24.1777 26.4092 -45.71c-15.0098 -18.4297 -47.21 -24.8213 -69.2207 -28.876c-4.65527 -0.857422 -9.32812 -1.52734 -14.0137 -2.11914
c0.896484 -17.542 0.513672 -35.3457 0.178711 -51.3086c-0.600586 -28.7803 -1.28809 -57.5479 -2.23242 -86.3193c-1.88867 -57.6699 -5.97363 -115.157 -10.5205 -172.684c-9.25 -117.019 -22.1719 -233.785 -33.5752 -350.6
c-5.32129 -54.502 -11.4424 -110.079 -10.5898 -164.903c0.374023 -24.0859 1.02637 -54.7373 9.68848 -77.4531c3.67188 -9.63672 5.27344 -14.8623 11.2646 -14.832c12.2646 0.0654297 26.0215 11.6562 34.2529 19.1611c74.1807 67.6504 112.119 169.589 147.821 260.733
c5.71289 14.5928 47.4199 10.4287 40.707 -6.39551c-26.2139 -65.6924 -53.0449 -132.042 -91.7969 -191.548c-31.8867 -48.959 -76.5254 -110.205 -141.017 -111.201c-30.1426 -0.46582 -60.9854 7.6875 -80.7861 31.1904
c-22.0586 26.1787 -29.8027 57.2041 -36.0986 90.3398c-13.1523 69.1904 -11.5254 141.353 -6.86133 211.317c4.84668 72.7969 12.7256 145.272 20.2607 217.826zM203.606 871.777c-11.5771 7.73145 -29.9902 10.9346 -43.2949 12.627
c-1.93164 0.299805 -3.87207 0.521484 -5.81641 0.700195c0.914062 -2.00977 0.905273 -5.66895 -0.104492 -11.1035c2.41504 -5.95605 4.11621 -7.54395 5.59961 -12.9385c1.65332 -6.00879 2.8457 -12.3828 3.81152 -18.9004
c5.77832 0.926758 11.5254 2.02344 17.168 3.5459c11.251 3.03711 43.3076 12.2646 22.6367 26.0693z" />
    <glyph glyph-name="J" unicode="J" horiz-adv-x="654" 
d="M543.278 36.7666c-15.3057 -77.3438 -43.6846 -155.357 -104.991 -208.468c-62.3428 -53.9893 -148.614 -68.6387 -226.598 -43.208c-73.2109 23.873 -126.904 85.6719 -169.925 146.73c-43.8076 62.1816 -84.6611 137.629 -83.752 215.887
c0.400391 34.6064 13.4658 66.9893 46.1621 82.3301c32.7266 15.3535 71.8877 11.8203 106.946 10.9023c104.297 -2.73633 208.868 -12.3213 313.322 -15.6797c-0.586914 69.2168 -0.856445 138.416 -0.0302734 207.646c1.00488 84.4053 4.27246 169.128 10.6377 253.298
c3.1543 41.7324 6.88281 83.0303 12.8477 124.463c0.508789 3.52832 0.992188 7.06543 1.4707 10.6025c-14.7705 -4.86816 -30.0195 -8.25293 -45.1211 -10.3809c-97.9531 -13.7881 -220.924 37.7686 -306.534 -28.5371
c-8.33594 -6.45703 -20.5137 -8.24512 -30.5078 -4.55957c-6.30469 2.32324 -16.4463 10.8115 -8.00098 17.3896c67.002 52.1963 152.099 48.207 232.288 41.7637c44.2129 -3.5498 90.3008 -7.44824 133.19 6.52637c5.75195 1.875 17.3252 7.32227 29.7773 14.7275
c4.04199 26.4443 9.60254 52.4971 21.1064 76.9004c5.17285 10.9688 24.4814 13.7441 34.8838 11.29c17.6904 -4.17285 36.377 -14.9023 36.3643 -35.7822c-0.00390625 -6.80859 -1.95312 -13.4521 -5.02441 -19.7695c6.36523 -37.5908 6.07812 -77.0527 8.58008 -114.495
c3.42383 -51.1914 3.13672 -103.214 3.11914 -154.522c-0.0390625 -105.885 0.556641 -211.848 2.23633 -317.72c0.417969 -26.2139 1.00977 -52.4844 1.20996 -78.7412c38.3867 1.56641 76.7305 4.69922 115.021 10.1025c7.4707 1.05762 25.2354 0.457031 28.3066 -9.1582
c3.11523 -9.75879 -7.98828 -14.9844 -16.0723 -16.1328c-42.3721 -6.02148 -84.7793 -9.38867 -127.213 -10.959c-0.265625 -54.4502 -3.08105 -108.778 -13.7012 -162.445zM403.011 -44.5752c20.5752 74.4727 22.5596 152.791 21.7891 229.626
c-0.0478516 4.7334 -0.0830078 9.4668 -0.126953 14.2002c-100.242 3.09766 -200.559 11.5557 -300.827 14.5928c-30.8428 0.935547 -83.9873 11.2646 -105.476 -17.4941c-19.8828 -26.6094 -14.0439 -67.7764 -7.67871 -98.0186
c15.5498 -73.8672 60.7676 -142.2 110.501 -197.673c41.4414 -46.2275 113.134 -96.6836 179.2 -80.8252c58.5137 14.0488 88.2734 83.6787 102.618 135.592z" />
    <glyph glyph-name="K" unicode="K" horiz-adv-x="850" 
d="M418.647 -54.6514c-27.8926 69.6514 -21.8789 145.057 -20.0947 218.468c0.848633 34.8711 -0.539062 70.1426 -5.56445 104.671c-2.31934 15.9111 -5.00391 32.2617 -9.41992 47.707c-1.0918 3.82031 -3.78906 16.916 -7.4043 18.9482
c-0.834961 0.469727 -19.0254 -6.73535 -22.7236 -8.12793c-1.81836 -0.682617 -3.81543 -1.0918 -5.88672 -1.28711c-0.700195 -0.347656 -1.37012 -0.739258 -2.0752 -1.08301c-4.87305 -2.3584 -9.79785 -4.55078 -14.7578 -6.62598
c-2.88477 -71.8311 -6.58301 -143.628 -12.3213 -215.285c-8.03125 -100.255 -17.2637 -203.703 -56.7773 -297.054c-10.3154 -24.3691 -78.958 -24.6777 -80.2549 6.19141c-4.07227 96.9004 8.91895 194.058 14.0703 290.862
c3.44141 64.7227 6.14746 129.527 8.59277 194.332c-28.6758 2.34473 -57.1211 9.58887 -84.3965 22.1279c-70.7832 32.5391 -123.615 95.625 -145.03 170.337c-22.9111 79.9365 -13.9961 167.457 21.8896 242.286c32.3047 67.3584 95.2871 144.737 177.447 140.443
c90.0439 -4.70801 132.729 -90.9229 146.561 -169.638c17.0547 -97.0576 16.7197 -198.239 13.4395 -296.401c-0.583008 -17.4727 -1.20117 -34.9414 -1.84473 -52.4102c20.5098 11.8906 39.6406 26.3652 56.791 42.0713c56.6387 51.8789 101.578 118.994 138.864 185.718
c38.374 68.668 65.5625 143.671 59.9326 223.352c-1.24414 17.6123 44.7178 18.2607 46.0234 0.000976562c7.26172 -101.604 -37.3818 -196.351 -91.1748 -279.725c-38.1826 -59.1797 -81.4473 -119.038 -137.264 -162.902
c15.1934 -1.70508 30.0557 -6.63477 43.9648 -15.7803c32.5049 -21.3711 52.0488 -59.0273 62.8213 -95.335c20.584 -69.3818 11.5869 -141.987 15.4287 -213.157c1.82715 -33.7969 3.5498 -66.3838 9.10156 -99.8105c4.13281 -24.873 11.2549 -65.4395 42.2451 -69.3506
c35.9336 -4.53809 72.7979 30.6768 96.0791 53.627c27.2529 26.8613 50.999 56.9863 71.9521 88.9688c39.9316 60.9375 70.4521 127.374 100.664 193.479c7.42285 16.2461 54.5596 11.251 46.2148 -7.26172c-35.7285 -79.2451 -72.1621 -158.926 -124.154 -229.096
c-42.085 -56.7998 -97.7314 -118.159 -170.664 -131.024c-77.2393 -13.627 -151.725 36.4678 -180.274 107.764zM187.77 326.375c5.76953 -1.30957 11.5283 -2.25879 17.2803 -2.9375c0.905273 24.708 1.77539 49.4072 2.63281 74.1064
c3.01953 86.9551 7.50098 174.314 4.71191 261.33c-1.20508 37.4775 -2.58008 77.7314 -10.877 114.392c-4.17285 18.4258 -16.3594 67.6465 -41.002 68.6426c-32.2695 1.30566 -66.9277 -41.2539 -84.6309 -63.7871c-23.1719 -29.4941 -40.4014 -63.9043 -51.9053 -99.5195
c-23.1807 -71.7754 -20.9443 -153.797 10.8555 -222.617c28.8369 -62.416 84.8662 -114.155 152.935 -129.609z" />
    <glyph glyph-name="L" unicode="L" horiz-adv-x="472" 
d="M513.806 196.158c-61.8418 -61.8682 -137.691 -101.22 -215.031 -138.423c-3.6543 -70.0215 -13.1914 -139.86 -42.9033 -203.525c-39.0791 -83.7354 -125.673 -144.425 -219.567 -115.688c-36.3809 11.1377 -62.3506 38.9346 -66.6582 77.1475
c-5.08594 45.1436 19.3311 84.9316 51.5703 114.421c41.6025 38.0518 89.1309 66.915 138.747 92.5498c2.75 50.8955 3.62402 101.874 6.63477 152.948c2.47949 42.1377 6.06934 84.1797 9.76758 126.213c-39.0957 -14.4707 -82.7207 -11.1338 -120.455 7.59668
c-44.1211 21.9014 -72.5537 65.4004 -84.501 112.202c-14.1006 55.2422 -6.03418 111.75 7.16211 166.313c12.208 50.4863 28.3057 101.229 56.7988 145.111c21.9277 33.7754 51.2393 66.585 90.3789 79.9639c40.4014 13.8096 81.0381 1.78418 108.683 -30.251
c31.1211 -36.0547 44.9004 -87.8945 55.0117 -133.291c11.8604 -53.2578 17.0156 -106.746 19.4219 -161.191c4.85547 -109.813 -5.25977 -219.545 -7.30859 -329.293c-0.421875 -22.6631 -0.735352 -45.627 -1.44922 -68.6729c64 31.5654 125.607 66.8242 176.834 118.15
c10.7939 10.8115 51.5869 2.44531 36.8643 -12.2822zM160.663 325.635c5.03809 2.43652 11.7393 3.96875 18.126 3.69434c3.44141 39.083 6.80469 78.1709 9.28418 117.328c5.66016 89.3691 8.54492 178.682 5.21191 268.233
c-1.03516 27.7363 -3.29297 91.5625 -47.4277 73.415c-35.9639 -14.7881 -61.707 -53.6104 -79.0752 -86.6201c-36.499 -69.3643 -60.502 -159.295 -55.1553 -237.77c4.67676 -68.6602 63.7256 -179.605 149.036 -138.281zM150.301 -82.3594
c3.30664 23.1162 5.62598 46.249 7.38379 69.4082c-23.9209 -13.5527 -47.2197 -28.1406 -69.4482 -44.4951c-31.4736 -23.1553 -64.5479 -52.8271 -72.9795 -92.7939c-6.67871 -31.6562 7.4834 -80.0674 47.2578 -80.0547
c62.3818 0.0214844 81.2988 102.583 87.7861 147.936z" />
    <glyph glyph-name="M" unicode="M" horiz-adv-x="936" 
d="M707.852 520.861c3.38086 28.6104 7.93457 57.5977 9.6709 86.3213c0.696289 11.4033 1.80566 25.9912 -4.65527 36.1377c-9.03613 14.2012 -24.5117 0.94043 -33.2217 -6.85156c-42.5117 -38.0303 -67.4551 -96.9229 -88.748 -148.536
c-23.2939 -56.4736 -44.2129 -113.965 -64.126 -171.708c-19.0869 -55.3379 -34.1758 -112.882 -55.0986 -167.606c-0.382812 -5.25098 -0.756836 -10.5156 -1.14453 -15.7666c-3.58105 -48.4111 -123.358 -48.0068 -123.115 0
c0.634766 125.599 20.0566 250.427 30.0244 375.46c4.38574 55.0029 8.97559 109.992 10.1504 165.187c0.556641 26.0703 2.94531 53.6758 -1.13184 79.5322c-1.59668 10.1289 -4.38965 20.7627 -11.5029 28.5244c-11.3906 12.4307 -16.7295 9.50684 -26.6406 -0.978516
c-33.8057 -35.7725 -52.9102 -87.1025 -69.752 -132.438c-18.8389 -50.7168 -33.8359 -102.761 -47.4404 -155.097c-50.5645 -194.506 -84.7969 -392.323 -121.713 -589.671c0.586914 -25.2344 0.469727 -50.4863 -0.914062 -75.7822
c-1.54883 -28.3848 -68.2598 -30.5469 -76.5137 -5.9043c-25.9307 77.4131 -35.7812 157.746 -43.8389 238.714c-8.02246 80.6328 -12.0469 161.266 -12.1426 242.299c-0.1875 161.467 12.291 324.874 52.249 481.681c5.67383 22.2588 46.9453 25.082 64.1484 23.8682
c14.6445 -1.03516 53.876 -9.98438 50.6914 -32.7305c-22.0195 -157.22 -41.2197 -313.879 -44.4395 -472.817c-1.36133 -67.2549 -0.630859 -134.701 1.55371 -201.978c9.27148 49.3818 18.9521 98.6895 29.0986 147.896c24.2988 117.871 49.916 236.578 86.4404 351.36
c16.916 53.1709 35.7373 107.903 65.3057 155.562c24.4082 39.3398 59.2012 76.9873 109.349 55.4072c45.3223 -19.5049 73.5674 -76.1777 81.8037 -121.979c10.6553 -59.2617 14.5322 -120.512 14.9678 -180.661c0.452148 -62.4424 -1.39258 -124.98 -4.49902 -187.471
c2.08398 6.04785 4.15918 12.0869 6.2002 18.1084c21.8145 64.3174 44.6904 128.844 72.7617 190.738c20.8926 46.0664 48.5371 101.683 91.6494 131.003c40.9883 27.8799 95.0557 17.8252 120.882 -24.8818c28.2412 -46.7012 35.1934 -109.657 35.2412 -163.067
c0.0605469 -62.1074 -7.08301 -123.049 -15.1494 -184.521c-8.09668 -61.7119 -16.7812 -122.932 -21.1143 -185.065c-2.00977 -28.7764 -3.13184 -57.5566 -3.91895 -86.3936c-0.674805 -24.8428 -5.04297 -51.1914 0.0253906 -75.7773
c3.83301 -18.6123 8.57129 -17.0938 22.498 -5.41211c9.11523 7.64453 17.2559 16.751 24.8223 25.8965c17.3164 20.9316 31.1387 44.9219 43.8086 68.877c25.8525 48.8896 46.4531 100.347 73.6934 148.527c8.43652 14.9229 53.0586 9.2627 43.9219 -6.90039
c-30.7559 -54.3975 -52.9453 -113.133 -84.0186 -167.344c-24.9561 -43.543 -61.3027 -104.458 -116.227 -111.715c-54.7891 -7.23926 -103.879 39.2881 -124.206 86.1592c-23.5068 54.2148 -14.4268 123.779 -7.1875 180.505
c15.4844 121.282 47.1533 239.828 61.502 361.289z" />
    <glyph glyph-name="N" unicode="N" horiz-adv-x="660" 
d="M702.377 177.306c-33.4658 -84.2178 -74.0596 -168.542 -125.416 -243.479c-21.3057 -31.0859 -48.7637 -58.0127 -86.0625 -68.1455c-39.4873 -10.7295 -80.8418 -0.623047 -114.612 21.1133c-70.2871 45.2393 -57.4736 153.482 -50.3994 224.539
c8.37109 84.0488 23.7773 167.923 39.6885 250.836c16.0107 83.4307 29.5195 167.505 38.752 251.967c4.45508 40.7627 9.96777 83.5654 9.17578 124.619c-0.352539 18.208 -5.36914 39.7402 -27.9062 32.8574c-16.1279 -4.9248 -28.21 -20.1914 -36.7549 -33.8789
c-20.5879 -32.9834 -33.6973 -72.04 -47.6064 -108.173c-14.5312 -37.7383 -27.8359 -75.9424 -40.1533 -114.46c-25.0996 -78.4795 -46.0967 -158.217 -65.0918 -238.371c-19.4092 -81.8994 -37.0342 -164.216 -54.9727 -246.441
c-14.7666 -67.7021 -28.0713 -136.388 -50.0996 -202.22c-1.11816 -10.5811 -2.38379 -21.2754 -2.32324 -31.4258c1.16992 -2.32324 1.84863 -4.97266 1.85742 -8.02734c0.00390625 -0.508789 0.00390625 -1.02246 0.00390625 -1.53125
c0.0566406 -20.166 -34.793 -23.2461 -47.8193 -20.7666c-22.9238 4.36816 -33.0176 13.3086 -38.9434 35.4717c-5.75195 21.5186 -8.72754 44.0557 -11.2471 66.1533c-4.83789 42.4287 -8.78809 84.8486 -11.1377 127.486
c-4.83789 87.9072 -6.53516 175.724 -4.40332 263.74c2.13184 87.9297 7.30957 175.642 15.8506 263.184c8.58398 87.9863 18.3779 175.768 41.8027 261.226c9.14941 33.3838 106.872 30.7822 105.023 -8.10059c-3.96387 -83.374 -17.0117 -165.874 -25.2002 -248.887
c-8.07031 -81.8467 -14.0527 -164.003 -17.834 -246.159c-3.8418 -83.5439 -5.66895 -167.345 -5.56445 -250.976c0.00878906 -8.90625 0.104492 -17.8164 0.161133 -26.7227c5.07715 25.1436 10.0107 50.2734 15.2402 75.2168
c18.5693 88.5947 37.5303 177.094 59.5713 264.901c20.04 79.8242 42.5723 159.078 69.7295 236.787c13.3486 38.1914 27.8018 76 43.582 113.251c13.3398 31.4775 27.2012 65.9092 55.4463 87.1064c23.1201 17.3506 54.5371 24.1465 82.7129 17.1543
c34.0576 -8.44922 53.9795 -35.0146 65.7793 -66.4795c29.0332 -77.4053 28.207 -167.814 21.7021 -249.183c-6.72656 -84.1396 -20.1445 -167.271 -32.0479 -250.758c-11.7383 -82.3477 -24.6299 -166.405 -28.9023 -249.519
c-0.957031 -18.6348 -1.08789 -37.252 3.62402 -55.3164c2.38379 -9.14941 4.44141 -28.0146 15.249 -31.6602c16.5244 -5.57812 38.6523 14.4707 48.7812 24.7432c13.8223 14.0225 24.6777 30.5332 35.2588 47.04c44.0781 68.7559 80.3721 142.554 110.667 218.331
c6.39551 16.002 52.2178 11.5254 44.8389 -7.04395z" />
    <glyph glyph-name="O" unicode="O" horiz-adv-x="603" 
d="M112.308 -153.049c-109.039 28.4023 -140.04 153.421 -145.387 251.605c-6.17773 113.643 19.1309 234.973 62.5947 339.778c2.37988 5.73438 8.42285 9.6543 15.8535 11.834c-14.6836 92.6416 2.7373 192.083 43.5957 275.601
c39.4795 80.6982 121.496 183.529 223.939 146.534c97.9971 -35.3896 150.955 -144.024 173.127 -238.393c26.248 -111.715 29.9287 -227.933 17.1982 -341.728c-2.56738 -22.9639 -5.66113 -46.4062 -9.53809 -69.9395c46.8408 2.69336 93.6113 3.12891 140.365 -6.41211
c28.2539 -5.76465 9.87207 -27.8271 -11.4727 -23.7246c-44.1992 8.49316 -88.7422 7.74023 -133.355 4.88184c-15.6191 -82.1299 -42.1328 -163.847 -91.5576 -229.426c-63.1123 -83.7441 -178.256 -148.51 -285.363 -120.612zM95.5381 605.088
c-17.46 -91.6709 -11.0283 -191.745 38.9707 -272.656c22.6631 -36.6768 54.2148 -68.5068 92.2188 -89.1777c40.4668 -22.0059 86.4893 -28.1885 131.968 -28.2148c1.55273 0 3.10547 0.0478516 4.65918 0.0566406c12.3564 57.8047 20.5146 116.506 24.3828 175.585
c6.22168 95.0381 7.01367 191.352 -9.51953 285.407c-11.3125 64.3701 -53.7461 220.65 -146.583 164.855c-77.1006 -46.3359 -120.038 -151.551 -136.097 -235.855zM72.375 359.136c-23.6592 -86.541 -43.1133 -172.853 -37.7051 -264.562
c4.38574 -74.4502 40.4932 -253.824 153.27 -201.763c77.0215 35.5586 118.271 125.42 142.997 201.428c10.1768 31.2998 19.0352 62.9912 26.6055 94.9824c-31.5781 -0.0869141 -63.0645 2.2627 -94.3643 9.64551c-87.1416 20.5576 -154.413 81.6553 -190.803 160.27z" />
    <glyph glyph-name="O" unicode="&#xd6;" horiz-adv-x="603" 
d="M112.308 -153.049c-109.039 28.4023 -140.04 153.421 -145.387 251.605c-6.17773 113.643 19.1309 234.973 62.5947 339.778c2.37988 5.73438 8.42285 9.6543 15.8535 11.834c-14.6836 92.6416 2.7373 192.083 43.5957 275.601
c39.4795 80.6982 121.496 183.529 223.939 146.534c97.9971 -35.3896 150.955 -144.024 173.127 -238.393c26.248 -111.715 29.9287 -227.933 17.1982 -341.728c-2.56738 -22.9639 -5.66113 -46.4062 -9.53809 -69.9395c46.8408 2.69336 93.6113 3.12891 140.365 -6.41211
c28.2539 -5.76465 9.87207 -27.8271 -11.4727 -23.7246c-44.1992 8.49316 -88.7422 7.74023 -133.355 4.88184c-15.6191 -82.1299 -42.1328 -163.847 -91.5576 -229.426c-63.1123 -83.7441 -178.256 -148.51 -285.363 -120.612zM95.5381 605.088
c-17.46 -91.6709 -11.0283 -191.745 38.9707 -272.656c22.6631 -36.6768 54.2148 -68.5068 92.2188 -89.1777c40.4668 -22.0059 86.4893 -28.1885 131.968 -28.2148c1.55273 0 3.10547 0.0478516 4.65918 0.0566406c12.3564 57.8047 20.5146 116.506 24.3828 175.585
c6.22168 95.0381 7.01367 191.352 -9.51953 285.407c-11.3125 64.3701 -53.7461 220.65 -146.583 164.855c-77.1006 -46.3359 -120.038 -151.551 -136.097 -235.855zM72.375 359.136c-23.6592 -86.541 -43.1133 -172.853 -37.7051 -264.562
c4.38574 -74.4502 40.4932 -253.824 153.27 -201.763c77.0215 35.5586 118.271 125.42 142.997 201.428c10.1768 31.2998 19.0352 62.9912 26.6055 94.9824c-31.5781 -0.0869141 -63.0645 2.2627 -94.3643 9.64551c-87.1416 20.5576 -154.413 81.6553 -190.803 160.27z" />
    <glyph glyph-name="O" unicode="&#xd5;" horiz-adv-x="603" 
d="M112.308 -153.049c-109.039 28.4023 -140.04 153.421 -145.387 251.605c-6.17773 113.643 19.1309 234.973 62.5947 339.778c2.37988 5.73438 8.42285 9.6543 15.8535 11.834c-14.6836 92.6416 2.7373 192.083 43.5957 275.601
c39.4795 80.6982 121.496 183.529 223.939 146.534c97.9971 -35.3896 150.955 -144.024 173.127 -238.393c26.248 -111.715 29.9287 -227.933 17.1982 -341.728c-2.56738 -22.9639 -5.66113 -46.4062 -9.53809 -69.9395c46.8408 2.69336 93.6113 3.12891 140.365 -6.41211
c28.2539 -5.76465 9.87207 -27.8271 -11.4727 -23.7246c-44.1992 8.49316 -88.7422 7.74023 -133.355 4.88184c-15.6191 -82.1299 -42.1328 -163.847 -91.5576 -229.426c-63.1123 -83.7441 -178.256 -148.51 -285.363 -120.612zM95.5381 605.088
c-17.46 -91.6709 -11.0283 -191.745 38.9707 -272.656c22.6631 -36.6768 54.2148 -68.5068 92.2188 -89.1777c40.4668 -22.0059 86.4893 -28.1885 131.968 -28.2148c1.55273 0 3.10547 0.0478516 4.65918 0.0566406c12.3564 57.8047 20.5146 116.506 24.3828 175.585
c6.22168 95.0381 7.01367 191.352 -9.51953 285.407c-11.3125 64.3701 -53.7461 220.65 -146.583 164.855c-77.1006 -46.3359 -120.038 -151.551 -136.097 -235.855zM72.375 359.136c-23.6592 -86.541 -43.1133 -172.853 -37.7051 -264.562
c4.38574 -74.4502 40.4932 -253.824 153.27 -201.763c77.0215 35.5586 118.271 125.42 142.997 201.428c10.1768 31.2998 19.0352 62.9912 26.6055 94.9824c-31.5781 -0.0869141 -63.0645 2.2627 -94.3643 9.64551c-87.1416 20.5576 -154.413 81.6553 -190.803 160.27z" />
    <glyph glyph-name="O" unicode="&#xd4;" horiz-adv-x="603" 
d="M112.308 -153.049c-109.039 28.4023 -140.04 153.421 -145.387 251.605c-6.17773 113.643 19.1309 234.973 62.5947 339.778c2.37988 5.73438 8.42285 9.6543 15.8535 11.834c-14.6836 92.6416 2.7373 192.083 43.5957 275.601
c39.4795 80.6982 121.496 183.529 223.939 146.534c97.9971 -35.3896 150.955 -144.024 173.127 -238.393c26.248 -111.715 29.9287 -227.933 17.1982 -341.728c-2.56738 -22.9639 -5.66113 -46.4062 -9.53809 -69.9395c46.8408 2.69336 93.6113 3.12891 140.365 -6.41211
c28.2539 -5.76465 9.87207 -27.8271 -11.4727 -23.7246c-44.1992 8.49316 -88.7422 7.74023 -133.355 4.88184c-15.6191 -82.1299 -42.1328 -163.847 -91.5576 -229.426c-63.1123 -83.7441 -178.256 -148.51 -285.363 -120.612zM95.5381 605.088
c-17.46 -91.6709 -11.0283 -191.745 38.9707 -272.656c22.6631 -36.6768 54.2148 -68.5068 92.2188 -89.1777c40.4668 -22.0059 86.4893 -28.1885 131.968 -28.2148c1.55273 0 3.10547 0.0478516 4.65918 0.0566406c12.3564 57.8047 20.5146 116.506 24.3828 175.585
c6.22168 95.0381 7.01367 191.352 -9.51953 285.407c-11.3125 64.3701 -53.7461 220.65 -146.583 164.855c-77.1006 -46.3359 -120.038 -151.551 -136.097 -235.855zM72.375 359.136c-23.6592 -86.541 -43.1133 -172.853 -37.7051 -264.562
c4.38574 -74.4502 40.4932 -253.824 153.27 -201.763c77.0215 35.5586 118.271 125.42 142.997 201.428c10.1768 31.2998 19.0352 62.9912 26.6055 94.9824c-31.5781 -0.0869141 -63.0645 2.2627 -94.3643 9.64551c-87.1416 20.5576 -154.413 81.6553 -190.803 160.27z" />
    <glyph glyph-name="O" unicode="&#xd3;" horiz-adv-x="603" 
d="M112.308 -153.049c-109.039 28.4023 -140.04 153.421 -145.387 251.605c-6.17773 113.643 19.1309 234.973 62.5947 339.778c2.37988 5.73438 8.42285 9.6543 15.8535 11.834c-14.6836 92.6416 2.7373 192.083 43.5957 275.601
c39.4795 80.6982 121.496 183.529 223.939 146.534c97.9971 -35.3896 150.955 -144.024 173.127 -238.393c26.248 -111.715 29.9287 -227.933 17.1982 -341.728c-2.56738 -22.9639 -5.66113 -46.4062 -9.53809 -69.9395c46.8408 2.69336 93.6113 3.12891 140.365 -6.41211
c28.2539 -5.76465 9.87207 -27.8271 -11.4727 -23.7246c-44.1992 8.49316 -88.7422 7.74023 -133.355 4.88184c-15.6191 -82.1299 -42.1328 -163.847 -91.5576 -229.426c-63.1123 -83.7441 -178.256 -148.51 -285.363 -120.612zM95.5381 605.088
c-17.46 -91.6709 -11.0283 -191.745 38.9707 -272.656c22.6631 -36.6768 54.2148 -68.5068 92.2188 -89.1777c40.4668 -22.0059 86.4893 -28.1885 131.968 -28.2148c1.55273 0 3.10547 0.0478516 4.65918 0.0566406c12.3564 57.8047 20.5146 116.506 24.3828 175.585
c6.22168 95.0381 7.01367 191.352 -9.51953 285.407c-11.3125 64.3701 -53.7461 220.65 -146.583 164.855c-77.1006 -46.3359 -120.038 -151.551 -136.097 -235.855zM72.375 359.136c-23.6592 -86.541 -43.1133 -172.853 -37.7051 -264.562
c4.38574 -74.4502 40.4932 -253.824 153.27 -201.763c77.0215 35.5586 118.271 125.42 142.997 201.428c10.1768 31.2998 19.0352 62.9912 26.6055 94.9824c-31.5781 -0.0869141 -63.0645 2.2627 -94.3643 9.64551c-87.1416 20.5576 -154.413 81.6553 -190.803 160.27z" />
    <glyph glyph-name="P" unicode="P" horiz-adv-x="573" 
d="M93.9131 -157.647c-0.648438 -17.3643 -1.43652 -34.7393 -3.03809 -52.0293c-1.81836 -19.7354 -5.76465 -39.0176 -3.11523 -58.835c1.67969 -12.5693 -19.335 -17.2637 -27.793 -17.9424c-13.2568 -1.06641 -27.0879 1.93555 -35.167 13.0869
c-26.1484 36.0811 -29.873 80.3506 -35.416 123.311c-5.46875 42.3809 -8.21875 85.1533 -9.96777 127.839c-3.60645 88.1465 -4.46387 176.11 -2.04883 264.297c4.80762 175.445 14.5967 353.854 47.4844 526.523c5.05566 26.5225 36.2334 34.1367 59.8926 34.1367
c18.1475 0 62.0684 -7.8623 59.8926 -34.1367c-14.4268 -174.231 -35.0146 -347.414 -42.0801 -522.264c-1.35352 -33.458 -2.44141 -66.9502 -3.38574 -100.447c14.4014 89.4961 30.2773 178.718 51.1006 267.025c21.1055 89.4961 46.2705 178.904 83.9355 262.996
c28.0449 62.6123 71.709 159.578 158.037 134.766c80.0547 -23.0117 104.497 -123.049 112.354 -195.25c9.73242 -89.4131 5.72559 -181.872 -13.2393 -269.814c-11.1992 -51.9443 -26.2793 -106.964 -53.0146 -154.165
c2.02734 -0.00878906 4.05469 -0.0566406 6.08691 -0.0527344c47.4492 0.134766 94.6465 3.83301 141.608 10.5547c7.46582 1.06641 25.2393 0.444336 28.3066 -9.16211c3.11914 -9.7627 -7.98828 -14.9746 -16.0723 -16.1318
c-58.8447 -8.41895 -117.115 -10.8643 -175.712 -10.1289c-14.6055 -20.5576 -32.0605 -38.9785 -53.1875 -54.1318c-35.6455 -25.5693 -80.2588 -40.8018 -124.397 -39.6572c-33.249 0.861328 -76.1523 8.02734 -96.3223 37.7822
c-4.15527 6.12598 -6.87012 12.2998 -8.38867 18.3652c-15.4844 -95.5088 -29.5547 -191.252 -46.3535 -286.534zM241.187 116.846c25.3477 10.8467 44.7871 30.7744 60.3799 54.3467c-13.0352 0.443359 -26.0791 0.65625 -39.1318 0.369141
c-18.9648 -0.417969 -41.9453 0.416992 -59.7617 -7.20605c-19.4697 -8.32715 -21.0537 -32.4912 -4.0332 -44.7734c12.8916 -9.30176 28.5244 -8.73633 42.5469 -2.73633zM161.615 253.34c-5.45996 -29.668 -10.542 -59.3906 -15.4971 -89.1367
c5.96973 9.11523 15.3809 16.7031 27.4502 21.7539c37.2734 15.6016 83.4922 13 122.963 11.708c6.66504 -0.217773 13.3262 -0.500977 19.9824 -0.814453c12.917 24.9688 22.8105 51.6348 31.5947 74.8945c26.4307 69.9863 39.8438 144.28 47.8838 218.457
c7.91406 73.0537 14.0439 147.521 3.14941 220.523c-3.01953 20.2178 -7.66602 83.1562 -39.6006 75.3857c-32.6963 -7.95801 -52.5312 -58.1309 -65.9141 -84.7314c-69.9951 -139.134 -104.001 -295.871 -132.012 -448.04z" />
    <glyph glyph-name="Q" unicode="Q" horiz-adv-x="603" 
d="M397.667 -32.4365c-43.0332 -57.0996 -110.261 -105.34 -182.636 -121.446c13.6445 -31.2168 31 -60.4023 54.6426 -86.877c17.5205 -19.6221 40.1494 -39.1748 67.3857 -42.2295c29.8555 -3.3457 54.9072 19.3047 58.832 48.2285
c2.44531 18.0127 47.2979 17.1904 45.5488 0c-5.55176 -54.5977 -60.0498 -79.8848 -109.988 -76.1084c-56.0342 4.24219 -103.253 41.7764 -136.937 84.5225c-16.0938 20.4229 -27.9756 43.0771 -37.1689 66.8887c-15.0625 0.491211 -30.1338 2.51855 -45.0479 6.4043
c-109.039 28.4023 -140.038 153.422 -145.377 251.61c-6.17773 113.643 19.1309 234.973 62.5947 339.778c2.37988 5.73438 8.42285 9.6543 15.8535 11.834c-14.6836 92.6416 2.7373 192.083 43.5957 275.601c39.4795 80.6982 121.496 183.529 223.939 146.534
c97.9971 -35.3896 150.955 -144.024 173.127 -238.393c26.248 -111.715 29.9287 -227.933 17.1982 -341.728c-2.56738 -22.9639 -5.66113 -46.4062 -9.53809 -69.9395c46.8408 2.69336 93.6113 3.12891 140.365 -6.41211c28.25 -5.76465 9.86816 -27.8271 -11.4766 -23.7246
c-44.2041 8.49316 -88.7432 7.74023 -133.356 4.88184c-15.6191 -82.1299 -42.1328 -163.847 -91.5576 -229.426zM95.5312 605.089c-17.46 -91.6709 -11.0293 -191.745 38.9658 -272.656c22.6631 -36.6768 54.2148 -68.5068 92.2188 -89.1777
c40.4668 -22.0059 86.4893 -28.1885 131.968 -28.2148c1.55273 0 3.10547 0.0478516 4.65918 0.0566406c12.3564 57.8047 20.5146 116.506 24.3828 175.585c6.22168 95.0381 7.01367 191.352 -9.51953 285.407c-11.3125 64.3701 -53.7461 220.65 -146.583 164.855
c-77.0957 -46.3359 -120.033 -151.551 -136.092 -235.855zM37.2217 67.4209c8.75391 -69.6123 37.9463 -177.697 106.367 -183.649c-4.32031 16.4717 -7.85352 33.1787 -10.9902 49.8115c-5.92188 31.3906 -12.4346 62.3945 -26.5264 91.3486
c-10.6289 21.8369 -36.2812 60.4062 -65.0967 44.2129c-1.14844 -0.648438 -2.41406 -1.21875 -3.75391 -1.72363zM196.237 -103.036c71.7012 38 110.871 124.058 134.691 197.277c10.1768 31.2998 19.0352 62.9912 26.6055 94.9824
c-31.5781 -0.0869141 -63.0645 2.2627 -94.3643 9.64551c-87.1416 20.5576 -154.409 81.6553 -190.804 160.27c-23.3721 -85.5146 -42.5898 -170.816 -37.8301 -261.304c36.4688 7.63086 75.7822 -7.21387 99.4893 -37.1816
c33.127 -41.876 43.4121 -99.6152 57.9873 -149.754c1.35742 -4.68164 2.77539 -9.31934 4.22461 -13.9355z" />
    <glyph glyph-name="R" unicode="R" horiz-adv-x="605" 
d="M96.6748 -198.736c0.535156 -19.3086 2.12988 -38.5283 6.28516 -57.4844c3.79785 -17.2773 -28.2061 -24.1904 -38.9307 -25.1348c-15.5234 -1.36621 -41.5322 1.78809 -49.2637 18.334c-33.292 71.2568 -31.373 159.678 -34.8535 236.795
c-6.47852 143.528 -4.62109 287.344 3.41895 430.768c8.00586 142.771 17.7686 289.114 54.0449 427.931c9.13184 34.9502 112.163 32.0049 109.696 -8.46191c-5.5166 -90.4229 -18.7041 -180.497 -27.4404 -270.663c-8.78027 -90.5791 -14.6797 -181.433 -18.0732 -272.368
c-1.1875 -31.8691 -2.07031 -63.7695 -2.80957 -95.6738c2.89746 15.5674 5.88672 31.1172 9.04102 46.6406c4.38965 21.6104 8.94531 43.2686 13.7178 64.918c-2.71973 5.76953 -1.5625 12.1475 3.96777 17.7207c22.9072 100.956 51.5527 201.289 95.7178 294.691
c23.4512 49.5898 51.0615 109.592 96.3789 143.11c43.9951 32.5439 104.384 31.8691 142.688 -8.54492c87.377 -92.1934 61.3379 -233.72 -4.97656 -330.386c-33.4355 -48.7422 -76.4912 -95.2998 -130.424 -121.396c-25.8135 -12.4863 -55.4297 -21.7227 -85.459 -25.1074
c32.0566 -28.5195 56.8477 -64.209 72.7627 -105.555c23.8555 -61.96 29.1113 -129.11 58.3838 -189.465c9.59375 -19.7832 25.9219 -47.3711 51.6963 -39.0742c28.959 9.32422 51.7617 45.7881 69.3125 68.46c43.499 56.1855 79.0664 118.489 114.329 180.022
c8.00586 13.9707 49.8125 8.53613 41.168 -6.46973c-40.0273 -69.4824 -81.6602 -138.007 -130.146 -201.994c-19.9658 -26.3486 -40.6279 -53.3457 -71.8662 -66.6377c-31.4688 -13.3916 -68.7119 -10.6943 -101.243 -2.6543
c-39.1221 9.66699 -74.3896 38.3652 -95.835 71.8447c-21.127 32.9834 -26.6572 74.1943 -32.6875 112.133c-8.54492 53.7451 -15.7715 129.175 -57.4951 170.733c-32.6572 -150.333 -51.7568 -304.39 -61.1064 -457.032zM267.445 605.791
c-23.1465 -48.2852 -41.8594 -98.5811 -57.8008 -149.672c-13.5654 -43.5166 -25.7305 -87.5859 -36.6768 -132.042c2.10156 -0.421875 4.14648 -0.917969 6.11719 -1.4707c41.3633 -11.6338 87.1465 29.4678 115.4 54.9805
c38.9834 35.1982 69.1514 77.4053 92.6455 124.259c23.5723 47.002 37.1729 96.7441 43.334 148.818c2.85449 24.1426 3.72852 56.1387 -9.60254 77.7363c-16.6328 26.957 -46.2881 23.9463 -68.751 6.45605c-39.248 -30.5596 -63.665 -85.2617 -84.666 -129.065z" />
    <glyph glyph-name="S" unicode="S" horiz-adv-x="484" 
d="M502.091 238.695c21.21 3.75879 39.1914 -17.4756 11.3467 -23.4707c-81.8252 -17.6035 -157.742 -55.8945 -222.887 -108.126c-0.260742 -0.208984 -0.517578 -0.426758 -0.77832 -0.639648c20.9053 -36.0684 38.5566 -73.7285 48.3027 -113.743
c9.08398 -37.3037 17.5938 -79.2324 3.64551 -116.323c-13.5225 -35.959 -39.4746 -66.8018 -70.3301 -89.2822c-55.124 -40.1621 -148.344 -44.8525 -190.067 17.7598c-45.9482 68.9473 14.7236 149.476 57.2871 202.516c14.4053 17.9512 29.6807 35.3457 45.7607 52.0176
c-80.4072 129.07 -193.471 241.873 -216.438 398.001c-20.7666 141.157 70.6523 290.729 215.368 315.693c60.7109 10.4727 133.112 -5.26855 174.571 -53.6621c50.4209 -58.8535 35.6934 -144.329 7.91406 -209.647c-10.0547 -23.6465 -77.749 -15.959 -65.9453 10.3633
c18.5557 41.376 47.6191 92.2979 38.5957 139.26c-7.61426 39.6396 -40.041 69.0029 -77.292 81.0898c-80.0107 25.957 -157.137 -30.1113 -180.753 -105.293c-47.8545 -152.347 59.6357 -303.798 140.312 -422.835c16.8203 -24.8164 34.4189 -50.1035 50.9473 -76.1387
c68.2988 50.5342 146.091 87.5117 230.439 102.461zM244.794 -188.332c27.8672 28.8066 18.498 71.25 9.57031 106.121c-9.75 38.0732 -30.5205 73.376 -49.7207 107.417c-1.50098 -1.67969 -3.01953 -3.3418 -4.50293 -5.03418
c-28.4102 -32.4395 -57.7734 -67.8115 -75.7725 -107.291c-16.2676 -35.6807 -20.2568 -83.2178 11.5693 -111.842c31.8213 -28.6152 80.6064 -18.5693 108.856 10.6289z" />
    <glyph glyph-name="T" unicode="T" horiz-adv-x="662" 
d="M845.76 756.126c14.0752 37.1729 17.7881 81.0986 -21.9863 103.157c-32.3135 17.9297 -74.4941 17.8779 -110.283 15.3848c-47.9541 -3.33691 -95.7822 -13.165 -142.792 -25.8389c-13.2871 -169.276 -32.6045 -338.1 -41.8633 -507.68
c-4.65137 -85.1494 -8.13672 -170.442 -9.79004 -255.705c-0.822266 -42.5938 -1.32715 -85.3838 -3.82031 -127.917c-1.08789 -18.5908 -3.19336 -37.1338 -4.32031 -55.7158c-1.00977 -16.7109 -0.0566406 -37.0723 -10.0195 -51.3691
c-9.14551 -13.126 -28.7324 -14.4443 -42.8896 -9.94531c-46.54 14.793 -52.9404 57.3262 -57.8262 99.9766c-4.84277 42.2852 -6.4834 85.375 -6.83984 127.917c-0.726562 86.7246 0.526367 173.366 4.83398 259.99c0.626953 12.6133 1.30176 25.2266 1.99805 37.835
c-1.89648 39.7266 -5.3252 79.3711 -10.8242 118.658c-9.75488 69.6689 -28.498 139.481 -67.2852 198.957c-14.8105 22.7109 -33.4277 43.9121 -54.5723 61.8115c-0.547852 -0.200195 -1.0957 -0.404297 -1.64355 -0.604492
c-67.3506 -24.6084 -135.832 -51.4658 -205.919 -67.2246c-27.9717 -6.29102 -66.0762 -11.7598 -91.3066 5.94336c-24.3691 17.0986 -13.9922 44.1475 0.404297 64.252c31.2773 43.6816 82.5469 69.0596 134.887 76.8389c65.083 9.67578 126.103 -7.91895 177.042 -42.4727
c2.04883 0.756836 4.09375 1.51367 6.14258 2.27539c56.29 20.8799 113.09 42.2334 170.646 61.085c0.308594 1.45703 0.591797 2.92285 0.905273 4.37988c5.3125 24.7734 33.4404 31.9697 56.0859 31.9697c9.29785 0 25.665 -2.18848 38.3389 -8.14941
c38.7607 10.0635 77.9131 18.3301 117.553 23.8379c59.0527 8.20605 127.086 11.0166 182.036 -16.1318c54.75 -27.0527 60.041 -80.1973 40.2402 -132.92c-6.35254 -16.916 -54.6025 -12.3262 -47.1318 7.4043zM99.0537 718.727
c47.0625 14.5879 93.4834 31.0947 139.728 48.0674c-56.9131 36.1553 -126.013 47.3193 -188.825 5.86914c-16.4678 -10.8682 -50.4434 -38.291 -48.8076 -60.8936c2.12305 -29.3242 81.8164 1.9707 97.9053 6.95703zM382.51 668.845
c14.8018 -27.127 25.9873 -55.9893 34.584 -85.6836c8.11426 76.582 18.917 152.838 33.7188 228.555c-47.6104 -16.0547 -94.751 -33.4443 -141.888 -50.834c29.4854 -25.5742 54.5195 -57.0957 73.585 -92.0371z" />
    <glyph glyph-name="U" unicode="U" horiz-adv-x="702" 
d="M624.154 -85.7725c-18.5039 -29.3369 -46.0303 -50.3691 -82.0029 -49.9736c-39.6055 0.448242 -73.7764 28.6504 -97.0703 58.4971c-57.7695 74.0244 -57.1777 181.894 -59.7227 271.185c-3.94141 138.425 8.9541 276.476 21.5674 414.413
c-9.91113 -36.4727 -20.0791 -72.876 -31.208 -109.001c-17.4375 -56.6123 -35.6104 -113.063 -55.1279 -168.997c-18.9043 -54.1719 -38.2041 -109.522 -67.5107 -159.112c-24.0684 -40.7275 -60.0234 -69.6992 -109.588 -66.8975
c-27.123 1.53125 -55.79 12.1729 -73.6328 33.2783c-16.1064 19.0566 -23.7207 42.8164 -30.2734 66.4238c-31.7959 114.548 -14.5146 235.408 0.77832 351.113c7.77051 58.7969 13.6006 117.711 16.6465 176.912c0.761719 14.8105 2.89746 29.4209 2.32715 44.3096
c-0.370117 9.72363 -0.00878906 29.7158 -7.63184 37.4385c-15.3975 15.5977 -44.4219 -35.5195 -50.4697 -46.9922c-7.1875 -13.6357 -48.0322 -9.45508 -40.249 6.3252c20.3965 41.3457 66.1055 97.2363 117.014 64.7363
c21.6318 -13.8135 38.6611 -41.3408 50.6777 -63.3994c15.041 -27.6191 21.9238 -56.7256 25.709 -87.8252c14.2441 -116.953 -6.24414 -235.938 -10.1992 -352.975c-1.83203 -54.2803 -4.58203 -114.034 7.96094 -167.336
c1.47949 -6.2959 5.66504 -26.5791 11.5469 -29.7598c6.2168 -3.36328 22.8799 9.87598 26.7002 13.2344c19.7617 17.3896 31.3525 41.667 42.417 65.0654c48.5283 102.64 80.4541 215.717 111.396 324.708c27.3486 96.335 49.9209 194.027 79.3145 289.779
c0.395508 1.28809 1.07812 2.43262 1.96094 3.46387c12.917 37.8564 112.854 35.1416 112.685 -6.87793c-0.217773 -54.2803 0.117188 -108.165 -3.09375 -162.402c-3.04102 -51.3223 -8.0752 -102.496 -12.709 -153.696
c-8.36621 -92.376 -17.2285 -184.869 -22.6152 -277.476c-2.64941 -45.5879 -4.98145 -91.1445 -7.16113 -136.754c-1.91406 -39.9971 -5.13379 -80.877 0.735352 -120.704c3.53711 -24.0078 16.8115 -91.876 54.3584 -83.1221
c32.3223 7.53516 49.0166 62.4678 60.0547 88.3418c35.3418 82.835 65.8105 167.684 96.3311 252.38c5.3125 14.7363 47.2109 11.1162 41.168 -6.46973c-18.8691 -54.8984 -37.6084 -109.866 -58.0791 -164.19c-18.4209 -48.8984 -34.9844 -103.218 -63.0039 -147.644z" />
    <glyph glyph-name="U" unicode="&#xdc;" horiz-adv-x="702" 
d="M624.154 -85.7725c-18.5039 -29.3369 -46.0303 -50.3691 -82.0029 -49.9736c-39.6055 0.448242 -73.7764 28.6504 -97.0703 58.4971c-57.7695 74.0244 -57.1777 181.894 -59.7227 271.185c-3.94141 138.425 8.9541 276.476 21.5674 414.413
c-9.91113 -36.4727 -20.0791 -72.876 -31.208 -109.001c-17.4375 -56.6123 -35.6104 -113.063 -55.1279 -168.997c-18.9043 -54.1719 -38.2041 -109.522 -67.5107 -159.112c-24.0684 -40.7275 -60.0234 -69.6992 -109.588 -66.8975
c-27.123 1.53125 -55.79 12.1729 -73.6328 33.2783c-16.1064 19.0566 -23.7207 42.8164 -30.2734 66.4238c-31.7959 114.548 -14.5146 235.408 0.77832 351.113c7.77051 58.7969 13.6006 117.711 16.6465 176.912c0.761719 14.8105 2.89746 29.4209 2.32715 44.3096
c-0.370117 9.72363 -0.00878906 29.7158 -7.63184 37.4385c-15.3975 15.5977 -44.4219 -35.5195 -50.4697 -46.9922c-7.1875 -13.6357 -48.0322 -9.45508 -40.249 6.3252c20.3965 41.3457 66.1055 97.2363 117.014 64.7363
c21.6318 -13.8135 38.6611 -41.3408 50.6777 -63.3994c15.041 -27.6191 21.9238 -56.7256 25.709 -87.8252c14.2441 -116.953 -6.24414 -235.938 -10.1992 -352.975c-1.83203 -54.2803 -4.58203 -114.034 7.96094 -167.336
c1.47949 -6.2959 5.66504 -26.5791 11.5469 -29.7598c6.2168 -3.36328 22.8799 9.87598 26.7002 13.2344c19.7617 17.3896 31.3525 41.667 42.417 65.0654c48.5283 102.64 80.4541 215.717 111.396 324.708c27.3486 96.335 49.9209 194.027 79.3145 289.779
c0.395508 1.28809 1.07812 2.43262 1.96094 3.46387c12.917 37.8564 112.854 35.1416 112.685 -6.87793c-0.217773 -54.2803 0.117188 -108.165 -3.09375 -162.402c-3.04102 -51.3223 -8.0752 -102.496 -12.709 -153.696
c-8.36621 -92.376 -17.2285 -184.869 -22.6152 -277.476c-2.64941 -45.5879 -4.98145 -91.1445 -7.16113 -136.754c-1.91406 -39.9971 -5.13379 -80.877 0.735352 -120.704c3.53711 -24.0078 16.8115 -91.876 54.3584 -83.1221
c32.3223 7.53516 49.0166 62.4678 60.0547 88.3418c35.3418 82.835 65.8105 167.684 96.3311 252.38c5.3125 14.7363 47.2109 11.1162 41.168 -6.46973c-18.8691 -54.8984 -37.6084 -109.866 -58.0791 -164.19c-18.4209 -48.8984 -34.9844 -103.218 -63.0039 -147.644z" />
    <glyph glyph-name="U" unicode="&#xdb;" horiz-adv-x="702" 
d="M624.154 -85.7725c-18.5039 -29.3369 -46.0303 -50.3691 -82.0029 -49.9736c-39.6055 0.448242 -73.7764 28.6504 -97.0703 58.4971c-57.7695 74.0244 -57.1777 181.894 -59.7227 271.185c-3.94141 138.425 8.9541 276.476 21.5674 414.413
c-9.91113 -36.4727 -20.0791 -72.876 -31.208 -109.001c-17.4375 -56.6123 -35.6104 -113.063 -55.1279 -168.997c-18.9043 -54.1719 -38.2041 -109.522 -67.5107 -159.112c-24.0684 -40.7275 -60.0234 -69.6992 -109.588 -66.8975
c-27.123 1.53125 -55.79 12.1729 -73.6328 33.2783c-16.1064 19.0566 -23.7207 42.8164 -30.2734 66.4238c-31.7959 114.548 -14.5146 235.408 0.77832 351.113c7.77051 58.7969 13.6006 117.711 16.6465 176.912c0.761719 14.8105 2.89746 29.4209 2.32715 44.3096
c-0.370117 9.72363 -0.00878906 29.7158 -7.63184 37.4385c-15.3975 15.5977 -44.4219 -35.5195 -50.4697 -46.9922c-7.1875 -13.6357 -48.0322 -9.45508 -40.249 6.3252c20.3965 41.3457 66.1055 97.2363 117.014 64.7363
c21.6318 -13.8135 38.6611 -41.3408 50.6777 -63.3994c15.041 -27.6191 21.9238 -56.7256 25.709 -87.8252c14.2441 -116.953 -6.24414 -235.938 -10.1992 -352.975c-1.83203 -54.2803 -4.58203 -114.034 7.96094 -167.336
c1.47949 -6.2959 5.66504 -26.5791 11.5469 -29.7598c6.2168 -3.36328 22.8799 9.87598 26.7002 13.2344c19.7617 17.3896 31.3525 41.667 42.417 65.0654c48.5283 102.64 80.4541 215.717 111.396 324.708c27.3486 96.335 49.9209 194.027 79.3145 289.779
c0.395508 1.28809 1.07812 2.43262 1.96094 3.46387c12.917 37.8564 112.854 35.1416 112.685 -6.87793c-0.217773 -54.2803 0.117188 -108.165 -3.09375 -162.402c-3.04102 -51.3223 -8.0752 -102.496 -12.709 -153.696
c-8.36621 -92.376 -17.2285 -184.869 -22.6152 -277.476c-2.64941 -45.5879 -4.98145 -91.1445 -7.16113 -136.754c-1.91406 -39.9971 -5.13379 -80.877 0.735352 -120.704c3.53711 -24.0078 16.8115 -91.876 54.3584 -83.1221
c32.3223 7.53516 49.0166 62.4678 60.0547 88.3418c35.3418 82.835 65.8105 167.684 96.3311 252.38c5.3125 14.7363 47.2109 11.1162 41.168 -6.46973c-18.8691 -54.8984 -37.6084 -109.866 -58.0791 -164.19c-18.4209 -48.8984 -34.9844 -103.218 -63.0039 -147.644z" />
    <glyph glyph-name="U" unicode="&#xda;" horiz-adv-x="702" 
d="M624.154 -85.7725c-18.5039 -29.3369 -46.0303 -50.3691 -82.0029 -49.9736c-39.6055 0.448242 -73.7764 28.6504 -97.0703 58.4971c-57.7695 74.0244 -57.1777 181.894 -59.7227 271.185c-3.94141 138.425 8.9541 276.476 21.5674 414.413
c-9.91113 -36.4727 -20.0791 -72.876 -31.208 -109.001c-17.4375 -56.6123 -35.6104 -113.063 -55.1279 -168.997c-18.9043 -54.1719 -38.2041 -109.522 -67.5107 -159.112c-24.0684 -40.7275 -60.0234 -69.6992 -109.588 -66.8975
c-27.123 1.53125 -55.79 12.1729 -73.6328 33.2783c-16.1064 19.0566 -23.7207 42.8164 -30.2734 66.4238c-31.7959 114.548 -14.5146 235.408 0.77832 351.113c7.77051 58.7969 13.6006 117.711 16.6465 176.912c0.761719 14.8105 2.89746 29.4209 2.32715 44.3096
c-0.370117 9.72363 -0.00878906 29.7158 -7.63184 37.4385c-15.3975 15.5977 -44.4219 -35.5195 -50.4697 -46.9922c-7.1875 -13.6357 -48.0322 -9.45508 -40.249 6.3252c20.3965 41.3457 66.1055 97.2363 117.014 64.7363
c21.6318 -13.8135 38.6611 -41.3408 50.6777 -63.3994c15.041 -27.6191 21.9238 -56.7256 25.709 -87.8252c14.2441 -116.953 -6.24414 -235.938 -10.1992 -352.975c-1.83203 -54.2803 -4.58203 -114.034 7.96094 -167.336
c1.47949 -6.2959 5.66504 -26.5791 11.5469 -29.7598c6.2168 -3.36328 22.8799 9.87598 26.7002 13.2344c19.7617 17.3896 31.3525 41.667 42.417 65.0654c48.5283 102.64 80.4541 215.717 111.396 324.708c27.3486 96.335 49.9209 194.027 79.3145 289.779
c0.395508 1.28809 1.07812 2.43262 1.96094 3.46387c12.917 37.8564 112.854 35.1416 112.685 -6.87793c-0.217773 -54.2803 0.117188 -108.165 -3.09375 -162.402c-3.04102 -51.3223 -8.0752 -102.496 -12.709 -153.696
c-8.36621 -92.376 -17.2285 -184.869 -22.6152 -277.476c-2.64941 -45.5879 -4.98145 -91.1445 -7.16113 -136.754c-1.91406 -39.9971 -5.13379 -80.877 0.735352 -120.704c3.53711 -24.0078 16.8115 -91.876 54.3584 -83.1221
c32.3223 7.53516 49.0166 62.4678 60.0547 88.3418c35.3418 82.835 65.8105 167.684 96.3311 252.38c5.3125 14.7363 47.2109 11.1162 41.168 -6.46973c-18.8691 -54.8984 -37.6084 -109.866 -58.0791 -164.19c-18.4209 -48.8984 -34.9844 -103.218 -63.0039 -147.644z" />
    <glyph glyph-name="V" unicode="V" horiz-adv-x="627" 
d="M655.281 176.945c-51.9443 -17.8291 -115.607 -36.3135 -176.558 -38.084c-10.3682 -29.6553 -21.2969 -59.0752 -32.8828 -88.1904c-35.6025 -89.4697 -86.8203 -220.938 -197.608 -234.93c-57.3438 -7.23926 -117.789 21.25 -156.929 62.0693
c-41.4717 43.251 -56.6904 99.0674 -66.7539 156.394c-22.7324 129.527 -28.5537 262.844 -34.6406 394.033c-3.00195 64.6748 -6.1123 129.371 -9.86719 194.002c-3.89844 67.1543 -4.99512 133.891 -7.03516 201.089c-0.917969 30.2295 73.1846 31.8916 81.1904 6.26074
c19.6523 -62.9121 35.4287 -125.137 44.3047 -190.529c8.74902 -64.4785 14.9316 -129.083 20.2227 -193.927c10.4287 -127.874 18.2344 -255.979 28.5459 -383.879c3.85059 -47.7852 6.83984 -99.3984 25.4131 -144.159c13.8047 -33.2656 43.1338 -73.8369 84.749 -64.1699
c43.7207 10.1592 72.0791 61.96 91.5615 97.9971c26.501 49.0332 47.9766 100.604 67.1982 152.869c4.6123 12.5391 9.12012 25.1172 13.5576 37.7217c-46.3877 6.8877 -88.5986 27.2969 -119.372 70.082c-36.9639 51.3955 -42.4893 122.461 -44.2988 183.746
c-2.11914 71.7881 6.77344 143.615 22.5449 213.576c23.8643 105.872 63.3213 218.24 146.147 292.978c36.1113 32.583 90.3262 52.5361 135.896 25.9873c44.2168 -25.7568 43.873 -90.2441 45.252 -134.691c3.98926 -128.565 -25.3477 -256.374 -56.4688 -380.293
c-20.832 -82.9258 -44.1436 -165.817 -71.5186 -247.151c49.6943 2.90625 101.765 19.626 143.88 34.084c8.64941 2.9668 25.2783 3.25 31.8086 -4.75586c6.60059 -8.08789 0.0917969 -15.2314 -8.33984 -18.1289zM347.418 230.366
c22.585 -37.6035 55.0557 -55.7568 91.498 -62.2002c28.7236 84.2178 53.7275 169.776 75.5029 255.987c27.7314 109.797 53.1143 222.221 54.9941 335.938c0.487305 29.5156 -0.331055 59.3711 -4.04688 88.6826c-2.43164 19.1699 -6.7998 42.0635 -21.7402 55.8164
c-39.2178 36.0986 -98.1143 -44.5127 -117.523 -72.0967c-57.5303 -81.7773 -85.9805 -183.007 -102.152 -280.529c-9.47168 -57.1299 -13.792 -115.257 -10.6943 -173.136c2.66699 -49.8555 7.90527 -104.745 34.1621 -148.462z" />
    <glyph glyph-name="W" unicode="W" horiz-adv-x="910" 
d="M712.035 -12.5664c-34.2451 -78.3926 -94.4561 -173.112 -193.458 -151.681c-96.9785 21.0059 -137.858 117.449 -146.864 207.571c-4.2207 -14.7969 -8.71094 -29.5244 -13.5273 -44.1602c-14.7666 -44.8779 -34.0449 -90.5264 -73.7109 -118.924
c-39.2051 -28.0713 -89.5439 -33.7666 -133.647 -14.21c-45.9482 20.375 -83.0254 64.5439 -108.577 106.616c-29.5596 48.6719 -44.4092 104.21 -54.1641 159.961c-20.0566 114.647 -12.5039 232.458 -7.03027 348.054c5.63867 119.111 7.82324 243.278 46.0146 357.195
c8.47559 25.2783 72.0449 21.4238 75.582 -5.8291c15.3848 -118.429 5.78223 -240.747 3.71094 -359.95c-1.7793 -102.261 -5.36035 -204.726 2.88477 -306.821c4.08105 -50.5732 12.791 -99.9111 21.4844 -149.793c6.90918 -39.6621 18.2695 -88.0518 48.916 -116.279
c37.2822 -34.3408 81.873 5.43848 102.996 38.7959c24.7607 39.1006 38.4697 86.0547 51.5176 130.085c18.2119 61.4678 30.4502 124.506 40.5049 187.888c0.609375 14.4355 1.16211 28.8711 1.59766 43.2979c0.370117 12.1689 0.94043 24.1943 1.71484 36.3291
c0.944336 14.7793 4.24609 25.6436 7.38281 40.0059c6.25195 28.624 58.5312 26.6445 72.3105 5.57812c8.59668 -13.1396 15.5361 -23.1025 20.4658 -37.8564c3.97266 -11.8955 6.97461 -23.6211 9.25488 -35.96c4.24609 -23.0068 6.93457 -45.7705 8.31836 -69.1123
c2.90625 -48.999 1.90137 -98.0498 4.38574 -147.053c2.3623 -46.5312 5.58203 -95.1514 14.3623 -140.939c4.40723 -22.9805 20.2881 -79.5889 53.0234 -78.0488c18.1299 0.852539 35.8115 23.7207 46.2451 36.2949c11.8955 14.3359 22.2461 29.8682 31.5742 45.9795
c20.3096 35.0801 35.4238 72.7227 48.6982 110.932c16.2891 46.8838 30.0508 94.5684 41.9541 142.723c-22.1328 6.31738 -43.3213 16.4375 -62.7256 31.1689c-77.7832 59.0449 -103.893 169.737 -112.725 261.904c-9.21484 96.1006 4.26367 194.633 39.2305 284.65
c15.1191 38.9219 35.5723 78.4883 74.8906 97.4668c34.7412 16.7637 79.3281 15.6494 109.079 -10.7422c32.9834 -29.2588 44.0957 -79.1016 49.8389 -120.848c7.14844 -51.957 7.31348 -105.372 5.71191 -157.699c-3.27148 -107.104 -18.9521 -213.685 -40.915 -318.451
c-3.37207 -16.0801 -6.90527 -32.1865 -10.5986 -48.2803c42.8945 -2.91113 87.9424 10.4453 126.99 30.8594c9.04492 4.72949 24.0381 6.14746 32.8789 0c7.47949 -5.20312 9.24609 -13.9092 0.000976562 -18.7432c-49.9248 -26.1006 -109.356 -42.7598 -166.221 -39.0439
c-17.6816 -72.6533 -39.5488 -144.702 -69.3564 -212.931zM698.538 265.036c13.6875 -12.6738 28.6357 -21.7861 44.3555 -27.9385c6.64844 28.8066 12.709 57.7568 18.1689 86.8066c16.5029 87.751 28.2412 176.576 31.2871 265.876
c1.52246 44.752 1.12207 89.7432 -2.57617 134.382c-3.31055 39.9834 -9.67969 83.2305 -31.7334 117.71c-12.4785 19.5088 -29.8906 31.835 -52.7021 21.3848c-17.3418 -7.94434 -30.0029 -23.2852 -39.6396 -39.3135c-20.2441 -33.666 -32.583 -73.585 -42.4199 -111.385
c-20.7793 -79.8154 -24.4688 -164.447 -11.9561 -245.902c10.8682 -70.7305 32.8574 -151.29 87.2158 -201.62z" />
    <glyph glyph-name="X" unicode="X" horiz-adv-x="529" 
d="M569.686 170.127c-25.7783 -88.5908 -55.6328 -194.386 -136.31 -249.423c-80.416 -54.8721 -176.729 -22.2109 -234.765 48.8809c-48.8467 59.832 -74.9863 128.509 -94.1562 200.914c-14.584 -34.2578 -30.1768 -68.0898 -48.4111 -100.269
c-22.6631 -39.9971 -62.9424 -114.025 -119.241 -100.599c-26.9795 6.43457 -9.57617 27.584 11.0947 22.9414c11.0684 -2.48828 34.6318 35.5029 39.7002 42.7949c10.7119 15.4014 20.0879 31.6992 28.8203 48.2891c18.3389 34.8369 34.1631 70.9619 49.5732 107.169
c7.2793 17.0986 14.4062 34.2578 21.459 51.4561c-20.7314 95.1689 -36.0117 191.569 -48.8809 288.078c-6.57422 49.29 -13.9834 98.9932 -17.1113 148.623c-1.47949 23.4287 -2.58008 46.8838 -4.4375 70.2734c-1.15723 14.5703 1.85352 33.2871 -14.4102 38.3643
c-24.334 7.5918 0.953125 25.5215 16.2676 21.9883c39.6182 -9.14062 66.3271 -38.7783 81.9033 -75.0293c20.8574 -48.542 34.8672 -98.7148 48.1279 -149.741c10.7158 -41.2197 19.8047 -82.8701 28.2715 -124.664c19.0127 43.29 39.1787 86.0713 61.5674 127.856
c31.4863 58.7617 65.9883 120.921 111.146 170.463c31.2695 34.3057 99.0986 72.1357 137.028 24.5859c14.5928 -18.291 -29.8721 -26.2969 -40.1484 -13.3799c-32.0215 40.2617 -125.516 -121.601 -138.429 -143.62c-45.3564 -77.3525 -82.0078 -158.873 -116.366 -241.442
c5.22949 -27.3486 10.4199 -54.6934 15.8145 -81.96c16.6504 -84.1396 31.2344 -170.115 61.2109 -250.818c13.1914 -35.5068 30.5332 -72.541 59.1221 -98.2842c26.9141 -24.2383 52.5752 -17.2383 80.3154 3.63281c66.7363 50.2129 91.8008 144.272 115.029 220.181
c5.09961 16.6592 52.1055 12.9697 46.2148 -7.26172z" />
    <glyph glyph-name="Y" unicode="Y" horiz-adv-x="608" 
d="M615.567 187.831c9.03613 2.34082 24.917 3.69336 31.8047 -4.74707c6.27832 -7.69238 0.457031 -15.876 -8.33984 -18.1299c-42.8682 -10.9727 -85.8369 -22.8809 -128.462 -36.1465c-2.31055 -12.043 -4.72559 -24.0596 -7.39258 -36.0244
c-15.1406 -67.959 -32.0742 -136.267 -67.5332 -196.891c-34.9326 -59.7188 -86.5938 -106.812 -151.155 -132.481c-56.9609 -22.6504 -130.293 -26.1924 -185.452 3.75391c-55.8291 30.3076 -69.7559 89.1562 -36.9727 143.35
c32.8047 54.2285 90.1133 92.7285 144.42 122.888c53.7666 29.8594 109.809 55.4424 167.183 77.8271c18.5645 100.024 28.0146 202.381 31.6738 303.454c2.39746 66.3105 1.79297 133.064 -1.90527 199.318c-0.295898 5.3125 -0.535156 10.625 -0.795898 15.9375
c-0.800781 -3.47656 -1.62695 -6.94824 -2.40527 -10.4336c-11.9736 -53.623 -21.4453 -107.777 -34.8242 -161.083c-21.7275 -86.5723 -50.6514 -181.637 -120.747 -242.287c-53.7188 -46.4795 -156.128 -61.8076 -210.286 -6.57031
c-31.9785 32.6133 -42.0723 84.9834 -49.8604 128.234c-8.94043 49.6689 -12.8779 100.93 -13.4219 151.338c-1.12695 104.536 7.93164 208.898 23.2939 312.221c3.97266 26.7139 37.3037 34.2715 60.1279 34.2715c18.2861 0 62.2158 -7.87891 60.1279 -34.2705
c-8.12305 -102.688 -22.376 -204.957 -25.709 -308.001c-1.49707 -46.2441 -2.2627 -92.5977 0.3125 -138.812c2.08887 -37.4775 -2.61035 -84.0439 12.9785 -119.042c13.8525 -31.1035 40.166 -39.918 70.7041 -24.7422c33.5273 16.6592 54.7285 49.6855 70.1562 82.4951
c36.7031 78.0576 58.9795 162.367 83.4961 244.724c24.8779 83.5703 48.7461 167.357 72.5625 251.231c0.887695 4.2373 2.07129 8.46191 3.60742 12.6904c0.235352 0.822266 0.46582 1.64453 0.701172 2.4668c0.299805 1.07422 0.813477 2.04492 1.46582 2.93652
c1.15723 2.64941 2.41504 5.29883 3.89453 7.95703c8.3623 15.0234 37.3213 14.3008 48.5859 3.61914c34.1709 -32.4004 41.0537 -77.8096 51.7002 -122.131c9.86719 -41.0889 16.0361 -82.1816 20.5479 -124.188c9.17188 -85.3584 10.7812 -171.899 4.59863 -257.54
c-3.74121 -51.8311 -9.49316 -103.641 -18.0684 -154.945c32.9961 9.94141 66.1748 19.1562 99.3887 27.7529zM355.965 28.1396c3.97266 16.3369 7.65625 32.7705 11.085 49.2734c-48.7764 -20.1309 -96.3477 -42.8945 -141.904 -69.165
c-49.8643 -28.7539 -106.429 -68.2676 -127.221 -124.641c-20.0791 -54.4414 25.5391 -106.507 82.543 -95.1211c106.103 21.1924 153.195 147.952 175.497 239.653z" />
    <glyph glyph-name="Y" unicode="&#x178;" horiz-adv-x="608" 
d="M615.567 187.831c9.03613 2.34082 24.917 3.69336 31.8047 -4.74707c6.27832 -7.69238 0.457031 -15.876 -8.33984 -18.1299c-42.8682 -10.9727 -85.8369 -22.8809 -128.462 -36.1465c-2.31055 -12.043 -4.72559 -24.0596 -7.39258 -36.0244
c-15.1406 -67.959 -32.0742 -136.267 -67.5332 -196.891c-34.9326 -59.7188 -86.5938 -106.812 -151.155 -132.481c-56.9609 -22.6504 -130.293 -26.1924 -185.452 3.75391c-55.8291 30.3076 -69.7559 89.1562 -36.9727 143.35
c32.8047 54.2285 90.1133 92.7285 144.42 122.888c53.7666 29.8594 109.809 55.4424 167.183 77.8271c18.5645 100.024 28.0146 202.381 31.6738 303.454c2.39746 66.3105 1.79297 133.064 -1.90527 199.318c-0.295898 5.3125 -0.535156 10.625 -0.795898 15.9375
c-0.800781 -3.47656 -1.62695 -6.94824 -2.40527 -10.4336c-11.9736 -53.623 -21.4453 -107.777 -34.8242 -161.083c-21.7275 -86.5723 -50.6514 -181.637 -120.747 -242.287c-53.7188 -46.4795 -156.128 -61.8076 -210.286 -6.57031
c-31.9785 32.6133 -42.0723 84.9834 -49.8604 128.234c-8.94043 49.6689 -12.8779 100.93 -13.4219 151.338c-1.12695 104.536 7.93164 208.898 23.2939 312.221c3.97266 26.7139 37.3037 34.2715 60.1279 34.2715c18.2861 0 62.2158 -7.87891 60.1279 -34.2705
c-8.12305 -102.688 -22.376 -204.957 -25.709 -308.001c-1.49707 -46.2441 -2.2627 -92.5977 0.3125 -138.812c2.08887 -37.4775 -2.61035 -84.0439 12.9785 -119.042c13.8525 -31.1035 40.166 -39.918 70.7041 -24.7422c33.5273 16.6592 54.7285 49.6855 70.1562 82.4951
c36.7031 78.0576 58.9795 162.367 83.4961 244.724c24.8779 83.5703 48.7461 167.357 72.5625 251.231c0.887695 4.2373 2.07129 8.46191 3.60742 12.6904c0.235352 0.822266 0.46582 1.64453 0.701172 2.4668c0.299805 1.07422 0.813477 2.04492 1.46582 2.93652
c1.15723 2.64941 2.41504 5.29883 3.89453 7.95703c8.3623 15.0234 37.3213 14.3008 48.5859 3.61914c34.1709 -32.4004 41.0537 -77.8096 51.7002 -122.131c9.86719 -41.0889 16.0361 -82.1816 20.5479 -124.188c9.17188 -85.3584 10.7812 -171.899 4.59863 -257.54
c-3.74121 -51.8311 -9.49316 -103.641 -18.0684 -154.945c32.9961 9.94141 66.1748 19.1562 99.3887 27.7529zM355.965 28.1396c3.97266 16.3369 7.65625 32.7705 11.085 49.2734c-48.7764 -20.1309 -96.3477 -42.8945 -141.904 -69.165
c-49.8643 -28.7539 -106.429 -68.2676 -127.221 -124.641c-20.0791 -54.4414 25.5391 -106.507 82.543 -95.1211c106.103 21.1924 153.195 147.952 175.497 239.653z" />
    <glyph glyph-name="Y" unicode="&#xdd;" horiz-adv-x="608" 
d="M615.567 187.831c9.03613 2.34082 24.917 3.69336 31.8047 -4.74707c6.27832 -7.69238 0.457031 -15.876 -8.33984 -18.1299c-42.8682 -10.9727 -85.8369 -22.8809 -128.462 -36.1465c-2.31055 -12.043 -4.72559 -24.0596 -7.39258 -36.0244
c-15.1406 -67.959 -32.0742 -136.267 -67.5332 -196.891c-34.9326 -59.7188 -86.5938 -106.812 -151.155 -132.481c-56.9609 -22.6504 -130.293 -26.1924 -185.452 3.75391c-55.8291 30.3076 -69.7559 89.1562 -36.9727 143.35
c32.8047 54.2285 90.1133 92.7285 144.42 122.888c53.7666 29.8594 109.809 55.4424 167.183 77.8271c18.5645 100.024 28.0146 202.381 31.6738 303.454c2.39746 66.3105 1.79297 133.064 -1.90527 199.318c-0.295898 5.3125 -0.535156 10.625 -0.795898 15.9375
c-0.800781 -3.47656 -1.62695 -6.94824 -2.40527 -10.4336c-11.9736 -53.623 -21.4453 -107.777 -34.8242 -161.083c-21.7275 -86.5723 -50.6514 -181.637 -120.747 -242.287c-53.7188 -46.4795 -156.128 -61.8076 -210.286 -6.57031
c-31.9785 32.6133 -42.0723 84.9834 -49.8604 128.234c-8.94043 49.6689 -12.8779 100.93 -13.4219 151.338c-1.12695 104.536 7.93164 208.898 23.2939 312.221c3.97266 26.7139 37.3037 34.2715 60.1279 34.2715c18.2861 0 62.2158 -7.87891 60.1279 -34.2705
c-8.12305 -102.688 -22.376 -204.957 -25.709 -308.001c-1.49707 -46.2441 -2.2627 -92.5977 0.3125 -138.812c2.08887 -37.4775 -2.61035 -84.0439 12.9785 -119.042c13.8525 -31.1035 40.166 -39.918 70.7041 -24.7422c33.5273 16.6592 54.7285 49.6855 70.1562 82.4951
c36.7031 78.0576 58.9795 162.367 83.4961 244.724c24.8779 83.5703 48.7461 167.357 72.5625 251.231c0.887695 4.2373 2.07129 8.46191 3.60742 12.6904c0.235352 0.822266 0.46582 1.64453 0.701172 2.4668c0.299805 1.07422 0.813477 2.04492 1.46582 2.93652
c1.15723 2.64941 2.41504 5.29883 3.89453 7.95703c8.3623 15.0234 37.3213 14.3008 48.5859 3.61914c34.1709 -32.4004 41.0537 -77.8096 51.7002 -122.131c9.86719 -41.0889 16.0361 -82.1816 20.5479 -124.188c9.17188 -85.3584 10.7812 -171.899 4.59863 -257.54
c-3.74121 -51.8311 -9.49316 -103.641 -18.0684 -154.945c32.9961 9.94141 66.1748 19.1562 99.3887 27.7529zM355.965 28.1396c3.97266 16.3369 7.65625 32.7705 11.085 49.2734c-48.7764 -20.1309 -96.3477 -42.8945 -141.904 -69.165
c-49.8643 -28.7539 -106.429 -68.2676 -127.221 -124.641c-20.0791 -54.4414 25.5391 -106.507 82.543 -95.1211c106.103 21.1924 153.195 147.952 175.497 239.653z" />
    <glyph glyph-name="Z" unicode="Z" horiz-adv-x="548" 
d="M548.396 192.199c9.51074 13.0869 52.4727 7.65527 42.5312 -6.67578c-78.832 -113.795 -209.643 -173.884 -344.277 -190.77c-18.8955 -2.37109 -37.9082 -3.9375 -56.9473 -4.88574c-16.1328 -13.3789 -33.501 -25.6611 -52.3525 -36.582
c-36.9248 -21.3887 -80.3672 -34.6631 -123.305 -27.4717c-27.8838 4.66797 -72.6973 22.8936 -67.6543 58.9785c4.59863 32.8965 57.6436 36.8164 83.2832 37.5732c17.6162 0.522461 35.2627 -0.578125 52.918 -1.94434c4.41602 4.71191 8.55371 9.25391 12.2871 13.252
c73.4023 78.5967 111.759 181.897 148.162 282.54c-7.69238 -0.352539 -16.0635 1.08789 -20.3838 6.38281c-6.33008 7.75781 -0.248047 15.1885 8.1709 17.7598c7.51367 2.29688 15.1885 4.10645 22.9717 5.56348c4.41211 12.1348 8.8457 24.1865 13.3623 36.1123
c25.1738 66.5195 51.1172 132.938 72.6104 200.759c10.2676 32.3955 18.6387 65.3916 24.1992 98.9316c5.03809 30.3945 11.0635 64.9053 8.31836 95.7998c-7.0957 79.8369 -107.694 60.2627 -156.933 37.8691c-60.9893 -27.7402 -116.623 -66.7539 -164.974 -112.973
c-10.4893 -10.0283 -50.0244 -2.39258 -35.6279 11.874c93.4893 92.6582 301.813 231.396 408.921 83.3174c44.6826 -61.7764 38.4912 -151.964 28.084 -223.456c-11.251 -77.2871 -37.2559 -151.216 -61.5371 -225.14
c6.54785 -0.200195 13.0439 -0.361328 19.4531 -0.40918c7.2959 -0.0566406 23.0107 -2.90234 23.0107 -13.1182c0 -10.1377 -15.415 -13.1875 -23.0117 -13.1182c-9.37207 0.0869141 -18.7441 0.178711 -28.1113 0.265625
c-35.9463 -108.495 -79.876 -220.18 -158.86 -302.109c126.238 13.9531 248.856 65.9844 325.691 171.674zM29.2549 -20.042c8.34961 2.4541 16.6855 7.42676 24.7168 13.5879c-4.32031 0.152344 -8.64062 0.256836 -12.9609 0.295898
c-7.23926 0.0654297 -21.0137 1.65332 -27.3877 -2.4668c-6.34766 -4.10742 -4.01172 -7.4707 3.77148 -10.9082c6.23926 -2.75391 5.66016 -2.32715 11.8604 -0.508789z" />
    <glyph glyph-name="bracketleft" unicode="[" horiz-adv-x="306" 
d="M243.404 -125.196c12.7178 -7.46191 17.0771 -19.542 7.08789 -31.3457c-32.6348 -38.5527 -107.76 -25.9658 -143.058 1.47461c-36.0029 27.9844 -40.1797 72.8145 -42.4639 115.33c-9.6416 179.553 -16.0107 359.653 -14.8271 539.467
c0.591797 90.2051 2.83203 182.555 16.1631 271.876c5.0166 33.6182 6.65723 88.8125 35.1465 112.076c21.9541 17.9248 58.7617 28.3887 83.583 10.5068c21.0576 -15.1709 -17.5117 -23.3506 -29.8506 -17.0156c6.02539 -3.09375 0.251953 -15.959 -0.191406 -21.3369
c-0.774414 -9.40234 0.744141 -18.8301 1.69727 -28.1543c2.34082 -22.9678 4.9082 -45.9834 6.2959 -69.0205c2.77148 -46.0186 3.99805 -92.0068 5.36426 -138.082c2.64941 -89.2129 5.74707 -178.421 8.93164 -267.616
c3.18457 -89.209 6.10352 -178.409 10.1406 -267.592c2.08398 -46.001 4.90723 -92.0195 6.26855 -138.047c0.508789 -17.2295 0.27832 -34.7803 6.11719 -51.2178c1.70117 -4.78613 5.07715 -9.10645 7.50488 -13.3398
c-4.34668 -0.165039 -10.4424 -1.26172 -18.9043 -3.91602c5.98242 1.87988 12.5215 3.03711 19.165 3.43262c0.639648 -1.14844 1.21875 -2.29297 1.64941 -3.4375c3.44141 -9.16309 13.0479 1.32227 3.29785 3.5459c10.9033 -0.0351562 21.8281 -2.27539 30.8818 -7.58789
z" />
    <glyph glyph-name="backslash" unicode="\" horiz-adv-x="495" 
d="M444.452 -169.913c4.69043 -22.7725 -36.8047 -31.7402 -51.1055 -32.998c-19.9131 -1.75293 -55.0723 2.25 -64.6699 24.0645c-33.2354 75.5605 -55.0156 157.138 -79.8672 235.765c-24.4814 77.4531 -49.2021 154.832 -74.1582 232.133
c-24.8955 77.1006 -49.0811 154.479 -71.7705 232.259c-22.0059 75.4336 -51.8613 155.44 -52.8799 234.725c-0.27832 21.7578 42.0635 15.5801 50.3428 3.88477c48.8809 -69.0684 76.9697 -152.395 107.643 -230.63c29.8379 -76.0908 57.5527 -153.069 84.3096 -230.296
c26.6875 -77.0264 53.1406 -154.136 79.3545 -231.327c26.4834 -77.9834 56.1641 -156.789 72.8018 -237.579z" />
    <glyph glyph-name="bracketright" unicode="]" horiz-adv-x="307" 
d="M243.608 737.091c18.9434 -178.773 13.6504 -360.173 7.16309 -539.517c-3.21094 -88.7041 -2.52832 -179.239 -12.1475 -267.499c-4.32422 -39.6533 -18.0332 -75.2646 -54.9629 -94.9258c-35.3154 -18.7998 -99.3936 -25.7656 -128.239 8.31445
c-9.89844 11.6953 -5.47852 23.96 7.0957 31.3428c8.9541 5.25586 19.8613 7.48828 30.7295 7.55371c-9.49805 -2.29688 0.0253906 -12.626 3.44922 -3.51074c0.426758 1.13574 1.00098 2.2666 1.63184 3.40625c6.67871 -0.387695 13.2354 -1.54102 19.1787 -3.40723
c-8.46191 2.6543 -14.5576 3.75098 -18.9043 3.91602c2.42773 4.22852 5.80371 8.54883 7.50488 13.3389c5.83887 16.4375 5.6084 33.9844 6.11719 51.2178c1.36133 46.0273 4.18457 92.0459 6.26855 138.047c4.03711 89.1826 6.95605 178.378 10.1406 267.591
c3.18945 89.1953 6.28711 178.403 8.93262 267.616c1.37012 46.0752 2.58789 92.0635 5.36328 138.082c1.39258 23.042 3.95508 46.0537 6.2959 69.0215c0.953125 9.31934 2.47168 18.7471 1.69727 28.1533c-0.439453 5.37793 -6.21777 18.2432 -0.192383 21.3369
c-12.4434 -6.38672 -50.8477 1.88867 -29.8506 17.0166c27.3008 19.6699 74.1895 5.59961 93.0244 -20.1963c12.5908 -17.251 15.3975 -43.1338 19.0088 -63.5605c4.30762 -24.417 8.08008 -48.6729 10.6953 -73.3379z" />
    <glyph glyph-name="asciicircum" unicode="^" horiz-adv-x="323" 
d="M272.759 514.796c4.78613 -21.1885 -37.6104 -28.3047 -49.666 -28.3086c-19.5049 0 -45.5312 6.41699 -49.6602 28.3057c-4.45117 23.6113 -9.79395 47.5322 -17.4121 70.335c-1.30957 3.91992 -2.71875 7.83594 -4.18457 11.7344
c-5.69531 -11.0645 -11.2334 -22.207 -16.498 -33.4844c-9.82812 -21.0537 -18.6816 -43.125 -38.5645 -56.1299c-8.69336 -5.68652 -26.7617 -5.35156 -34.2715 2.51855c-24.3125 25.4648 -7.63574 74.668 3.69824 103.592c14.4619 36.8994 38.7783 63.8613 80.4766 67.085
c93.9033 7.25684 110.341 -95.9521 126.082 -165.647z" />
    <glyph glyph-name="underscore" unicode="_" horiz-adv-x="441" 
d="M344.02 -21.6475c14.4883 0.322266 47.5312 -6.2793 47.0439 -26.8193c-0.504883 -21.1357 -31.1299 -26.4004 -47.0449 -26.8135c-81.0332 -2.10547 -161.166 -12.2168 -240.79 -27.1748c-15.1846 -2.85449 -40.5449 -0.291992 -50.1641 14.0312
c-9.13672 13.6094 3.78125 26.792 17.3994 30.2686c89.6699 22.916 181.045 34.4414 273.556 36.5078z" />
    <glyph glyph-name="grave" unicode="`" horiz-adv-x="201" 
d="M141.927 621.673c3.91992 -25.1777 6.9873 -50.4697 8.9541 -75.8691c2.42773 -31.3564 -77.9092 -32.1045 -81.7119 0c-2.66309 22.4629 -4.83887 44.9609 -7.25781 67.4502c-2.18848 20.3662 -1.13574 43.1211 -10.0898 61.8643
c-14.2012 29.7285 58.8574 33.8535 72.3711 11.373c11.4951 -19.126 14.3447 -43.0557 17.7344 -64.8184z" />
    <glyph glyph-name="a" unicode="a" horiz-adv-x="508" 
d="M498.891 232.169c4.83398 14.4141 45.209 11.3369 40.2402 -6.31836c-17.6855 -62.9258 -44.6211 -126.991 -84.0566 -179.609c-34.4971 -46.0273 -86.8105 -52.4844 -137.236 -27.4062c-63.3564 31.5039 -64.4004 119.072 -66.6494 179.861
c-0.165039 4.45117 -0.212891 8.93262 -0.317383 13.4014c-7.55273 -20.2744 -15.541 -40.3711 -24.4385 -60.0234c-28.1973 -62.2773 -76.7998 -130.571 -153.557 -126.407c-39.7227 2.15332 -73.7197 28.1924 -87.8945 65.2266
c-15.0576 39.3438 -12.3857 82.5859 -5.29395 123.271c13.4922 77.3789 55.8213 142.793 124.046 182.934c44.0518 25.918 112.142 40.0752 162.346 18.2559c5.49023 24.8779 36.1289 32.0781 58.5654 32.0781c19.2178 0 59.2715 -7.53125 58.9404 -33.5967
c-1.42676 -112.276 -20.9834 -224.27 -17.6201 -336.75c0.382812 -12.8213 2.70215 -22.7324 7.20508 -34.4883c3.76367 -9.81543 2.5625 -16.1895 14.7363 -9.77637c21.2842 11.2119 34.7451 36.7812 46.54 56.6211c26.7139 44.9346 47.8369 93.2021 64.4443 142.728z
M257.479 356.322c0.765625 6.65625 1.63379 13.2881 2.53027 19.9189c-55.0986 53.9023 -107.691 -35.5625 -128.483 -81.3506c-28.1016 -61.8721 -49.333 -138.237 -38.1865 -206.471c1.19238 -7.30957 4.46875 -26.4619 13.2051 -29.2158
c7.15723 -2.25781 29.2334 23.0898 34.0713 28.6279c24.7344 28.3145 40.7803 63.2031 54.6592 97.7959c14.9844 37.3555 28.3066 75.4121 41.416 113.46c6.4873 18.8262 13.9443 37.9346 20.7881 57.2344z" />
    <glyph glyph-name="a" unicode="&#xe5;" horiz-adv-x="508" 
d="M498.891 232.169c4.83398 14.4141 45.209 11.3369 40.2402 -6.31836c-17.6855 -62.9258 -44.6211 -126.991 -84.0566 -179.609c-34.4971 -46.0273 -86.8105 -52.4844 -137.236 -27.4062c-63.3564 31.5039 -64.4004 119.072 -66.6494 179.861
c-0.165039 4.45117 -0.212891 8.93262 -0.317383 13.4014c-7.55273 -20.2744 -15.541 -40.3711 -24.4385 -60.0234c-28.1973 -62.2773 -76.7998 -130.571 -153.557 -126.407c-39.7227 2.15332 -73.7197 28.1924 -87.8945 65.2266
c-15.0576 39.3438 -12.3857 82.5859 -5.29395 123.271c13.4922 77.3789 55.8213 142.793 124.046 182.934c44.0518 25.918 112.142 40.0752 162.346 18.2559c5.49023 24.8779 36.1289 32.0781 58.5654 32.0781c19.2178 0 59.2715 -7.53125 58.9404 -33.5967
c-1.42676 -112.276 -20.9834 -224.27 -17.6201 -336.75c0.382812 -12.8213 2.70215 -22.7324 7.20508 -34.4883c3.76367 -9.81543 2.5625 -16.1895 14.7363 -9.77637c21.2842 11.2119 34.7451 36.7812 46.54 56.6211c26.7139 44.9346 47.8369 93.2021 64.4443 142.728z
M257.479 356.322c0.765625 6.65625 1.63379 13.2881 2.53027 19.9189c-55.0986 53.9023 -107.691 -35.5625 -128.483 -81.3506c-28.1016 -61.8721 -49.333 -138.237 -38.1865 -206.471c1.19238 -7.30957 4.46875 -26.4619 13.2051 -29.2158
c7.15723 -2.25781 29.2334 23.0898 34.0713 28.6279c24.7344 28.3145 40.7803 63.2031 54.6592 97.7959c14.9844 37.3555 28.3066 75.4121 41.416 113.46c6.4873 18.8262 13.9443 37.9346 20.7881 57.2344z" />
    <glyph glyph-name="a" unicode="&#xe4;" horiz-adv-x="508" 
d="M498.891 232.169c4.83398 14.4141 45.209 11.3369 40.2402 -6.31836c-17.6855 -62.9258 -44.6211 -126.991 -84.0566 -179.609c-34.4971 -46.0273 -86.8105 -52.4844 -137.236 -27.4062c-63.3564 31.5039 -64.4004 119.072 -66.6494 179.861
c-0.165039 4.45117 -0.212891 8.93262 -0.317383 13.4014c-7.55273 -20.2744 -15.541 -40.3711 -24.4385 -60.0234c-28.1973 -62.2773 -76.7998 -130.571 -153.557 -126.407c-39.7227 2.15332 -73.7197 28.1924 -87.8945 65.2266
c-15.0576 39.3438 -12.3857 82.5859 -5.29395 123.271c13.4922 77.3789 55.8213 142.793 124.046 182.934c44.0518 25.918 112.142 40.0752 162.346 18.2559c5.49023 24.8779 36.1289 32.0781 58.5654 32.0781c19.2178 0 59.2715 -7.53125 58.9404 -33.5967
c-1.42676 -112.276 -20.9834 -224.27 -17.6201 -336.75c0.382812 -12.8213 2.70215 -22.7324 7.20508 -34.4883c3.76367 -9.81543 2.5625 -16.1895 14.7363 -9.77637c21.2842 11.2119 34.7451 36.7812 46.54 56.6211c26.7139 44.9346 47.8369 93.2021 64.4443 142.728z
M257.479 356.322c0.765625 6.65625 1.63379 13.2881 2.53027 19.9189c-55.0986 53.9023 -107.691 -35.5625 -128.483 -81.3506c-28.1016 -61.8721 -49.333 -138.237 -38.1865 -206.471c1.19238 -7.30957 4.46875 -26.4619 13.2051 -29.2158
c7.15723 -2.25781 29.2334 23.0898 34.0713 28.6279c24.7344 28.3145 40.7803 63.2031 54.6592 97.7959c14.9844 37.3555 28.3066 75.4121 41.416 113.46c6.4873 18.8262 13.9443 37.9346 20.7881 57.2344z" />
    <glyph glyph-name="a" unicode="&#xe3;" horiz-adv-x="508" 
d="M498.891 232.169c4.83398 14.4141 45.209 11.3369 40.2402 -6.31836c-17.6855 -62.9258 -44.6211 -126.991 -84.0566 -179.609c-34.4971 -46.0273 -86.8105 -52.4844 -137.236 -27.4062c-63.3564 31.5039 -64.4004 119.072 -66.6494 179.861
c-0.165039 4.45117 -0.212891 8.93262 -0.317383 13.4014c-7.55273 -20.2744 -15.541 -40.3711 -24.4385 -60.0234c-28.1973 -62.2773 -76.7998 -130.571 -153.557 -126.407c-39.7227 2.15332 -73.7197 28.1924 -87.8945 65.2266
c-15.0576 39.3438 -12.3857 82.5859 -5.29395 123.271c13.4922 77.3789 55.8213 142.793 124.046 182.934c44.0518 25.918 112.142 40.0752 162.346 18.2559c5.49023 24.8779 36.1289 32.0781 58.5654 32.0781c19.2178 0 59.2715 -7.53125 58.9404 -33.5967
c-1.42676 -112.276 -20.9834 -224.27 -17.6201 -336.75c0.382812 -12.8213 2.70215 -22.7324 7.20508 -34.4883c3.76367 -9.81543 2.5625 -16.1895 14.7363 -9.77637c21.2842 11.2119 34.7451 36.7812 46.54 56.6211c26.7139 44.9346 47.8369 93.2021 64.4443 142.728z
M257.479 356.322c0.765625 6.65625 1.63379 13.2881 2.53027 19.9189c-55.0986 53.9023 -107.691 -35.5625 -128.483 -81.3506c-28.1016 -61.8721 -49.333 -138.237 -38.1865 -206.471c1.19238 -7.30957 4.46875 -26.4619 13.2051 -29.2158
c7.15723 -2.25781 29.2334 23.0898 34.0713 28.6279c24.7344 28.3145 40.7803 63.2031 54.6592 97.7959c14.9844 37.3555 28.3066 75.4121 41.416 113.46c6.4873 18.8262 13.9443 37.9346 20.7881 57.2344z" />
    <glyph glyph-name="a" unicode="&#xe2;" horiz-adv-x="508" 
d="M498.891 232.169c4.83398 14.4141 45.209 11.3369 40.2402 -6.31836c-17.6855 -62.9258 -44.6211 -126.991 -84.0566 -179.609c-34.4971 -46.0273 -86.8105 -52.4844 -137.236 -27.4062c-63.3564 31.5039 -64.4004 119.072 -66.6494 179.861
c-0.165039 4.45117 -0.212891 8.93262 -0.317383 13.4014c-7.55273 -20.2744 -15.541 -40.3711 -24.4385 -60.0234c-28.1973 -62.2773 -76.7998 -130.571 -153.557 -126.407c-39.7227 2.15332 -73.7197 28.1924 -87.8945 65.2266
c-15.0576 39.3438 -12.3857 82.5859 -5.29395 123.271c13.4922 77.3789 55.8213 142.793 124.046 182.934c44.0518 25.918 112.142 40.0752 162.346 18.2559c5.49023 24.8779 36.1289 32.0781 58.5654 32.0781c19.2178 0 59.2715 -7.53125 58.9404 -33.5967
c-1.42676 -112.276 -20.9834 -224.27 -17.6201 -336.75c0.382812 -12.8213 2.70215 -22.7324 7.20508 -34.4883c3.76367 -9.81543 2.5625 -16.1895 14.7363 -9.77637c21.2842 11.2119 34.7451 36.7812 46.54 56.6211c26.7139 44.9346 47.8369 93.2021 64.4443 142.728z
M257.479 356.322c0.765625 6.65625 1.63379 13.2881 2.53027 19.9189c-55.0986 53.9023 -107.691 -35.5625 -128.483 -81.3506c-28.1016 -61.8721 -49.333 -138.237 -38.1865 -206.471c1.19238 -7.30957 4.46875 -26.4619 13.2051 -29.2158
c7.15723 -2.25781 29.2334 23.0898 34.0713 28.6279c24.7344 28.3145 40.7803 63.2031 54.6592 97.7959c14.9844 37.3555 28.3066 75.4121 41.416 113.46c6.4873 18.8262 13.9443 37.9346 20.7881 57.2344z" />
    <glyph glyph-name="a" unicode="&#xe1;" horiz-adv-x="508" 
d="M498.891 232.169c4.83398 14.4141 45.209 11.3369 40.2402 -6.31836c-17.6855 -62.9258 -44.6211 -126.991 -84.0566 -179.609c-34.4971 -46.0273 -86.8105 -52.4844 -137.236 -27.4062c-63.3564 31.5039 -64.4004 119.072 -66.6494 179.861
c-0.165039 4.45117 -0.212891 8.93262 -0.317383 13.4014c-7.55273 -20.2744 -15.541 -40.3711 -24.4385 -60.0234c-28.1973 -62.2773 -76.7998 -130.571 -153.557 -126.407c-39.7227 2.15332 -73.7197 28.1924 -87.8945 65.2266
c-15.0576 39.3438 -12.3857 82.5859 -5.29395 123.271c13.4922 77.3789 55.8213 142.793 124.046 182.934c44.0518 25.918 112.142 40.0752 162.346 18.2559c5.49023 24.8779 36.1289 32.0781 58.5654 32.0781c19.2178 0 59.2715 -7.53125 58.9404 -33.5967
c-1.42676 -112.276 -20.9834 -224.27 -17.6201 -336.75c0.382812 -12.8213 2.70215 -22.7324 7.20508 -34.4883c3.76367 -9.81543 2.5625 -16.1895 14.7363 -9.77637c21.2842 11.2119 34.7451 36.7812 46.54 56.6211c26.7139 44.9346 47.8369 93.2021 64.4443 142.728z
M257.479 356.322c0.765625 6.65625 1.63379 13.2881 2.53027 19.9189c-55.0986 53.9023 -107.691 -35.5625 -128.483 -81.3506c-28.1016 -61.8721 -49.333 -138.237 -38.1865 -206.471c1.19238 -7.30957 4.46875 -26.4619 13.2051 -29.2158
c7.15723 -2.25781 29.2334 23.0898 34.0713 28.6279c24.7344 28.3145 40.7803 63.2031 54.6592 97.7959c14.9844 37.3555 28.3066 75.4121 41.416 113.46c6.4873 18.8262 13.9443 37.9346 20.7881 57.2344z" />
    <glyph glyph-name="b" unicode="b" horiz-adv-x="532" 
d="M534.925 230.35c18.125 7.16113 52.2793 -11.791 23.6992 -23.125c-46.4834 -18.4385 -94.9072 -32.7617 -142.805 -48.3115c-1.09668 -11.873 -2.79395 -23.6895 -4.95605 -35.3281c-23.2334 -124.968 -107.73 -233.406 -237.318 -256.826
c-29.9941 -5.4209 -68.1152 -3.85059 -91.6006 18.2988c-6.47852 6.1084 -10.3984 12.8604 -12.5088 19.9609c-20.1396 -10.0938 -59.0137 -5.62598 -65.0791 12.0518c-16.2715 47.4414 -18.4951 97.0186 -20.9189 146.831
c-2.90234 59.7148 -0.988281 120.408 2.03125 180.079c5.60352 110.715 13.2744 223.73 42.377 331.169c14.7705 54.5195 33.6396 109.053 59.627 159.296c26.127 50.5078 74.3076 109.226 132.46 122.539c56.5947 12.9609 100.154 -22.8984 108.017 -78.4453
c8.83691 -62.4072 -18.8867 -133.777 -42.6328 -190.354c-42.5986 -101.504 -105.815 -192.296 -171.19 -280.49c-3.46777 -45.8574 -6.37891 -91.7666 -8.93262 -137.803c-2.11914 -38.1865 -2.40625 -77.4658 -4.36426 -116.575
c10.8203 29.96 22.5156 59.6016 35.6768 88.6904c27.0791 59.8447 60.5713 122.744 106.815 170.233c18.6689 19.1738 42.7109 32.3613 69.9209 32.9141c30.373 0.618164 50.252 -12.1426 67.8555 -35.9365c26.1094 -35.2939 35.7725 -76.9482 36.0557 -119.295
c39.6533 12.6865 79.3496 25.2471 117.771 40.4268zM129.032 468.124c-2.98926 -26.4746 -5.66895 -52.9443 -8.12305 -79.4141c48.459 69.3818 92.6416 141.648 124.032 220.441c21.1494 53.0791 48.8379 124.015 33.0225 181.511
c-3.5459 12.9043 -10.6592 29.8066 -23.2246 36.4805c-13.2129 7.02246 -24.0244 -3.80273 -33.248 -13.1396c-17.4814 -17.6992 -26.5879 -41.4287 -35.2285 -64.2832c-33.5791 -88.8389 -46.6055 -187.532 -57.2305 -281.596zM253.539 23.7432
c16.1504 28.2451 29.9844 57.9639 41.0049 88.6719c-20.4531 -9.81934 -40.3662 -20.8184 -59.4922 -33.54c-37.7734 -25.1211 -72.3359 -57.4297 -94.3115 -97.4873c-10.5938 -19.3086 -22.6152 -54.5234 2.24512 -69.9863
c0.648438 -0.400391 1.01855 -0.683594 1.28418 -0.922852c3.18457 0.875 7.70508 2.83301 9.70605 3.71191c7.41406 3.25879 14.5234 7.82227 20.9971 12.6953c32.6133 24.5469 58.5176 61.79 78.5664 96.8574zM327.17 243.809
c3.17188 15.5762 15.3984 69.3691 -10.4014 73.833c-20.2529 3.50684 -44.3604 -32.8398 -54.5889 -46.0049c-15.832 -20.3838 -30.085 -42.0029 -43.1328 -64.2656c-28.0449 -47.8496 -50.1465 -98.5537 -69.9727 -150.22c10.7686 10.0107 22.1289 19.3828 33.9023 28.0537
c38.4043 28.2803 80.3418 49.0986 123.889 66.4629c1.26562 4.67285 2.53125 9.34082 3.6582 14.0488c6.21289 25.9043 11.334 52.0049 16.6465 78.0918z" />
    <glyph glyph-name="c" unicode="c" horiz-adv-x="388" 
d="M382.906 219.695c9.35449 12.2305 50.3418 4.97461 37.2803 -12.4238c-54.1328 -72.0928 -119.391 -144.359 -195.494 -193.841c-60.1191 -39.0918 -150.415 -44.1426 -203.646 10.4775c-59.1406 60.6807 -50.2217 160.022 -33.8066 236.196
c17.2158 79.8848 60.8633 155.649 139.612 187.215c32.9707 13.2178 71.3398 20.2705 104.515 3.61523c33.6572 -16.8945 38.2734 -50.1211 37.7207 -84.3926c-0.274414 -16.9766 -43.0518 -16.8506 -43.1689 0c-0.125977 18.4951 -0.0175781 41.4844 -13.8838 55.7852
c-15.6846 16.1758 -28.9805 3.78516 -37.2949 -11.1904c-15.9629 -28.7539 -31.2822 -56.2598 -42.9033 -87.4336c-25.8135 -69.2383 -39.9844 -143.876 -37.8047 -217.865c0.53125 -18.1426 1.74121 -36.2988 3.75977 -54.3154
c1.51855 -13.5742 6.57812 -32.417 19.9521 -39.3477c31.1338 -16.1367 78.8359 21.5459 100.751 38.8574c61.7598 48.7812 116.653 106.216 164.412 168.663z" />
    <glyph glyph-name="d" unicode="d" horiz-adv-x="644" 
d="M637.959 236.667c5.36426 14.084 45.377 10.918 39.7949 -6.25488c-26.5791 -81.6816 -66.6973 -157.929 -117.393 -227.236c-21.0361 -28.7539 -43.8564 -60.4453 -78.4492 -73.5977c-33.166 -12.6133 -73.0195 -7.22656 -103.714 9.52832
c-31.917 17.416 -55.459 42.5156 -69.7207 75.79c-15.4717 36.0986 -24.1035 76.1826 -28.9629 115.035c-5.83887 46.6797 -8.98926 93.7422 -9.75977 140.848c-13.8398 -39.9922 -27.8799 -80.1895 -45.3223 -118.711
c-28.1973 -62.2773 -76.7998 -130.571 -153.557 -126.407c-39.7227 2.15332 -73.7197 28.1924 -87.8945 65.2266c-15.0576 39.3438 -12.3857 82.5859 -5.29395 123.271c13.4922 77.3789 55.8213 142.793 124.046 182.934c46.375 27.2842 119.403 41.5762 170.146 14.54
c0.744141 3.4375 1.44434 6.875 2.04492 10.3213c0.260742 1.50586 0.852539 2.86719 1.70508 4.08984c12.0693 145.625 40.4629 305.573 142.35 413.995c42.0674 44.7656 134.883 75.5957 179.892 18.3311c44.4473 -56.5469 14.375 -143.759 -3.46777 -205.418
c-42.6895 -147.522 -119.146 -284.037 -197.446 -415.349c-0.143555 -37.3428 0.634766 -74.6895 2.08398 -111.897c1.29199 -33.21 0.317383 -66.7197 7.52246 -99.3896c4.77246 -21.6406 11.8555 -51.8828 27.8486 -68.0723
c10.1592 -10.2812 14.5488 -10.5469 27.8711 -3.51172c13.3135 7.03125 24.0947 18.7744 33.7705 30.1035c20.8711 24.4336 39.2314 51.335 56.3818 78.4707c34.4668 54.5244 62.5684 113.125 85.5234 173.361zM400.013 341.953
c-0.317383 -5.45117 -0.558594 -10.9121 -0.819336 -16.3682c57.3652 101.199 111.915 203.878 147.183 315.401c10.2373 32.3701 18.9043 65.2842 25.1953 98.6631c6.04297 32.0742 11.7559 70.0918 -8.63184 98.5195c-6.71289 9.36719 -20.0215 22.7588 -31.8164 15.9893
c-8.89746 -5.10742 -13.709 -18.543 -19.1211 -26.7266c-17.7773 -26.8877 -29.5547 -55.1982 -39.8271 -85.6279c-43.7949 -129.719 -64.2959 -263.405 -72.1621 -399.851zM234.686 299.088c8.34961 24.2295 18.3057 48.9355 26.4893 73.9219
c-56.2422 60.6152 -110.462 -31.4521 -131.654 -78.1191c-28.1016 -61.8721 -49.333 -138.237 -38.1865 -206.471c1.19238 -7.30957 4.46875 -26.4619 13.2051 -29.2158c7.15723 -2.25781 29.2334 23.0898 34.0713 28.6279c24.7344 28.3145 40.7803 63.2031 54.6592 97.7959
c14.9844 37.3555 28.3066 75.4121 41.416 113.46z" />
    <glyph glyph-name="e" unicode="e" horiz-adv-x="366" 
d="M357.986 216.175c8.01855 12.6387 49.5938 9.99023 41.166 -6.46484c-44.0078 -85.9365 -116.101 -182.059 -208.312 -219.571c-41.0146 -16.6855 -91.9141 -16.3203 -131.18 5.61621c-43.0596 24.0557 -68.4766 66.7148 -78.6621 113.66
c-10.3379 47.6543 -6.01758 97.667 3.14551 145.187c9.3457 48.4766 25.2656 96.2393 53.7549 136.963c30.5645 43.6816 74.3506 70.5479 127.957 74.416c34.5586 2.49316 81.4121 -4.48145 94.5645 -42.4902c12.9697 -37.4688 -12.3428 -75.1729 -39.6748 -98.7715
c-28.9805 -25.0215 -64.9873 -39.875 -102.709 -43.7119c-1.00977 -3.28906 -2.01953 -6.57422 -2.98535 -9.86328c-19.0264 -64.8271 -28.5068 -135.806 -21.4414 -203.147c2.60645 -24.8564 9.83789 -62.7256 41.4248 -62.8125
c36.6162 -0.0957031 70.9785 28.0928 97.127 50.8955c52.1309 45.457 89.1084 102.226 125.824 160.096zM153.895 370.255c-9.61523 -18.2041 -17.7988 -37.3389 -24.9512 -56.8213c25.5127 6.80859 48.1494 19.8916 66.6406 40.9932
c11.2119 12.7959 21.8457 30.0029 21.7852 47.6152c-0.0351562 10.6416 -8.18457 30.8428 -22.4902 26.248c2.82324 0.90918 -7.78809 -8.22266 -9.72852 -10.3506c-3.77246 -4.13281 -6.63965 -8.44922 -9.85449 -13.0088
c-7.87891 -11.1816 -15.0059 -22.5674 -21.4014 -34.6758z" />
    <glyph glyph-name="e" unicode="&#xeb;" horiz-adv-x="366" 
d="M357.986 216.175c8.01855 12.6387 49.5938 9.99023 41.166 -6.46484c-44.0078 -85.9365 -116.101 -182.059 -208.312 -219.571c-41.0146 -16.6855 -91.9141 -16.3203 -131.18 5.61621c-43.0596 24.0557 -68.4766 66.7148 -78.6621 113.66
c-10.3379 47.6543 -6.01758 97.667 3.14551 145.187c9.3457 48.4766 25.2656 96.2393 53.7549 136.963c30.5645 43.6816 74.3506 70.5479 127.957 74.416c34.5586 2.49316 81.4121 -4.48145 94.5645 -42.4902c12.9697 -37.4688 -12.3428 -75.1729 -39.6748 -98.7715
c-28.9805 -25.0215 -64.9873 -39.875 -102.709 -43.7119c-1.00977 -3.28906 -2.01953 -6.57422 -2.98535 -9.86328c-19.0264 -64.8271 -28.5068 -135.806 -21.4414 -203.147c2.60645 -24.8564 9.83789 -62.7256 41.4248 -62.8125
c36.6162 -0.0957031 70.9785 28.0928 97.127 50.8955c52.1309 45.457 89.1084 102.226 125.824 160.096zM153.895 370.255c-9.61523 -18.2041 -17.7988 -37.3389 -24.9512 -56.8213c25.5127 6.80859 48.1494 19.8916 66.6406 40.9932
c11.2119 12.7959 21.8457 30.0029 21.7852 47.6152c-0.0351562 10.6416 -8.18457 30.8428 -22.4902 26.248c2.82324 0.90918 -7.78809 -8.22266 -9.72852 -10.3506c-3.77246 -4.13281 -6.63965 -8.44922 -9.85449 -13.0088
c-7.87891 -11.1816 -15.0059 -22.5674 -21.4014 -34.6758z" />
    <glyph glyph-name="e" unicode="&#xea;" horiz-adv-x="366" 
d="M357.986 216.175c8.01855 12.6387 49.5938 9.99023 41.166 -6.46484c-44.0078 -85.9365 -116.101 -182.059 -208.312 -219.571c-41.0146 -16.6855 -91.9141 -16.3203 -131.18 5.61621c-43.0596 24.0557 -68.4766 66.7148 -78.6621 113.66
c-10.3379 47.6543 -6.01758 97.667 3.14551 145.187c9.3457 48.4766 25.2656 96.2393 53.7549 136.963c30.5645 43.6816 74.3506 70.5479 127.957 74.416c34.5586 2.49316 81.4121 -4.48145 94.5645 -42.4902c12.9697 -37.4688 -12.3428 -75.1729 -39.6748 -98.7715
c-28.9805 -25.0215 -64.9873 -39.875 -102.709 -43.7119c-1.00977 -3.28906 -2.01953 -6.57422 -2.98535 -9.86328c-19.0264 -64.8271 -28.5068 -135.806 -21.4414 -203.147c2.60645 -24.8564 9.83789 -62.7256 41.4248 -62.8125
c36.6162 -0.0957031 70.9785 28.0928 97.127 50.8955c52.1309 45.457 89.1084 102.226 125.824 160.096zM153.895 370.255c-9.61523 -18.2041 -17.7988 -37.3389 -24.9512 -56.8213c25.5127 6.80859 48.1494 19.8916 66.6406 40.9932
c11.2119 12.7959 21.8457 30.0029 21.7852 47.6152c-0.0351562 10.6416 -8.18457 30.8428 -22.4902 26.248c2.82324 0.90918 -7.78809 -8.22266 -9.72852 -10.3506c-3.77246 -4.13281 -6.63965 -8.44922 -9.85449 -13.0088
c-7.87891 -11.1816 -15.0059 -22.5674 -21.4014 -34.6758z" />
    <glyph glyph-name="e" unicode="&#xe9;" horiz-adv-x="366" 
d="M357.986 216.175c8.01855 12.6387 49.5938 9.99023 41.166 -6.46484c-44.0078 -85.9365 -116.101 -182.059 -208.312 -219.571c-41.0146 -16.6855 -91.9141 -16.3203 -131.18 5.61621c-43.0596 24.0557 -68.4766 66.7148 -78.6621 113.66
c-10.3379 47.6543 -6.01758 97.667 3.14551 145.187c9.3457 48.4766 25.2656 96.2393 53.7549 136.963c30.5645 43.6816 74.3506 70.5479 127.957 74.416c34.5586 2.49316 81.4121 -4.48145 94.5645 -42.4902c12.9697 -37.4688 -12.3428 -75.1729 -39.6748 -98.7715
c-28.9805 -25.0215 -64.9873 -39.875 -102.709 -43.7119c-1.00977 -3.28906 -2.01953 -6.57422 -2.98535 -9.86328c-19.0264 -64.8271 -28.5068 -135.806 -21.4414 -203.147c2.60645 -24.8564 9.83789 -62.7256 41.4248 -62.8125
c36.6162 -0.0957031 70.9785 28.0928 97.127 50.8955c52.1309 45.457 89.1084 102.226 125.824 160.096zM153.895 370.255c-9.61523 -18.2041 -17.7988 -37.3389 -24.9512 -56.8213c25.5127 6.80859 48.1494 19.8916 66.6406 40.9932
c11.2119 12.7959 21.8457 30.0029 21.7852 47.6152c-0.0351562 10.6416 -8.18457 30.8428 -22.4902 26.248c2.82324 0.90918 -7.78809 -8.22266 -9.72852 -10.3506c-3.77246 -4.13281 -6.63965 -8.44922 -9.85449 -13.0088
c-7.87891 -11.1816 -15.0059 -22.5674 -21.4014 -34.6758z" />
    <glyph glyph-name="f" unicode="f" horiz-adv-x="377" 
d="M403.277 269.189c6.58691 -2.42773 15.8682 -10.3789 7.92383 -17.2012c-80.2109 -68.8516 -170.441 -123.458 -261.434 -176.594c58.8184 -40.3574 102.344 -100.716 119.625 -170.459c8.35742 -33.7363 15.1016 -76.0957 -3.88965 -107.552
c-17.6689 -29.2676 -55.834 -41.7939 -88.4258 -41.4678c-80.1367 0.800781 -135.7 76.9658 -160.896 145.199c-28.1104 76.1299 -33.4883 164.795 -34.9287 245.241c-2.90234 161.841 18.3516 346.301 115.87 481.162c40.1143 55.4766 118.124 135.845 195.307 107.821
c65.9971 -23.9639 44.5039 -134.352 30.6426 -183.881c-21.375 -76.3867 -62.4424 -148.871 -105.994 -214.659c-31.3213 -47.3145 -65.9707 -93.8682 -103.905 -136.806c-0.661133 -19.1826 -0.948242 -38.3916 -0.756836 -57.626
c0.165039 -16.5986 0.416992 -33.2617 0.830078 -49.9424c89.9912 52.1357 180 105.181 259.85 172.252c7.89648 6.63477 20.6143 8.04004 30.1816 4.51172zM168.827 542.234c-25.3691 -87.6992 -42.7627 -177.38 -51.0029 -268.046
c66.9805 78.9277 123.045 167.771 156.842 265.35c11.4639 33.1006 18.6729 67.5498 18.2246 102.704c-0.265625 20.7617 -3.74609 80.9941 -37.0518 59.7275c-50.3867 -32.1738 -71.4316 -105.89 -87.0117 -159.735zM211.409 -64.9072
c-19.6436 49.6162 -53.2627 92.4229 -96.9883 122.617c1.64062 -39.6143 4.53809 -79.2061 9.96387 -118.254c4.36426 -31.4209 9.86816 -62.8643 22.5459 -92.1318c8.75781 -20.2139 22.3457 -48.6807 45.6484 -55.2939c29.2764 -8.30566 36.8076 37.1074 36.6904 57.0518
c-0.173828 29.3369 -7.10059 58.8311 -17.8604 86.0107z" />
    <glyph glyph-name="g" unicode="g" horiz-adv-x="504" 
d="M505.328 233.778c17.7168 7.27441 51.0576 -11.1953 23.2168 -22.6514c-48.1631 -19.835 -94.7334 -43.4336 -139.124 -70.5654c-0.878906 -65.7363 -4.29004 -131.307 -13.418 -196.285c-9.28027 -66.0801 -23.6035 -131.973 -47.585 -194.367
c-21.3359 -55.5156 -52.374 -106.485 -103.387 -139.029c-42.7637 -27.2842 -95.3125 -34.0146 -139.864 -6.07422c-47.8457 30.0029 -67.4375 84.9014 -62.6172 139.569c10.3633 117.566 95.7305 221.572 179.053 298.347c22.0234 20.292 44.9648 39.4619 68.7158 57.5176
c-1.09668 50.7432 -3.48047 101.495 -4.9248 152.238c-11.8428 -33.9102 -24.1816 -67.7637 -38.9609 -100.412c-28.1973 -62.2773 -76.7998 -130.571 -153.557 -126.407c-39.7227 2.15332 -73.7197 28.1924 -87.8945 65.2266
c-15.0576 39.3438 -12.3867 82.5859 -5.29492 123.271c13.4922 77.3789 55.8213 142.793 124.046 182.934c44.5518 26.209 113.699 40.4277 164.06 17.5342c13.209 40.2188 118.659 37.5908 118.886 -6.91309c0.387695 -76.1953 3.0332 -152.956 3.01562 -229.608
c37.3516 20.8145 75.9863 39.3965 115.635 55.6768zM236.689 299.091c8.34961 24.2295 18.3105 48.9355 26.4902 73.9219c-56.2422 60.6152 -110.462 -31.4521 -131.654 -78.1191c-28.1016 -61.8721 -49.333 -138.237 -38.1865 -206.471
c1.19238 -7.30957 4.46875 -26.4619 13.2051 -29.2158c7.15723 -2.25781 29.2334 23.0898 34.0713 28.6279c24.7344 28.3145 40.7803 63.2031 54.6592 97.7959c14.9844 37.3555 28.3105 75.4121 41.415 113.46zM262.67 -127.123
c6.7041 55.5811 7.88281 111.417 8.21387 167.329c0.0302734 4.91602 0.00390625 9.83203 -0.00488281 14.748c-15.5449 -13.1738 -30.6982 -26.8184 -45.3516 -41.0195c-73.8281 -71.5488 -151.315 -169.812 -156.44 -277.132
c-2.23242 -46.71 16.6279 -106.081 66.7754 -121.2c54.876 -16.5459 80.1582 52.1094 91.3662 92.1797c15.2451 54.5107 28.6494 108.778 35.4414 165.095z" />
    <glyph glyph-name="h" unicode="h" horiz-adv-x="556" 
d="M544.767 170.801c6.87012 15.7197 52.2139 10.9395 44.3691 -6.98145c-23.4248 -53.6016 -46.8672 -107.26 -73.7119 -159.261c-13.3965 -25.957 -27.7627 -51.3486 -42.9688 -76.2871c-12.6562 -20.7666 -25.4736 -42.6465 -44.8516 -57.9092
c-32.3916 -25.5088 -84.2617 -28.5938 -119.82 -7.39648c-43.4121 25.874 -53.2705 88.6641 -55.1328 134.73c-2.10547 52.0488 8.9668 103.623 19.1387 154.393c10.3418 51.5957 22.1758 103.222 29.8545 155.283c3.11035 21.084 4.74219 42.4424 3.46289 63.7656
c-0.5 8.29688 -1.37891 25.5479 -13.583 23.2676c-8.15332 -1.51855 -17.3682 -15.0752 -22.5586 -21.0615c-34.3799 -39.6309 -56.1123 -89.8086 -76.9131 -137.437c-39.4531 -90.335 -70.874 -183.812 -101.386 -277.471
c-2.60645 -13.9707 -5.77832 -27.7891 -9.80273 -41.3682c-7 -23.6162 -68.7246 -22.668 -76.499 0c-16.2715 47.4414 -18.4951 97.0186 -20.9189 146.831c-2.90234 59.7148 -0.988281 120.408 2.03125 180.079c5.60352 110.715 13.2744 223.73 42.377 331.169
c14.7666 54.5195 33.6357 109.053 59.623 159.296c26.127 50.5078 74.3076 109.226 132.46 122.539c56.5947 12.9609 100.154 -22.8984 108.017 -78.4453c8.83691 -62.4072 -18.8867 -133.777 -42.6338 -190.354c-42.5986 -101.504 -105.815 -192.296 -171.19 -280.49
c-3.46777 -45.8574 -6.37891 -91.7666 -8.93262 -137.802c-0.708984 -12.8213 -1.20508 -25.7822 -1.63184 -38.8037c9.87598 27.4141 20.1787 54.667 31.2383 81.6289c15.0449 36.6729 30.8467 73.3584 49.6768 108.273c16.7764 31.1172 37.4902 65.7061 66.3535 87.0732
c28.2188 20.8926 59.9922 18.3779 90.2949 3.71191c33.71 -16.3115 53.4756 -45.4492 62.0469 -81.0342c18.8994 -78.4668 2.08789 -159.861 -9.65918 -238.114c-6.10449 -40.6621 -10.4688 -81.6025 -14.1797 -122.543
c-2.69336 -29.6641 -4.88574 -59.667 -0.921875 -89.0918c6.16895 3.86328 12.3037 6.84375 17.751 12.0039c10.9033 10.333 19.209 23.0723 27.3887 35.5635c16.002 24.4424 30.2812 50.042 43.8252 75.916c28.376 54.2021 52.8975 110.292 77.3877 166.326z
M129.035 468.122c-2.99316 -26.4746 -5.66992 -52.9443 -8.12402 -79.4141c48.459 69.3818 92.6416 141.648 124.032 220.441c21.1494 53.0791 48.8379 124.015 33.0225 181.511c-3.5498 12.9043 -10.6592 29.8066 -23.2246 36.4805
c-13.2129 7.02246 -24.0244 -3.80273 -33.248 -13.1396c-17.4854 -17.6992 -26.5869 -41.4287 -35.2275 -64.2832c-33.5791 -88.8389 -46.6055 -187.532 -57.2305 -281.596z" />
    <glyph glyph-name="i" unicode="i" horiz-adv-x="237" 
d="M228.39 232.169c4.83398 14.4141 45.2119 11.3379 40.2432 -6.31738c-17.6855 -62.9258 -44.6211 -126.991 -84.0566 -179.609c-34.4971 -46.0273 -86.8105 -52.4844 -137.236 -27.4062c-63.3564 31.5039 -64.4004 119.072 -66.6494 179.861
c-2.64062 71.4092 2.33691 144.746 14.5146 215.138c4.52441 26.1436 36.0371 33.5967 58.9395 33.5967c19.2178 0 59.2715 -7.53125 58.9404 -33.5967c-1.42676 -112.276 -20.9834 -224.27 -17.6201 -336.75c0.382812 -12.8213 2.70215 -22.7324 7.20508 -34.4883
c3.76367 -9.81543 2.5625 -16.1895 14.7363 -9.77637c21.2842 11.2119 34.7451 36.7812 46.54 56.6211c26.7139 44.9346 47.8369 93.2021 64.4434 142.728zM85.7207 508.762c-9.66309 -16.2236 -50.4834 -19.3447 -59.0674 -0.000976562
c-11.9863 27.0273 -10.7725 60.4678 -9.63672 89.4443c1.43164 36.5469 93.7031 33.7188 90.2793 0c-2.96289 -29.168 -6.30859 -63.8174 -21.5752 -89.4434z" />
    <glyph glyph-name="i" unicode="&#xef;" horiz-adv-x="237" 
d="M228.39 232.169c4.83398 14.4141 45.2119 11.3379 40.2432 -6.31738c-17.6855 -62.9258 -44.6211 -126.991 -84.0566 -179.609c-34.4971 -46.0273 -86.8105 -52.4844 -137.236 -27.4062c-63.3564 31.5039 -64.4004 119.072 -66.6494 179.861
c-2.64062 71.4092 2.33691 144.746 14.5146 215.138c4.52441 26.1436 36.0371 33.5967 58.9395 33.5967c19.2178 0 59.2715 -7.53125 58.9404 -33.5967c-1.42676 -112.276 -20.9834 -224.27 -17.6201 -336.75c0.382812 -12.8213 2.70215 -22.7324 7.20508 -34.4883
c3.76367 -9.81543 2.5625 -16.1895 14.7363 -9.77637c21.2842 11.2119 34.7451 36.7812 46.54 56.6211c26.7139 44.9346 47.8369 93.2021 64.4434 142.728zM85.7207 508.762c-9.66309 -16.2236 -50.4834 -19.3447 -59.0674 -0.000976562
c-11.9863 27.0273 -10.7725 60.4678 -9.63672 89.4443c1.43164 36.5469 93.7031 33.7188 90.2793 0c-2.96289 -29.168 -6.30859 -63.8174 -21.5752 -89.4434z" />
    <glyph glyph-name="i" unicode="&#xee;" horiz-adv-x="237" 
d="M228.39 232.169c4.83398 14.4141 45.2119 11.3379 40.2432 -6.31738c-17.6855 -62.9258 -44.6211 -126.991 -84.0566 -179.609c-34.4971 -46.0273 -86.8105 -52.4844 -137.236 -27.4062c-63.3564 31.5039 -64.4004 119.072 -66.6494 179.861
c-2.64062 71.4092 2.33691 144.746 14.5146 215.138c4.52441 26.1436 36.0371 33.5967 58.9395 33.5967c19.2178 0 59.2715 -7.53125 58.9404 -33.5967c-1.42676 -112.276 -20.9834 -224.27 -17.6201 -336.75c0.382812 -12.8213 2.70215 -22.7324 7.20508 -34.4883
c3.76367 -9.81543 2.5625 -16.1895 14.7363 -9.77637c21.2842 11.2119 34.7451 36.7812 46.54 56.6211c26.7139 44.9346 47.8369 93.2021 64.4434 142.728zM85.7207 508.762c-9.66309 -16.2236 -50.4834 -19.3447 -59.0674 -0.000976562
c-11.9863 27.0273 -10.7725 60.4678 -9.63672 89.4443c1.43164 36.5469 93.7031 33.7188 90.2793 0c-2.96289 -29.168 -6.30859 -63.8174 -21.5752 -89.4434z" />
    <glyph glyph-name="i" unicode="&#xed;" horiz-adv-x="237" 
d="M228.39 232.169c4.83398 14.4141 45.2119 11.3379 40.2432 -6.31738c-17.6855 -62.9258 -44.6211 -126.991 -84.0566 -179.609c-34.4971 -46.0273 -86.8105 -52.4844 -137.236 -27.4062c-63.3564 31.5039 -64.4004 119.072 -66.6494 179.861
c-2.64062 71.4092 2.33691 144.746 14.5146 215.138c4.52441 26.1436 36.0371 33.5967 58.9395 33.5967c19.2178 0 59.2715 -7.53125 58.9404 -33.5967c-1.42676 -112.276 -20.9834 -224.27 -17.6201 -336.75c0.382812 -12.8213 2.70215 -22.7324 7.20508 -34.4883
c3.76367 -9.81543 2.5625 -16.1895 14.7363 -9.77637c21.2842 11.2119 34.7451 36.7812 46.54 56.6211c26.7139 44.9346 47.8369 93.2021 64.4434 142.728zM85.7207 508.762c-9.66309 -16.2236 -50.4834 -19.3447 -59.0674 -0.000976562
c-11.9863 27.0273 -10.7725 60.4678 -9.63672 89.4443c1.43164 36.5469 93.7031 33.7188 90.2793 0c-2.96289 -29.168 -6.30859 -63.8174 -21.5752 -89.4434z" />
    <glyph glyph-name="j" unicode="j" horiz-adv-x="234" 
d="M235.482 233.778c17.7168 7.27441 51.0576 -11.1953 23.2217 -22.6514c-48.1631 -19.835 -94.7334 -43.4336 -139.124 -70.5654c-0.878906 -65.7363 -4.29004 -131.307 -13.418 -196.285c-9.28027 -66.0801 -23.6035 -131.973 -47.585 -194.367
c-21.3359 -55.5156 -52.374 -106.485 -103.387 -139.029c-42.7637 -27.2842 -95.3125 -34.0146 -139.864 -6.07422c-47.8457 30.0029 -67.4375 84.9014 -62.6172 139.569c10.3633 117.566 95.7305 221.572 179.053 298.347c22.0195 20.292 44.9658 39.4619 68.7168 57.5176
c-2.21875 102.505 -9.79297 205.031 -3.90625 307.471c2.72363 47.3281 120.021 46.9277 120.26 0c0.387695 -76.1953 3.0332 -152.956 3.01562 -229.608c37.3516 20.8145 75.9863 39.3965 115.635 55.6768zM-7.17383 -127.125
c6.7041 55.5811 7.88281 111.417 8.21387 167.329c0.0302734 4.91602 0.00390625 9.83203 -0.00488281 14.748c-15.5449 -13.1738 -30.6982 -26.8184 -45.3516 -41.0195c-73.8281 -71.5488 -151.315 -169.812 -156.44 -277.132
c-2.23242 -46.71 16.6279 -106.081 66.7754 -121.2c54.876 -16.5459 80.1582 52.1094 91.3662 92.1797c15.2451 54.5107 28.6494 108.778 35.4414 165.095zM81.0293 513.378c-3.51953 -15.8408 -41.2402 -20.2178 -46.6006 -3.59375
c-9.58887 29.7158 -12.6348 56.2861 -7.26172 87.3418c5.45117 31.5215 81.3945 27.5625 72.7754 -5.6123c-6.70898 -25.8135 -13.1348 -52.1357 -18.9131 -78.1357z" />
    <glyph glyph-name="k" unicode="k" horiz-adv-x="485" 
d="M476.489 209.292c6.34375 15.5889 50.9336 10.8496 43.4678 -6.82324c-23.499 -55.6201 -53.3848 -109.578 -91.8418 -156.341c-34.2324 -41.6279 -77.1699 -72.7793 -132.438 -75.6943c-62.5859 -3.29785 -119.076 27.4229 -147.287 84.3916
c-13.7354 27.7363 -17.2852 62.3643 -18.8213 92.9551c-0.474609 9.44141 -0.678711 19.4609 -0.0566406 29.4678c-9.23242 -20.9492 -17.9336 -41.9893 -26.4746 -62.6904c-1.97949 -66.502 -3.49316 -134.427 -22.1797 -197.482c-7 -23.6162 -68.7246 -22.668 -76.499 0
c-16.2715 47.4414 -18.4951 97.0186 -20.9189 146.831c-2.90234 59.7148 -0.988281 120.408 2.03125 180.079c5.60352 110.715 13.2744 223.73 42.377 331.169c14.7705 54.5195 33.6396 109.053 59.627 159.296c26.1221 50.5078 74.3027 109.226 132.455 122.539
c56.5947 12.9609 100.154 -22.8984 108.017 -78.4453c8.83691 -62.4072 -18.8867 -133.777 -42.6338 -190.354c-42.5986 -101.504 -105.815 -192.296 -171.19 -280.49c-1.88379 -24.8994 -3.60254 -49.8115 -5.18164 -74.75
c15.3535 31.1689 32.6826 61.3027 53.5752 89.4395c36.1416 48.6719 92.623 108.938 156.949 115.017c27.0137 2.5498 56.2295 -8.68848 61.7334 -37.8252c6.00391 -31.7607 -20.4102 -61.4375 -42.1338 -80.8809c-25.126 -22.4854 -54.8418 -40.7539 -85.4014 -54.833
c-19.2217 -8.8584 -39.5312 -17.6123 -60.3584 -23.4814c0.143555 -0.0917969 0.304688 -0.174805 0.444336 -0.270508c45.709 -31.9521 49.9551 -92.6982 61.0713 -142.854c5.68164 -25.6348 9.98438 -90.9053 44.0332 -97.0967
c21.9238 -3.98535 46.9629 13.7266 62.4951 26.8135c18.6387 15.7061 33.7275 35.0586 47.459 55.0811c27.2617 39.7666 49.5293 82.6084 67.6807 127.234zM129.03 468.123c-2.99316 -26.4746 -5.6748 -52.9434 -8.12402 -79.4131
c48.459 69.3818 92.6416 141.648 124.032 220.441c21.1494 53.0791 48.8379 124.015 33.0225 181.511c-3.5459 12.9043 -10.6592 29.8066 -23.2246 36.4805c-13.2129 7.02246 -24.0244 -3.80273 -33.248 -13.1396c-17.4854 -17.6992 -26.5869 -41.4287 -35.2275 -64.2832
c-33.5791 -88.8389 -46.6055 -187.532 -57.2305 -281.597zM276.638 385.737c-41.7588 -30.9951 -73.6855 -71.1533 -100.056 -115.297c13.8701 3.03711 27.6973 6.28711 41.2236 11.791c26.0439 10.5986 51.1826 24.8867 73.0674 42.5684
c18.5 14.9453 44.0918 37.7344 45.2314 63.4736c1.79688 40.5273 -43.4297 9.36719 -59.4668 -2.53613z" />
    <glyph glyph-name="l" unicode="l" horiz-adv-x="356" 
d="M350.478 236.667c5.36426 14.083 45.3779 10.9209 39.7959 -6.25195c-26.5791 -81.6816 -66.6973 -157.929 -117.393 -227.236c-21.0361 -28.7539 -43.8564 -60.4453 -78.4492 -73.5977c-33.166 -12.6133 -73.0195 -7.22656 -103.714 9.52832
c-31.917 17.416 -55.459 42.5156 -69.7207 75.79c-15.4717 36.0986 -24.1035 76.1826 -28.9629 115.035c-10.5332 84.2178 -12.6172 169.688 -6.9873 254.398c10.3633 155.972 33.7314 336.82 145.451 455.705c42.0674 44.7656 134.883 75.5957 179.892 18.3311
c44.4473 -56.5469 14.375 -143.759 -3.46777 -205.418c-42.6895 -147.522 -119.146 -284.037 -197.446 -415.349c-0.143555 -37.3428 0.634766 -74.6895 2.08398 -111.897c1.29199 -33.21 0.317383 -66.7197 7.52246 -99.3896
c4.77246 -21.6406 11.8555 -51.8828 27.8486 -68.0723c10.1592 -10.2812 14.5488 -10.5469 27.8711 -3.51172c13.3135 7.03125 24.0947 18.7744 33.7705 30.1035c20.8711 24.4336 39.2266 51.335 56.3818 78.4707c34.4668 54.5244 62.5684 113.125 85.5234 173.361z
M112.527 341.957c-0.313477 -5.45117 -0.553711 -10.9121 -0.819336 -16.3682c57.3652 101.195 111.915 203.878 147.183 315.401c10.2373 32.3701 18.9043 65.2842 25.1953 98.6631c6.04297 32.0742 11.7559 70.0918 -8.63184 98.5195
c-6.71289 9.36719 -20.0215 22.7588 -31.8164 15.9893c-8.89746 -5.10742 -13.709 -18.543 -19.1211 -26.7266c-17.7773 -26.8877 -29.5547 -55.1982 -39.8271 -85.6279c-43.7949 -129.719 -64.2959 -263.405 -72.1621 -399.851z" />
    <glyph glyph-name="m" unicode="m" horiz-adv-x="713" 
d="M701.914 219.478c9.37598 14.5488 54.2432 8.39746 44.376 -6.97363c-44.0869 -68.7031 -76.918 -144.268 -125.925 -209.847c-18.752 -25.0908 -38.5693 -51.1689 -69.46 -61.4365c-30.6123 -10.1768 -64.0869 -2.25391 -90.4443 15.2969
c-14.7275 9.80273 -33.8447 20.9795 -42.6895 36.4424c-8.61035 15.0537 -12.2822 33.5791 -13.3701 50.7383c-2.47949 39.1006 10.4639 79.876 18.6826 117.763c8.74512 40.3184 20.2832 79.958 29.2158 120.233c4.49902 20.2793 10.0596 40.415 13.4102 60.9424
c1.2793 7.81836 4.00684 18.1904 2.78906 26.0781c-0.0605469 0.370117 0.196289 2.66309 1.11426 3.50684c-3.11914 -0.834961 -9.6582 -4.91602 -11.5381 -6.09082c-30.0293 -18.752 -49.4688 -56.6211 -66.7197 -86.3369
c-18.6475 -32.126 -35.002 -65.7754 -50.0645 -99.7334c-0.161133 -1.85742 -0.326172 -3.72363 -0.482422 -5.57715c-3.75879 -44.9258 -115.848 -43.2422 -113.12 0c3.98926 63.2734 19.874 125.464 28.9365 188.115c1.1748 8.11816 11.377 70.9082 2.74512 72.749
c-6.83105 1.45801 -24.7822 -23.5244 -28.3154 -28.1318c-8.66699 -11.3125 -16.3984 -23.3906 -23.6602 -35.6465c-52.9277 -89.3389 -87.6387 -192.353 -110.341 -294.439c-0.326172 -5.58594 -0.72168 -11.168 -1.35645 -16.7461
c-1.41797 -12.5303 -5.81641 -24.9434 -6.23438 -37.4473c-0.953125 -28.5371 -54.5723 -23.4727 -68.6992 -10.6074c-24.5518 22.3584 -27.5059 59.2178 -31.6699 90.3125c-4.70801 35.1504 -6.6875 70.3828 -7.68848 105.82
c-2.01465 71.4795 3.51074 144.694 15.1055 215.194c4.47656 27.2139 37.6865 34.9492 61.3203 34.9492c18.125 0 64.1475 -8.14941 61.3193 -34.9502c-6.06055 -57.3828 -11.2031 -114.557 -14.6836 -172.048c23.1377 61.8418 50.0947 127.678 93.5195 177.891
c19.0264 21.998 47.1328 40.6016 77.6104 34.7412c30.9902 -5.96094 49.0029 -36.8818 58.2305 -64.5225c12.1865 -36.5029 15.4541 -74.3848 14.9014 -112.511c2.42383 4.30273 4.88672 8.59277 7.41016 12.8613c17.7646 30.0381 36.9824 62.9434 66.5508 82.8438
c25.1914 16.9551 57.4834 22.7461 85.0195 8.42285c33.9102 -17.6377 42.6992 -53.2314 46.5537 -88.7256c8.65332 -79.6719 -11.6953 -161.258 -24.5391 -239.429c-2.87988 -17.5117 -5.75977 -35.0762 -5.84668 -52.875
c-0.0439453 -8.57129 -0.770508 -14.541 -2.35449 -22.8682c-1.04883 -5.49512 -2.39355 -10.6592 1.64844 -15.6582c10.0762 -12.4561 28.1758 10.1074 35.8154 18.457c12.5693 13.7266 23.6729 28.6494 34.084 44.0508c40.1533 59.3926 70.043 124.95 108.844 185.191z
" />
    <glyph glyph-name="n" unicode="n" horiz-adv-x="498" 
d="M488.556 182.383c8.80566 13.7568 52.3789 8.96582 43.0117 -6.75391c-27.084 -45.4053 -55.334 -90.3574 -86.668 -132.965c-25.5742 -34.7715 -51.7529 -71.666 -95.5527 -83.3086c-38.5 -10.2334 -86.6631 -0.25293 -110.522 33.4219
c-14.1006 19.9053 -21.9404 37.7783 -21.4141 62.9434c0.491211 23.4072 6.6123 46.5146 11.9941 69.1387c22.3193 93.8467 58.5527 184.887 87.377 276.858c3.77637 12.0518 8.12305 23.873 10.877 36.2119c2.39746 10.7334 4.17285 15.8105 -8.23145 12.7998
c-19.5527 -4.74707 -38.0215 -24.1123 -50.9824 -38.5312c-29.6113 -32.9443 -51.3301 -73.7549 -71.6309 -112.838c-41.498 -79.8848 -71.4014 -164.469 -104.45 -247.947c-2.36719 -16.7549 -6.61328 -32.8184 -14.8535 -45.4834
c-13.666 -20.9971 -53.1973 -19.1309 -67.3242 0c-20.5273 27.7881 -21.624 73.9111 -23.9121 107.386c-2.33203 34.0967 -3.44141 67.9502 -3.25391 102.121c0.382812 71.0088 1.90527 142.104 12.8906 212.356c4.09375 26.1787 36.3984 33.5967 58.9395 33.5967
c18.8994 0 59.6963 -7.56641 58.9395 -33.5967c-2.05762 -70.9004 -9.20605 -141.492 -12.373 -212.357c-0.347656 -7.80566 -0.739258 -15.6025 -1.10938 -23.4033c20.4355 49.9951 43.3037 98.9629 69.5654 145.829c33.2266 59.2969 90.9746 155.197 172.922 141.697
c18.291 -3.01074 37.8174 -16.3193 49.834 -30.1982c12.9219 -14.9277 15.2627 -35.6982 15.7627 -54.7158c1.27051 -48.4551 -7.13965 -95.4219 -17.6992 -142.479c-10.7334 -47.8457 -23.5332 -95.6436 -37.2598 -142.71
c-6.84766 -23.4766 -14.9834 -46.7617 -19.9219 -70.7393c-2.58008 -12.5342 -13.1006 -38.1865 -3.81152 -50.6777c0.483398 -0.648438 0.59668 -1.05273 0.540039 -1.30957c0.361328 -0.00878906 0.796875 -0.0351562 1.38867 -0.100586
c3.81152 -0.40918 7.61426 1.95312 10.9209 3.4541c9.55469 4.33301 17.834 12.5127 25.1084 19.9004c15.6631 15.915 29.0938 34.4541 42.1504 52.501c28.0625 38.7832 52.9619 79.6064 78.749 119.899z" />
    <glyph glyph-name="o" unicode="o" horiz-adv-x="398" 
d="M432.044 237.312c5.96484 -7.31348 0.341797 -14.751 -7.8291 -17.0225c-40.5576 -11.2598 -82.2686 -22.415 -124.362 -26.6699c-19.5391 -97.5361 -77.5352 -226.95 -197.643 -213.454c-142.223 15.9805 -145.521 200.885 -111.001 304.524
c8.10547 24.3291 52.5967 26.3652 71.9189 23.2764c1.16992 -0.1875 2.35352 -0.40918 3.54102 -0.648438c-15.4805 39.0879 -14.3799 84.127 8.24902 120.582c24.9824 40.2578 72.458 66.7979 120.465 59.9414c55.4248 -7.91406 84.123 -56.625 98.2852 -106.185
c14.8838 -52.083 17.9385 -106.946 10.7773 -160.513c33.2178 3.88965 66.584 12.2471 97.7441 20.627c8.44043 2.27148 23.4287 3.41602 29.8545 -4.45898zM220.877 103.24c13.2217 28.498 23.2334 58.3506 29.9248 88.9756
c-12.1953 0.62207 -24.3994 1.99219 -36.5898 4.38477c-42.3721 8.32324 -83.1611 27.3926 -113.029 58.0479c-9.97168 -45.9834 -11.999 -93.2373 -8.6709 -140.078c1.80957 -25.5176 8.10059 -97.2051 45.3301 -97.6885
c40.5498 -0.526367 68.8037 55.6855 83.0352 86.3584zM257.864 234.393c5.26855 46.6709 2.91895 94.7754 -9.95508 140.08c-9.47168 33.3311 -33.0703 97.6309 -78.71 85.2881c-35.9893 -9.7373 -60.6406 -48.9209 -64.9043 -84.2539
c-4.69922 -38.957 10.4111 -78.8975 37.3516 -107.043c32.5352 -33.9883 72.2793 -47.1846 114.182 -49.2686c0.761719 5.05078 1.46191 10.1152 2.03613 15.1973z" />
    <glyph glyph-name="o" unicode="&#xf6;" horiz-adv-x="398" 
d="M432.044 237.312c5.96484 -7.31348 0.341797 -14.751 -7.8291 -17.0225c-40.5576 -11.2598 -82.2686 -22.415 -124.362 -26.6699c-19.5391 -97.5361 -77.5352 -226.95 -197.643 -213.454c-142.223 15.9805 -145.521 200.885 -111.001 304.524
c8.10547 24.3291 52.5967 26.3652 71.9189 23.2764c1.16992 -0.1875 2.35352 -0.40918 3.54102 -0.648438c-15.4805 39.0879 -14.3799 84.127 8.24902 120.582c24.9824 40.2578 72.458 66.7979 120.465 59.9414c55.4248 -7.91406 84.123 -56.625 98.2852 -106.185
c14.8838 -52.083 17.9385 -106.946 10.7773 -160.513c33.2178 3.88965 66.584 12.2471 97.7441 20.627c8.44043 2.27148 23.4287 3.41602 29.8545 -4.45898zM220.877 103.24c13.2217 28.498 23.2334 58.3506 29.9248 88.9756
c-12.1953 0.62207 -24.3994 1.99219 -36.5898 4.38477c-42.3721 8.32324 -83.1611 27.3926 -113.029 58.0479c-9.97168 -45.9834 -11.999 -93.2373 -8.6709 -140.078c1.80957 -25.5176 8.10059 -97.2051 45.3301 -97.6885
c40.5498 -0.526367 68.8037 55.6855 83.0352 86.3584zM257.864 234.393c5.26855 46.6709 2.91895 94.7754 -9.95508 140.08c-9.47168 33.3311 -33.0703 97.6309 -78.71 85.2881c-35.9893 -9.7373 -60.6406 -48.9209 -64.9043 -84.2539
c-4.69922 -38.957 10.4111 -78.8975 37.3516 -107.043c32.5352 -33.9883 72.2793 -47.1846 114.182 -49.2686c0.761719 5.05078 1.46191 10.1152 2.03613 15.1973z" />
    <glyph glyph-name="o" unicode="&#xf5;" horiz-adv-x="398" 
d="M432.044 237.312c5.96484 -7.31348 0.341797 -14.751 -7.8291 -17.0225c-40.5576 -11.2598 -82.2686 -22.415 -124.362 -26.6699c-19.5391 -97.5361 -77.5352 -226.95 -197.643 -213.454c-142.223 15.9805 -145.521 200.885 -111.001 304.524
c8.10547 24.3291 52.5967 26.3652 71.9189 23.2764c1.16992 -0.1875 2.35352 -0.40918 3.54102 -0.648438c-15.4805 39.0879 -14.3799 84.127 8.24902 120.582c24.9824 40.2578 72.458 66.7979 120.465 59.9414c55.4248 -7.91406 84.123 -56.625 98.2852 -106.185
c14.8838 -52.083 17.9385 -106.946 10.7773 -160.513c33.2178 3.88965 66.584 12.2471 97.7441 20.627c8.44043 2.27148 23.4287 3.41602 29.8545 -4.45898zM220.877 103.24c13.2217 28.498 23.2334 58.3506 29.9248 88.9756
c-12.1953 0.62207 -24.3994 1.99219 -36.5898 4.38477c-42.3721 8.32324 -83.1611 27.3926 -113.029 58.0479c-9.97168 -45.9834 -11.999 -93.2373 -8.6709 -140.078c1.80957 -25.5176 8.10059 -97.2051 45.3301 -97.6885
c40.5498 -0.526367 68.8037 55.6855 83.0352 86.3584zM257.864 234.393c5.26855 46.6709 2.91895 94.7754 -9.95508 140.08c-9.47168 33.3311 -33.0703 97.6309 -78.71 85.2881c-35.9893 -9.7373 -60.6406 -48.9209 -64.9043 -84.2539
c-4.69922 -38.957 10.4111 -78.8975 37.3516 -107.043c32.5352 -33.9883 72.2793 -47.1846 114.182 -49.2686c0.761719 5.05078 1.46191 10.1152 2.03613 15.1973z" />
    <glyph glyph-name="o" unicode="&#xf4;" horiz-adv-x="398" 
d="M432.044 237.312c5.96484 -7.31348 0.341797 -14.751 -7.8291 -17.0225c-40.5576 -11.2598 -82.2686 -22.415 -124.362 -26.6699c-19.5391 -97.5361 -77.5352 -226.95 -197.643 -213.454c-142.223 15.9805 -145.521 200.885 -111.001 304.524
c8.10547 24.3291 52.5967 26.3652 71.9189 23.2764c1.16992 -0.1875 2.35352 -0.40918 3.54102 -0.648438c-15.4805 39.0879 -14.3799 84.127 8.24902 120.582c24.9824 40.2578 72.458 66.7979 120.465 59.9414c55.4248 -7.91406 84.123 -56.625 98.2852 -106.185
c14.8838 -52.083 17.9385 -106.946 10.7773 -160.513c33.2178 3.88965 66.584 12.2471 97.7441 20.627c8.44043 2.27148 23.4287 3.41602 29.8545 -4.45898zM220.877 103.24c13.2217 28.498 23.2334 58.3506 29.9248 88.9756
c-12.1953 0.62207 -24.3994 1.99219 -36.5898 4.38477c-42.3721 8.32324 -83.1611 27.3926 -113.029 58.0479c-9.97168 -45.9834 -11.999 -93.2373 -8.6709 -140.078c1.80957 -25.5176 8.10059 -97.2051 45.3301 -97.6885
c40.5498 -0.526367 68.8037 55.6855 83.0352 86.3584zM257.864 234.393c5.26855 46.6709 2.91895 94.7754 -9.95508 140.08c-9.47168 33.3311 -33.0703 97.6309 -78.71 85.2881c-35.9893 -9.7373 -60.6406 -48.9209 -64.9043 -84.2539
c-4.69922 -38.957 10.4111 -78.8975 37.3516 -107.043c32.5352 -33.9883 72.2793 -47.1846 114.182 -49.2686c0.761719 5.05078 1.46191 10.1152 2.03613 15.1973z" />
    <glyph glyph-name="o" unicode="&#xf3;" horiz-adv-x="398" 
d="M432.044 237.312c5.96484 -7.31348 0.341797 -14.751 -7.8291 -17.0225c-40.5576 -11.2598 -82.2686 -22.415 -124.362 -26.6699c-19.5391 -97.5361 -77.5352 -226.95 -197.643 -213.454c-142.223 15.9805 -145.521 200.885 -111.001 304.524
c8.10547 24.3291 52.5967 26.3652 71.9189 23.2764c1.16992 -0.1875 2.35352 -0.40918 3.54102 -0.648438c-15.4805 39.0879 -14.3799 84.127 8.24902 120.582c24.9824 40.2578 72.458 66.7979 120.465 59.9414c55.4248 -7.91406 84.123 -56.625 98.2852 -106.185
c14.8838 -52.083 17.9385 -106.946 10.7773 -160.513c33.2178 3.88965 66.584 12.2471 97.7441 20.627c8.44043 2.27148 23.4287 3.41602 29.8545 -4.45898zM220.877 103.24c13.2217 28.498 23.2334 58.3506 29.9248 88.9756
c-12.1953 0.62207 -24.3994 1.99219 -36.5898 4.38477c-42.3721 8.32324 -83.1611 27.3926 -113.029 58.0479c-9.97168 -45.9834 -11.999 -93.2373 -8.6709 -140.078c1.80957 -25.5176 8.10059 -97.2051 45.3301 -97.6885
c40.5498 -0.526367 68.8037 55.6855 83.0352 86.3584zM257.864 234.393c5.26855 46.6709 2.91895 94.7754 -9.95508 140.08c-9.47168 33.3311 -33.0703 97.6309 -78.71 85.2881c-35.9893 -9.7373 -60.6406 -48.9209 -64.9043 -84.2539
c-4.69922 -38.957 10.4111 -78.8975 37.3516 -107.043c32.5352 -33.9883 72.2793 -47.1846 114.182 -49.2686c0.761719 5.05078 1.46191 10.1152 2.03613 15.1973z" />
    <glyph glyph-name="p" unicode="p" horiz-adv-x="491" 
d="M488.63 204.01c13.6787 9.29297 53.6787 -3.32129 31.8682 -18.1709c-43.917 -29.8945 -93.2725 -49.9736 -144.255 -64.2402c-0.130859 -0.317383 -0.244141 -0.639648 -0.375 -0.953125c-12.0908 -29.5371 -27.2227 -61.1279 -51.874 -82.2207
c-22.7725 -19.4873 -54.79 -32.4004 -84.5146 -35.5938c-24.2686 -2.60645 -73.6631 8.70117 -92.0186 31.9209c-19.209 -85.6846 -35.8467 -172.087 -54.999 -257.571c-0.870117 -13.2695 -1.85742 -26.5303 -3.01465 -39.7783
c-2.37988 -27.2275 -49.8213 -21.3193 -64.166 -9.90723c-21.0273 16.7373 -24.6816 46.9404 -28.8232 71.8613c-4.94238 29.7461 -7.43066 59.9492 -9.41504 90.0049c-3.87207 58.6445 -5.39941 117.059 -4.97754 175.829c0.861328 119.643 3.92871 241.63 26.0703 359.432
c4.67285 24.8477 33.9844 31.9697 56.0859 31.9697c18.043 0 56.7305 -7.19141 56.0869 -31.9688c-3.04102 -117.066 -15.2754 -233.732 -18.9473 -350.855c-0.62207 -19.9268 -1.08789 -39.8574 -1.49707 -59.793c11.8301 54.8066 24.4912 109.418 39.2969 163.533
c17.5117 64.0176 38.0996 127.278 63.8174 188.498c11.0684 26.3525 21.958 57.2217 46.9492 73.7246c19.8652 13.1172 46.5186 17.2021 68.8906 8.21387c51.5781 -20.7227 77.7217 -85.8623 84.2959 -136.937c6.63086 -51.5303 0.444336 -106.028 -15.0527 -156.284
c35.3281 12.2305 69.2471 28.0107 100.568 49.2861zM234.83 79.0762c2.69336 4.65527 5.2959 9.40527 7.86328 14.1865c-10.8945 -2.40625 -21.502 -5.53906 -31.1826 -10.3467c-13.9268 -6.91797 -32.8574 -25.3955 -14.4756 -39.6094
c4.20703 -3.25 5.85645 -2.91895 9.01465 -3.84961c-6.52637 1.90137 -4.95996 -3.1543 0.243164 -0.0693359c0.53125 -0.165039 1.09277 -0.356445 1.72363 -0.617188c-0.626953 0.260742 -1.19238 0.460938 -1.71875 0.62207
c0.5 0.295898 1.02246 0.643555 1.58789 1.10449c12.6475 10.377 18.5996 24.1602 26.9443 38.5791zM289.599 218.522c10.3203 47.2451 16.9551 99.2188 15.1973 147.617c-0.469727 12.957 -2.78027 25.5742 -4.38965 38.3877
c-1.73633 13.8271 -3.40723 25.5957 -20.4531 15.8848c-17.3984 -9.91113 -26.8574 -43.6689 -34.2539 -61.1113c-37.1338 -87.5684 -63.5518 -178.452 -85.7148 -270.575c24.6602 22.333 62.2031 30.2861 98.1445 35.9375c13.6484 30.2549 24.5254 62.0723 31.4697 93.8594
z" />
    <glyph glyph-name="q" unicode="q" horiz-adv-x="504" 
d="M527.24 232.107c6.08203 -2.24512 16.1914 -10.6572 7.8291 -17.0098c-47.6406 -36.2285 -94.5244 -73.4365 -140.513 -111.745c-11.5039 -9.58496 -22.9463 -19.2441 -34.376 -28.916c-4.07227 -3.44629 -10.8115 -7.96191 -17.2207 -12.8262
c-1.80957 -14.127 -3.5459 -28.3018 -5.17285 -42.5117c2.58008 -2.2666 5.15137 -4.49023 7.2832 -6.79199c8.50098 -9.18457 16.3154 -19 23.5859 -29.1855c24.3643 -34.123 40.9102 -72.958 50.5342 -113.682c8.96289 -37.917 15.4365 -81.3643 6.50879 -119.86
c-8.83691 -38.1045 -40.7764 -59.6406 -79.79 -54.6416c-47.2842 6.06055 -79.2236 32.6914 -97.0137 76.4209c-40.4277 99.3721 -33.4443 207.746 -22.3633 311.947c3.31055 31.1084 6.77344 62.2598 10.4844 93.3936
c-3.40625 -8.26172 -6.90039 -16.4893 -10.5811 -24.625c-28.1934 -62.2773 -76.7959 -130.571 -153.553 -126.407c-39.7266 2.15332 -73.7236 28.1924 -87.8984 65.2266c-15.0576 39.3438 -12.3906 82.5859 -5.29492 123.271
c13.4922 77.3789 55.8213 142.793 124.046 182.934c46.1006 27.127 118.537 41.3887 169.241 14.9883c0.556641 2.46289 1.34375 4.75586 2.37012 6.85742c0.1875 1.00488 0.396484 2.00977 0.575195 3.01465c0.930664 5.33008 5.93848 8.84961 12.1729 10.6338
c11.0332 6.90039 25.9043 9.34082 38.582 9.34082c16.916 0 55.1377 -6.97852 53.9414 -30.7471c-5.03418 -100.15 -17.8867 -199.875 -31.0518 -299.286c11.3682 9.33691 22.7764 18.6299 34.2451 27.8408c37.3301 29.9814 75.2168 59.249 113.569 87.9072
c8.30957 6.2041 19.9395 8.11426 29.8594 4.45996zM236.693 299.094c8.34961 24.2295 18.3105 48.9355 26.4902 73.9219c-56.2422 60.6152 -110.462 -31.4521 -131.654 -78.1191c-28.1016 -61.8721 -49.333 -138.237 -38.1865 -206.471
c1.19238 -7.30957 4.46387 -26.4619 13.2051 -29.2158c7.15723 -2.25781 29.2334 23.0898 34.0713 28.6279c24.7344 28.3145 40.7803 63.2031 54.6592 97.7959c14.9844 37.3555 28.3105 75.4121 41.415 113.46zM376.195 -147.182
c-7.4834 39.2832 -22.4111 77.4541 -44.0039 111.146c-5.00293 -57.4961 -7.06934 -115.271 -2.83203 -172.475c1.61816 -21.8457 5.58594 -39.8926 16.415 -58.8623c10.5293 -18.4473 22.4727 -8.69727 29.7773 7.74414c14.5273 32.6875 7.08301 78.6533 0.643555 112.446z
" />
    <glyph glyph-name="r" unicode="r" horiz-adv-x="487" 
d="M478.601 231.372c7.4873 14.5059 50.3232 9.58887 42.0918 -6.60938c-34.3926 -67.6152 -60.415 -138.968 -92.9375 -207.44c-24.7607 -52.1309 -56.3906 -132.229 -121.204 -142.767c-30.0078 -4.87695 -61.416 7.89648 -83.8701 27.8271
c-27.501 24.4082 -34.9756 62.5342 -40.4014 97.3057c-11.4297 73.2588 -0.935547 153.604 18.2734 225.645c-71.0918 -21.7842 -159.069 -40.0186 -210.743 21.5664c-49.751 59.293 -33.6572 155.715 -2.60547 220.185c32.8877 68.2725 104.38 144.39 188.397 130.681
c85.8232 -14.0049 49.7773 -115.287 23.3291 -165.683c-18.2646 -34.8018 -39.627 -67.7549 -64.1611 -98.4717c-12.1992 -15.2715 -25.1777 -29.9336 -38.8828 -43.873c-7.8877 -8.02246 -16.7676 -15.4492 -25.0947 -23.2979
c4.11621 -13.4697 11.3164 -25.3213 23.751 -31.0293c18.0908 -8.30566 43.8262 0.308594 61.8906 5.05957c21.4668 5.64746 42.8164 11.8037 64.2266 17.6602c0.421875 0.117188 0.939453 0.212891 1.40527 0.321289c32.4043 15.1367 97.4053 6.69629 94.0557 -25.5645
c-6.67871 -64.2393 -23.8857 -126.96 -29.4893 -191.438c-2.81543 -32.418 -5.26074 -64.9492 -5.10449 -97.502c0.0517578 -10.4375 -2.00195 -25.2607 2.14844 -35.0674c7.25293 -17.1377 24.0684 -4.26367 33.6963 4.97754
c20.2881 19.4697 34.1279 47.4492 47.3242 71.9229c14.2578 26.4443 27.0186 53.6631 39.2354 81.1035c24.5039 55.0283 47.0107 110.923 74.6689 164.489zM126.89 515.847c-36.5811 -60.5195 -59.1094 -130.836 -61.0322 -201.593
c11.5254 12.9961 22.1895 26.5703 31.9043 38.9482c23.3115 29.6943 43.7598 61.9121 60.2012 95.9092c13.8574 28.6543 33.7881 70.9092 20.2227 102.87c-1.54492 3.80273 -3.69434 7.23145 -6.44824 10.29c-2.14941 1.20508 -3.59375 2.11914 -4.33789 2.74609
c-3.4541 -1.63184 -6.63477 -5.62988 -9.02344 -8.02246c-11.9736 -11.999 -22.7373 -26.6738 -31.4863 -41.1484z" />
    <glyph glyph-name="s" unicode="s" horiz-adv-x="335" 
d="M333.762 237.89c13.165 7.62305 52.4414 -2.93066 30.8613 -17.5801c-48.9072 -33.2178 -94.2988 -70.1992 -136.149 -111.984c-11.3428 -11.3291 -22.6416 -22.8672 -33.627 -34.7188c3.25879 -6.34375 6.36133 -12.7305 9.19824 -19.1875
c19.3916 -44.1172 34.5625 -97.7012 21.3926 -145.682c-11.0381 -40.2275 -57.1045 -76.2959 -99.4551 -76.8398c-40.8145 -0.526367 -72.8145 29.8721 -73.7324 70.8525c-0.90918 40.5576 21.9277 80.9941 45.5566 114.587
c-19.7178 40.9404 -44.9092 78.6621 -70.083 116.492c-26.3047 39.5352 -52.6484 81.9209 -56.334 130.589c-3.30664 43.7168 14.6924 88.2432 44.3037 119.852c27.9062 29.79 63.5781 57.4131 102.722 70.3525c34.8408 11.5166 82.5557 13.6963 111.541 -12.8916
c36.377 -33.3662 18.3164 -84.54 7.16504 -124.833c-4.38965 -15.8633 -48.707 -12.6309 -43.9209 6.89941c6.95215 28.3711 20.3613 64.9785 3.57617 92.7188c-13.9004 22.9766 -38.4951 18.8828 -58.7129 7.22754c-38.2822 -22.0625 -50.791 -67.5156 -51.1221 -109.34
c-0.613281 -77.4053 47.9629 -139.883 87.3115 -204.462c47.4893 49.7949 101.856 94.5693 159.509 127.948zM136.112 -133.026c5.43848 9.48926 1.49902 28.4209 0.263672 38.3145c-1.14844 9.19727 -3.08008 18.4209 -5.42969 27.3877
c-3.24121 12.3779 -7.43945 24.5254 -12.125 36.499c-11.0078 -21.4229 -21.293 -45.792 -19.2607 -70c1.01855 -12.1348 20.9541 -59.4062 36.5518 -32.2012z" />
    <glyph glyph-name="t" unicode="t" horiz-adv-x="303" 
d="M293.409 220.174c8.24902 14.958 52.8936 9.53613 43.9219 -6.90527c-37.2256 -68.2207 -75.5078 -143.463 -133.669 -196.646c-22.3457 -20.4316 -50.3086 -33.9971 -81.2119 -30.6777c-31.0605 3.33691 -63.9131 21.2275 -84.4883 44.5
c-24.791 28.0449 -36.1162 67.3545 -44.126 103.097c-8.75781 39.083 -11.251 78.9707 -12.0518 118.897c-1.62695 81.2119 2.75391 162.362 9.27539 243.296c2.22754 27.6318 4.82031 55.1895 7.95312 82.6602c-5.06445 -0.46582 -10.124 -0.914062 -15.1836 -1.44043
c-7.54004 -0.791992 -25.1738 -0.652344 -28.3066 9.1582c-3.05469 9.55859 7.91797 15.2969 16.0713 16.1367c10.2158 1.04883 20.4404 1.95801 30.6689 2.79297c5.7998 44.9434 13.335 89.6172 23.9209 133.873c5.30371 22.167 47.0186 24.9648 63.8867 23.7725
c16.5938 -1.1748 51.3135 -9.5498 50.4873 -32.5957c-1.44434 -40.2617 -4.88574 -80.3848 -8.88379 -120.473c13.1006 -0.152344 26.2051 -0.443359 39.3184 -0.987305c7.21777 -0.295898 22.7715 -2.69336 22.7715 -12.9785
c0 -9.88086 -15.2627 -13.2832 -22.7725 -12.9834c-13.9873 0.561523 -27.9707 0.875 -41.9541 1.00586c-4.25977 -40.7061 -8.80664 -81.3857 -12.2393 -122.135c-7.34375 -87.2197 -12.1123 -174.971 -12.7695 -262.5
c-0.317383 -42.1377 2.06641 -83.457 6.62207 -125.294c1.73145 -15.9023 1.61426 -34.0107 8.32715 -48.8643c9.80273 -21.6885 28.1758 -8.79688 41.9326 2.89844c58.5615 49.7734 96.0352 126.234 132.499 192.393z" />
    <glyph glyph-name="u" unicode="u" horiz-adv-x="474" 
d="M464.433 232.169c4.83398 14.4141 45.2139 11.3389 40.2451 -6.3252c-17.6904 -62.9258 -44.6221 -126.991 -84.0576 -179.609c-34.4971 -46.0273 -86.8105 -52.4844 -137.236 -27.4062c-30.2549 15.0449 -46.2793 42.8809 -55.0332 74.4717
c-16.0195 -46.6055 -43.4688 -90.2744 -95.6865 -95.4912c-34.3145 -3.42871 -69.9258 8.01855 -96.1221 30.2988c-31.4209 26.7314 -46.0439 67.0498 -52.9922 106.638c-15.3105 87.2598 4.47656 176.812 18.2725 262.9c7.00879 43.7344 115.404 45.0264 114.073 0
c-2.12793 -71.9883 -18.791 -142.206 -24.208 -213.946c-2.53223 -33.54 -2.53223 -68.4463 2.75391 -101.726c2.71484 -17.0898 10.7686 -60.3887 34.7324 -56.7256c26.2744 4.02051 43.1123 46.0186 51.1572 67.0762c12.6133 33.0049 19.2139 67.7725 24.5781 102.574
c4.09375 26.5527 8.02246 53.1318 11.9082 79.7197c1.73145 46.7578 6.54297 93.6074 14.4355 139.217c4.52051 26.1436 36.0371 33.5967 58.9395 33.5967c19.2178 0 59.2715 -7.53125 58.9404 -33.5967c-1.43164 -112.276 -20.9883 -224.27 -17.625 -336.75
c0.382812 -12.8213 2.70215 -22.7324 7.20508 -34.4883c3.76367 -9.81543 2.5625 -16.1895 14.7363 -9.77637c21.2842 11.2119 34.7451 36.7812 46.54 56.6211c26.7139 44.9346 47.8369 93.2021 64.4434 142.728z" />
    <glyph glyph-name="u" unicode="&#xfc;" horiz-adv-x="474" 
d="M464.433 232.169c4.83398 14.4141 45.2139 11.3389 40.2451 -6.3252c-17.6904 -62.9258 -44.6221 -126.991 -84.0576 -179.609c-34.4971 -46.0273 -86.8105 -52.4844 -137.236 -27.4062c-30.2549 15.0449 -46.2793 42.8809 -55.0332 74.4717
c-16.0195 -46.6055 -43.4688 -90.2744 -95.6865 -95.4912c-34.3145 -3.42871 -69.9258 8.01855 -96.1221 30.2988c-31.4209 26.7314 -46.0439 67.0498 -52.9922 106.638c-15.3105 87.2598 4.47656 176.812 18.2725 262.9c7.00879 43.7344 115.404 45.0264 114.073 0
c-2.12793 -71.9883 -18.791 -142.206 -24.208 -213.946c-2.53223 -33.54 -2.53223 -68.4463 2.75391 -101.726c2.71484 -17.0898 10.7686 -60.3887 34.7324 -56.7256c26.2744 4.02051 43.1123 46.0186 51.1572 67.0762c12.6133 33.0049 19.2139 67.7725 24.5781 102.574
c4.09375 26.5527 8.02246 53.1318 11.9082 79.7197c1.73145 46.7578 6.54297 93.6074 14.4355 139.217c4.52051 26.1436 36.0371 33.5967 58.9395 33.5967c19.2178 0 59.2715 -7.53125 58.9404 -33.5967c-1.43164 -112.276 -20.9883 -224.27 -17.625 -336.75
c0.382812 -12.8213 2.70215 -22.7324 7.20508 -34.4883c3.76367 -9.81543 2.5625 -16.1895 14.7363 -9.77637c21.2842 11.2119 34.7451 36.7812 46.54 56.6211c26.7139 44.9346 47.8369 93.2021 64.4434 142.728z" />
    <glyph glyph-name="u" unicode="&#xfb;" horiz-adv-x="474" 
d="M464.433 232.169c4.83398 14.4141 45.2139 11.3389 40.2451 -6.3252c-17.6904 -62.9258 -44.6221 -126.991 -84.0576 -179.609c-34.4971 -46.0273 -86.8105 -52.4844 -137.236 -27.4062c-30.2549 15.0449 -46.2793 42.8809 -55.0332 74.4717
c-16.0195 -46.6055 -43.4688 -90.2744 -95.6865 -95.4912c-34.3145 -3.42871 -69.9258 8.01855 -96.1221 30.2988c-31.4209 26.7314 -46.0439 67.0498 -52.9922 106.638c-15.3105 87.2598 4.47656 176.812 18.2725 262.9c7.00879 43.7344 115.404 45.0264 114.073 0
c-2.12793 -71.9883 -18.791 -142.206 -24.208 -213.946c-2.53223 -33.54 -2.53223 -68.4463 2.75391 -101.726c2.71484 -17.0898 10.7686 -60.3887 34.7324 -56.7256c26.2744 4.02051 43.1123 46.0186 51.1572 67.0762c12.6133 33.0049 19.2139 67.7725 24.5781 102.574
c4.09375 26.5527 8.02246 53.1318 11.9082 79.7197c1.73145 46.7578 6.54297 93.6074 14.4355 139.217c4.52051 26.1436 36.0371 33.5967 58.9395 33.5967c19.2178 0 59.2715 -7.53125 58.9404 -33.5967c-1.43164 -112.276 -20.9883 -224.27 -17.625 -336.75
c0.382812 -12.8213 2.70215 -22.7324 7.20508 -34.4883c3.76367 -9.81543 2.5625 -16.1895 14.7363 -9.77637c21.2842 11.2119 34.7451 36.7812 46.54 56.6211c26.7139 44.9346 47.8369 93.2021 64.4434 142.728z" />
    <glyph glyph-name="u" unicode="&#xfa;" horiz-adv-x="474" 
d="M464.433 232.169c4.83398 14.4141 45.2139 11.3389 40.2451 -6.3252c-17.6904 -62.9258 -44.6221 -126.991 -84.0576 -179.609c-34.4971 -46.0273 -86.8105 -52.4844 -137.236 -27.4062c-30.2549 15.0449 -46.2793 42.8809 -55.0332 74.4717
c-16.0195 -46.6055 -43.4688 -90.2744 -95.6865 -95.4912c-34.3145 -3.42871 -69.9258 8.01855 -96.1221 30.2988c-31.4209 26.7314 -46.0439 67.0498 -52.9922 106.638c-15.3105 87.2598 4.47656 176.812 18.2725 262.9c7.00879 43.7344 115.404 45.0264 114.073 0
c-2.12793 -71.9883 -18.791 -142.206 -24.208 -213.946c-2.53223 -33.54 -2.53223 -68.4463 2.75391 -101.726c2.71484 -17.0898 10.7686 -60.3887 34.7324 -56.7256c26.2744 4.02051 43.1123 46.0186 51.1572 67.0762c12.6133 33.0049 19.2139 67.7725 24.5781 102.574
c4.09375 26.5527 8.02246 53.1318 11.9082 79.7197c1.73145 46.7578 6.54297 93.6074 14.4355 139.217c4.52051 26.1436 36.0371 33.5967 58.9395 33.5967c19.2178 0 59.2715 -7.53125 58.9404 -33.5967c-1.43164 -112.276 -20.9883 -224.27 -17.625 -336.75
c0.382812 -12.8213 2.70215 -22.7324 7.20508 -34.4883c3.76367 -9.81543 2.5625 -16.1895 14.7363 -9.77637c21.2842 11.2119 34.7451 36.7812 46.54 56.6211c26.7139 44.9346 47.8369 93.2021 64.4434 142.728z" />
    </font>
</defs>
</svg>
