<?xml version="1.0" standalone="no"?>
<!DOCTYPE svg PUBLIC "-//W3C//DTD SVG 1.1//EN" "http://www.w3.org/Graphics/SVG/1.1/DTD/svg11.dtd" >
<svg xmlns="http://www.w3.org/2000/svg" xmlns:xlink="http://www.w3.org/1999/xlink" version="1.1">
<metadata>
Created by FontForge 20170812 at Tue Aug 30 19:59:33 2022
 By www-data
</metadata>
<defs>
<font id="BackhomeRegular" horiz-adv-x="0" >
  <font-face 
    font-family="Backhome"
    font-weight="400"
    font-stretch="normal"
    units-per-em="1000"
    panose-1="0 0 0 0 0 0 0 0 0 0"
    ascent="800"
    descent="-200"
    x-height="692.06"
    cap-height="693.651"
    bbox="-93 -330.998 778.151 925.139"
    underline-thickness="50"
    underline-position="-100"
    unicode-range="U+000A-20AC"
  />
<missing-glyph horiz-adv-x="527" 
d="M50 700h427v-700h-427v700zM78 680l185 -309l186 309h-371zM251 350l-180 300v-601zM264 329l-185 -308h370zM276 350l181 -303v605z" />
    <glyph glyph-name=".notdef" horiz-adv-x="527" 
d="M50 700h427v-700h-427v700zM78 680l185 -309l186 309h-371zM251 350l-180 300v-601zM264 329l-185 -308h370zM276 350l181 -303v605z" />
    <glyph glyph-name=".null" 
 />
    <glyph glyph-name=".null" 
 />
    <glyph glyph-name="LF" unicode="&#xa;" 
 />
    <glyph glyph-name="controlCR" unicode="&#xd;" 
 />
    <glyph glyph-name="space" unicode=" " horiz-adv-x="186" 
 />
    <glyph glyph-name="exclam" unicode="!" horiz-adv-x="173" 
d="M57.9912 190.986l0.548828 30.4521c3.20605 176.695 0.796875 355.584 -7.16699 531.709l-1.37305 30.4248l60.8555 2.75195l1.37891 -30.4307c8.01855 -177.398 10.4443 -357.588 7.21582 -535.557l-0.553711 -30.4521zM122.413 35.6777
c1.43945 -30.2256 1.25293 -60.8555 -0.552734 -91.042l-1.82227 -30.4023l-60.8057 3.64355l1.82227 30.4023c1.67773 28.0156 1.84961 56.4473 0.514648 84.502l-1.45117 30.4248l60.8438 2.89648z" />
    <glyph glyph-name="quotedbl" unicode="&#x22;" horiz-adv-x="269" 
d="M58.2773 804.03l3.41797 30.2646l60.5342 -6.83887l-3.42285 -30.2695c-6.13574 -54.2822 -8.71094 -110.12 -7.65918 -165.964l0.576172 -30.4521l-60.9053 -1.14648l-0.576172 30.4521c-1.10156 58.4961 1.60059 117.025 8.03516 173.954zM219.235 827.456
l-3.42773 -30.2695c-6.13574 -54.2822 -8.71094 -110.12 -7.65918 -165.964l0.576172 -30.4521l-60.9053 -1.14648l-0.576172 30.4521c-1.10156 58.4961 1.60059 117.025 8.03516 173.954l3.42285 30.2646z" />
    <glyph glyph-name="quotedbl" unicode="&#x201d;" horiz-adv-x="269" 
d="M58.2773 804.03l3.41797 30.2646l60.5342 -6.83887l-3.42285 -30.2695c-6.13574 -54.2822 -8.71094 -110.12 -7.65918 -165.964l0.576172 -30.4521l-60.9053 -1.14648l-0.576172 30.4521c-1.10156 58.4961 1.60059 117.025 8.03516 173.954zM219.235 827.456
l-3.42773 -30.2695c-6.13574 -54.2822 -8.71094 -110.12 -7.65918 -165.964l0.576172 -30.4521l-60.9053 -1.14648l-0.576172 30.4521c-1.10156 58.4961 1.60059 117.025 8.03516 173.954l3.42285 30.2646z" />
    <glyph glyph-name="quotedbl" unicode="&#x201c;" horiz-adv-x="269" 
d="M58.2773 804.03l3.41797 30.2646l60.5342 -6.83887l-3.42285 -30.2695c-6.13574 -54.2822 -8.71094 -110.12 -7.65918 -165.964l0.576172 -30.4521l-60.9053 -1.14648l-0.576172 30.4521c-1.10156 58.4961 1.60059 117.025 8.03516 173.954zM219.235 827.456
l-3.42773 -30.2695c-6.13574 -54.2822 -8.71094 -110.12 -7.65918 -165.964l0.576172 -30.4521l-60.9053 -1.14648l-0.576172 30.4521c-1.10156 58.4961 1.60059 117.025 8.03516 173.954l3.42285 30.2646z" />
    <glyph glyph-name="numbersign" unicode="#" horiz-adv-x="486" 
d="M402.766 379.815c-21.4863 1.14648 -42.6445 1.96094 -63.6719 2.55371c-1.52832 -20.1738 -3.03418 -40.3535 -4.46875 -60.5557c19.249 -0.609375 38.5928 -1.36816 58.2188 -2.41504l30.4141 -1.62793l-3.25098 -60.8223l-30.4141 1.62305
c-19.9531 1.06348 -39.6064 1.82812 -59.166 2.42578c-5.74805 -86.7559 -10.6494 -173.65 -14.6309 -260.317l-1.39551 -30.4248l-60.8496 2.79102l1.39551 30.4248c3.95996 86.1191 8.81152 172.465 14.5049 258.684
c-13.1025 0.0771484 -26.2051 0.0380859 -39.3076 -0.100586c-5.78125 -87.1104 -10.7041 -174.354 -14.7021 -261.375l-1.39551 -30.4248l-60.8496 2.79102l1.39551 30.4248c3.93164 85.6201 8.74414 171.462 14.3984 257.177
c-27.7939 -0.991211 -55.8379 -2.40332 -84.4795 -4.3418l-30.3857 -2.06055l-4.12012 60.7773l30.3916 2.06055c31.4932 2.1377 62.2832 3.63867 92.8076 4.64648c1.41211 20.0195 2.89062 40.0225 4.39648 60.0137
c-26.2939 -0.980469 -52.8428 -2.37012 -79.9062 -4.20312l-30.3916 -2.06055l-4.12012 60.7773l30.3857 2.06055c30.0977 2.03809 59.5537 3.50586 88.749 4.51953c6.33496 79.1074 13.3457 157.916 21.0928 236.115l3.00195 30.3145l60.6172 -6.00293l-3.00195 -30.3145
c-7.50391 -75.7578 -14.2988 -152.103 -20.4795 -228.724c13.0801 0.132812 26.1602 0.166016 39.2461 0.0888672c6.30762 78.6152 13.2744 156.932 20.9717 234.644l3.00195 30.3145l60.6172 -6.00293l-3.00195 -30.3145
c-7.53711 -76.1064 -14.3652 -152.8 -20.5674 -229.775c20.5566 -0.614258 41.2236 -1.41211 62.2012 -2.53613l30.4141 -1.62793l-3.25098 -60.8223zM273.637 323.08c1.42285 20.124 2.91895 40.2207 4.43066 60.3115
c-13.0918 0.0556641 -26.1885 -0.00488281 -39.2852 -0.165039c-1.51758 -20.0469 -3.01855 -40.0938 -4.44727 -60.168c13.0967 0.110352 26.1934 0.121094 39.3018 0.0214844z" />
    <glyph glyph-name="dollar" unicode="$" horiz-adv-x="341" 
d="M277.706 272.598c13.4131 -47.1543 20.54 -118.715 0.288086 -178.125c-14.6367 -42.9404 -42.835 -73.3545 -75.7686 -83.9756c0.249023 -27.2236 0.514648 -54.5361 0.813477 -82.0869l0.332031 -30.458l-60.9102 -0.65918l-0.332031 30.458
c-0.31543 28.9521 -0.592773 57.6494 -0.853516 86.2471c-29.8936 13.4346 -55.251 43.6377 -68.6689 83.9473l-9.61914 28.9023l57.7979 19.2441l9.61914 -28.9023c2.80176 -8.41211 6.30762 -15.8047 10.1953 -22.1846c-0.748047 100.08 -1.16309 198.56 -1.25195 296.95
c-1.39551 1.65625 -2.73047 3.27344 -4.14844 4.95117c-16.7246 19.8311 -34.0137 40.3428 -50.0732 64.6592c-9.00977 13.6338 -20.3066 32.418 -27.7549 56.79c-7.03809 23.0264 -9.12012 50.167 -5.88574 76.416c9.44727 76.6934 48.7158 116.804 88.793 132.144
c0.22168 33.8086 0.470703 67.7725 0.758789 102.013l0.260742 30.458l60.916 -0.520508l-0.254883 -30.458c-0.282227 -33.1055 -0.526367 -65.9395 -0.736328 -98.6348c41.7549 -16.5801 72.3018 -75.2256 76.0342 -130.083l2.07129 -30.3857l-60.7773 -4.14258
l-2.07129 30.3857c-1.42285 20.8779 -8.0791 39.0977 -15.7217 52.7041c-0.376953 -78.6426 -0.542969 -156.521 -0.509766 -234.361c3.14551 -3.85449 6.29688 -7.68066 9.40918 -11.6738c21.0547 -26.9688 51.0088 -69.7432 68.0488 -129.618zM139.36 490.261
c0.0664062 54.7744 0.242188 109.686 0.513672 164.976c-12.2217 -12.377 -23.6406 -33.127 -27.9268 -67.9209c-2.1875 -17.7041 -0.841797 -36.3555 3.68262 -51.1689c5.13379 -16.8018 13.1582 -30.1592 20.3242 -41.0078
c1.11328 -1.67773 2.28223 -3.2334 3.40625 -4.87793zM220.334 114.124c12.9531 38.001 12.4775 93.6631 -1.22266 141.804c-4.7627 16.7461 -10.9375 32.5732 -18.6797 48.1953c0.21582 -73.9248 0.614258 -148.171 1.19531 -223.342
c7.06055 7.64746 13.6953 18.6455 18.707 33.3428z" />
    <glyph glyph-name="percent" unicode="%" horiz-adv-x="591" 
d="M407.511 706.476l-7.23828 -29.5928c-22.1514 -90.5771 -40.4209 -172.576 -59.7588 -259.393c-29.1064 -130.682 -59.21 -265.811 -103.745 -433.098l-7.83594 -29.4277l-58.8672 15.6719l7.83594 29.4277c44.2139 166.085 74.1787 300.594 103.152 430.672
c19.4102 87.1377 37.7402 169.436 60.0469 260.621l7.23828 29.5889zM191.114 308.733c-13.0527 -15.6504 -29.6211 -23.8555 -46.877 -23.8496c-7.55957 0 -15.2461 1.57227 -22.8223 4.79492c-19.9805 8.49512 -37.0205 27.9385 -49.2812 56.2256
c-11.0479 25.5068 -18.374 58.0303 -20.6279 91.5781c-9.33105 138.861 25.5742 249.768 81.1855 257.975c17.2832 2.56934 33.8799 -2.27637 47.9404 -13.9727c46.4346 -38.6045 52.7422 -147.079 53.5342 -168.433c2.09375 -56.2256 -4.09766 -111.665 -16.9844 -152.097
c-1.48926 -4.67383 -3.07324 -9.21484 -4.71289 -13.4902l-0.00585938 -0.0273438c-6.16895 -16.0986 -13.3516 -29.124 -21.3486 -38.7041zM159.146 379.453c10.832 33.9854 15.9883 81.8545 14.1494 131.335c-2.33691 62.9707 -19.0449 112.944 -30.4639 123.101
c-12.8203 -14.792 -38.2559 -77.4521 -30.5361 -192.323c1.77734 -26.3984 7.51465 -52.4375 15.7441 -71.4434c5.96973 -13.7832 11.9893 -20.6943 15.4619 -23.3135c0.249023 0.265625 0.53125 0.581055 0.835938 0.946289
c2.07715 2.48633 6.29688 8.58887 11.2363 21.459c1.25195 3.27246 2.44238 6.69531 3.57227 10.2393zM540.847 212.327c2.08789 -56.2256 -4.09863 -111.665 -16.9902 -152.103c-1.50098 -4.70117 -3.08984 -9.24805 -4.72363 -13.5117
c-6.16895 -16.1035 -13.3516 -29.1289 -21.3428 -38.7041c-13.0586 -15.6504 -29.6279 -23.8574 -46.8672 -23.8574c-7.55957 0 -15.2461 1.57227 -22.8223 4.79492c-19.9746 8.49512 -37.0205 27.9385 -49.2812 56.2314c-11.0479 25.4902 -18.374 58.0088 -20.6279 91.5732
c-9.33105 138.872 25.5742 249.778 81.1904 257.975c17.2832 2.54785 33.8691 -2.27539 47.9297 -13.9658c46.4238 -38.5928 52.7373 -147.079 53.5352 -168.433zM465.819 78.7266c10.832 33.9912 15.9922 81.8662 14.165 131.336
c-2.34277 62.9707 -19.0508 112.944 -30.4697 123.101c-12.8203 -14.7803 -38.2559 -77.4404 -30.5361 -192.322c1.77246 -26.4102 7.50977 -52.4434 15.7393 -71.4326c5.97559 -13.7949 11.9951 -20.7061 15.4619 -23.3252
c0.254883 0.265625 0.537109 0.586914 0.841797 0.952148c2.07129 2.48047 6.29102 8.58887 11.2363 21.4805v0.0107422c1.25195 3.25586 2.4375 6.66699 3.56152 10.2002z" />
    <glyph glyph-name="ampersand" unicode="&#x26;" horiz-adv-x="372" 
d="M322.319 304.828l-4.64941 -30.1006c-10.876 -70.6348 -29.417 -135.898 -54.1543 -191.094c9.94629 -13.3848 20.2305 -25.0146 30.7686 -34.7002l22.4229 -20.623l-41.2344 -44.8398l-22.417 20.6172c-7.16016 6.58984 -14.0215 13.6338 -20.6006 21.0879
c-28.2432 -44.0039 -58.9121 -68.165 -91.4023 -71.9414c-2.88477 -0.337891 -5.74219 -0.503906 -8.57227 -0.503906c-21.0215 0 -40.249 9.19238 -54.8408 26.4209c-16.043 18.9395 -26.332 48.667 -27.5176 79.502c-1.16895 30.3193 5.93652 61.918 21.7305 96.6123
c12.7314 27.9492 27.0361 52.2656 40.8701 75.7734c3.08496 5.2334 6.16406 10.4668 9.2207 15.7393c-1.65625 5.60449 -3.22852 11.0977 -4.71777 16.4746c-19.7754 71.2998 -41.0352 180.085 -30.0146 293.444c3.94336 40.5811 16.1318 113.52 53.4678 146.021
c15.7832 13.7285 35.0273 19.0449 54.2051 14.958c23.4971 -5.00586 43.6826 -23.3467 56.835 -51.6445c22.6826 -48.8164 21.7852 -116.355 19.2324 -152.263c-6.5957 -92.6973 -34.5176 -184.824 -83.0234 -274.011c10.876 -33.2217 23.0762 -63.5801 36.3174 -90.499
c14.5039 40.7422 25.7676 86.2461 33.2324 134.735l4.63477 30.1035zM147.842 550.805c-7.83594 -80.6035 2.28516 -159.328 15.7979 -221.54c26.4316 62.2451 42.043 125.481 46.5449 188.823c3.63281 51.1309 -1.3623 95.6992 -13.7119 122.281
c-6.26855 13.4844 -12.8359 17.416 -14.2422 17.7266c0.171875 -0.0664062 -0.537109 -0.4375 -1.55566 -1.31836c-12.2549 -10.6719 -27.1572 -47.5762 -32.833 -105.973zM193.184 78.5117c0.0498047 0.09375 0.100586 0.186523 0.144531 0.275391
c-17.8154 29.1064 -32.7568 60.667 -45.1895 91.873c-7.34277 -13.0693 -14.3311 -26.3379 -20.8438 -40.6367c-11.9229 -26.1992 -17.1064 -48.1348 -16.2979 -69.0234c0.75293 -19.5205 7.13281 -35.4033 13.1299 -42.4805
c4.22559 -4.97852 7.20508 -5.12207 9.89648 -4.78418c6.06934 0.708984 28.2539 7.4541 59.1602 64.7764z" />
    <glyph glyph-name="quotesingle" unicode="'" horiz-adv-x="172" 
d="M122.231 827.455l-3.42773 -30.2695c-6.13574 -54.2822 -8.71094 -110.12 -7.65918 -165.964l0.576172 -30.4521l-60.9053 -1.14648l-0.576172 30.4521c-1.10156 58.4961 1.60059 117.025 8.03516 173.954l3.42285 30.2646z" />
    <glyph glyph-name="quotesingle" unicode="&#x2019;" horiz-adv-x="172" 
d="M122.231 827.455l-3.42773 -30.2695c-6.13574 -54.2822 -8.71094 -110.12 -7.65918 -165.964l0.576172 -30.4521l-60.9053 -1.14648l-0.576172 30.4521c-1.10156 58.4961 1.60059 117.025 8.03516 173.954l3.42285 30.2646z" />
    <glyph glyph-name="quotesingle" unicode="&#x2018;" horiz-adv-x="172" 
d="M122.231 827.455l-3.42773 -30.2695c-6.13574 -54.2822 -8.71094 -110.12 -7.65918 -165.964l0.576172 -30.4521l-60.9053 -1.14648l-0.576172 30.4521c-1.10156 58.4961 1.60059 117.025 8.03516 173.954l3.42285 30.2646z" />
    <glyph glyph-name="parenleft" unicode="(" horiz-adv-x="286" 
d="M214.246 -144.246l22.1172 -20.9365l-41.877 -44.2422l-22.124 20.9385c-40.4375 38.2715 -65.8008 102.051 -79.9609 148.812c-16.8125 55.5107 -28.918 122.446 -35.9951 198.951c-18.6621 201.843 4.03223 414.484 60.7012 568.807
c14.5312 39.5674 27.8223 65.4785 43.0898 84.0303l19.3604 23.5195l47.0332 -38.7148l-19.3545 -23.5137c-13.8887 -16.8789 -25.4521 -45.9307 -32.9395 -66.3213c-53.7002 -146.237 -75.0986 -348.933 -57.2285 -542.197
c6.70117 -72.4297 18.0205 -135.317 33.6426 -186.908c16.9951 -56.1201 39.5566 -99.5254 63.5352 -122.225z" />
    <glyph glyph-name="parenright" unicode=")" horiz-adv-x="286" 
d="M169.257 728.084c56.6738 -154.328 79.3701 -366.965 60.7021 -568.802c-7.07227 -76.5049 -19.1836 -143.44 -35.9912 -198.951c-14.1602 -46.7617 -39.5293 -110.541 -79.9668 -148.812l-22.124 -20.9385l-41.877 44.2422l22.124 20.9326
c23.9785 22.6943 46.54 66.0996 63.5352 122.226c15.6221 51.5957 26.9414 114.483 33.6367 186.913c17.876 193.254 -3.52246 395.949 -57.2285 542.197c-7.48145 20.3789 -19.0391 49.4307 -32.9395 66.3154l-19.3545 23.5137l47.0332 38.7148l19.3604 -23.5195
c15.2793 -18.5576 28.5645 -44.4688 43.0898 -84.0312z" />
    <glyph glyph-name="asterisk" unicode="*" horiz-adv-x="344" 
d="M294.329 546.609l-30.2148 -3.8584c-17.7432 -2.27637 -35.1318 -3.95996 -52.4316 -5.26172c11.4795 -34.8438 23.3359 -69.4658 35.8125 -104.537l10.2119 -28.6973l-57.3945 -20.4238l-10.2061 28.6973c-6.74512 18.9561 -13.2686 37.7793 -19.6982 56.5801
c-6.67285 -17.6104 -13.4404 -35.2266 -20.418 -52.959l-11.1533 -28.3369l-56.6855 22.3066l11.1592 28.3428c12.7148 32.3076 24.8486 64.2773 36.6387 96.4463c-16.3086 0.199219 -32.7393 0.692383 -49.5469 1.7168l-30.4023 1.84961l3.69336 60.7998l30.4023 -1.84375
c15.251 -0.930664 30.209 -1.48438 45.0176 -1.68945c-11.2422 36.2393 -22.2402 73.1934 -33.2051 111.565l-8.37305 29.29l58.5732 16.7354l8.36719 -29.2842c6.29102 -22.0186 12.6045 -43.4941 18.9561 -64.7041c6.67871 20.041 13.3242 40.332 19.9639 61.1484
l9.25391 29.0127l58.0361 -18.5127l-9.25879 -29.0186c-11.3027 -35.4258 -22.6113 -69.5391 -34.1025 -102.993c12.8867 1.11328 25.8564 2.47559 39.0312 4.16992l30.2148 3.87695z" />
    <glyph glyph-name="plus" unicode="+" horiz-adv-x="308" 
d="M228.107 293.193l30.25 -3.56738l-7.12207 -60.501l-30.248 3.56641c-12.2607 1.44531 -24.1611 2.40918 -35.9287 2.96875c0.188477 -53.9883 -0.132812 -108.109 -1.01855 -163.787l-0.487305 -30.4521l-60.9102 0.96875l0.481445 30.458
c0.875 54.9795 1.19629 108.437 1.01953 161.744c-11.4414 -0.952148 -23.043 -2.29785 -35.0098 -4.08691l-30.1201 -4.50195l-9.01562 60.2402l30.1201 4.50781c14.792 2.21484 29.2568 3.78223 43.5947 4.83398c-0.570312 52.0498 -1.62207 104.433 -3.22266 158.438
l-0.902344 30.4473l60.8887 1.7998l0.902344 -30.4414c1.60645 -54.2764 2.66406 -106.919 3.24023 -159.229c14.332 -0.586914 28.7637 -1.67188 43.4883 -3.40527z" />
    <glyph glyph-name="comma" unicode="," horiz-adv-x="218" 
d="M168.348 39.7412l-59.0029 -254.566l-59.3447 13.7549l59.0029 254.566z" />
    <glyph glyph-name="hyphen" unicode="-" horiz-adv-x="300" 
d="M220.014 378.005l30.4297 -1.16797l-2.33105 -60.8721l-30.4355 1.16895c-45.1445 1.74414 -86.3516 1.25098 -133.65 -1.57324l-30.4023 -1.81055l-3.62207 60.8057l30.4023 1.81055c49.3535 2.94043 92.416 3.43848 139.609 1.63867z" />
    <glyph glyph-name="period" unicode="." horiz-adv-x="170" 
d="M59.0264 5.4248l60.5449 -6.7002l-3.34473 -30.2754c-2.02148 -18.2744 -3.41699 -37.0312 -4.15918 -55.749l-1.20215 -30.4307l-60.8662 2.40918l1.20215 30.4355c0.791992 20.1357 2.30371 40.332 4.48047 60.0352z" />
    <glyph glyph-name="slash" unicode="/" horiz-adv-x="271" 
d="M160.541 727.271l60.3369 -8.3877l-4.19238 -30.165c-8.37891 -60.3018 -15.8887 -115.342 -23.127 -168.366c-22.9658 -168.328 -42.8027 -313.702 -78.6543 -541.634l-4.72949 -30.0928l-60.1738 9.46387l4.72949 30.0928
c35.752 227.322 55.5498 372.408 78.4707 540.403c7.24316 53.0742 14.7578 108.164 23.1475 168.516z" />
    <glyph glyph-name="zero" unicode="0" horiz-adv-x="342" 
d="M225.603 674.199c79.6621 -66.2324 89.5293 -271.76 90.3877 -294.979c3.79297 -101.996 -7.31543 -202.164 -30.4688 -274.814c-2.6416 -8.2959 -5.43848 -16.2979 -8.30664 -23.7793c-10.4717 -27.3184 -22.4004 -49.1094 -35.4531 -64.7646
c-19.0498 -22.8271 -43.0176 -34.8389 -67.7324 -34.8389c-10.5498 0 -21.2324 2.1875 -31.7324 6.65137c-30.9346 13.1582 -57.9316 44.6738 -78.0723 91.1475c-19.4434 44.8789 -32.3633 102.467 -36.373 162.148c-10.1787 151.51 8.81641 254.796 26.5488 314.765
c24.6436 83.3389 61.0322 132.604 102.466 138.717c24.6602 3.59375 48.4287 -3.37305 68.7363 -20.252zM227.484 122.896c21.1045 66.2158 31.1787 158.817 27.6396 254.068c-3.59375 96.7842 -28.8135 217.432 -68.459 250.398
c-6.90039 5.73145 -12.582 7.12109 -17.1172 7.12109c-1.3623 0 -2.625 -0.126953 -3.78809 -0.298828c-5.25586 -1.05176 -31.4111 -21.752 -53.502 -97.6475c-22.6387 -77.7842 -31.0283 -181.303 -23.624 -291.483c3.55566 -52.9248 14.7422 -103.357 31.4883 -142.017
c19.0557 -43.9648 38.5264 -56.1201 46.0195 -59.3047c4.67969 -2.00488 14.4258 -6.13574 28.8467 11.1533c8.62793 10.3447 17.3945 26.792 25.3525 47.5479v0.0107422c2.45312 6.38477 4.85645 13.2686 7.14355 20.4512z" />
    <glyph glyph-name="one" unicode="1" horiz-adv-x="247" 
d="M216.645 5.67285l0.514648 -30.4531l-60.9102 -1.00781l-0.503906 30.4521c-3.43359 207.52 -4.07031 401.36 -1.95508 604.854c-13.125 -10.6768 -26.5381 -22.3838 -39.3857 -34.9883l-21.7471 -21.3262l-42.6582 43.4883l21.7412 21.332
c32.9668 32.3301 68.3926 58.6621 95.5781 77.9834l48.8828 34.75l-0.78125 -59.9688c-2.93457 -225.883 -2.54688 -437.223 1.22461 -665.115z" />
    <glyph glyph-name="two" unicode="2" horiz-adv-x="279" 
d="M248.531 -21.1025l-30.3477 -2.6377c-32.1475 -2.79688 -96.4863 -3.24512 -134.575 -3.24512c-16.8848 0 -28.6084 0.0888672 -30.0869 0.0996094l-24.2607 0.193359l-5.2334 23.6855c-5.2666 23.8291 0.730469 48.0352 6.54492 66.46
c20.9219 66.2598 46.7334 125.797 71.6924 183.374c19.1445 44.1641 38.9424 89.835 56.082 137.682c15.7549 43.9922 26.3486 81.9043 33.3486 119.329c6.78418 36.2393 6.64551 70.7676 -0.365234 94.7129c-8.96582 30.6133 -29.2617 50.1562 -49.4307 47.4873
c-26.6865 -3.52246 -56.2969 -47 -58.252 -134.121l-0.686523 -30.4521l-60.8994 1.36816l0.686523 30.4473c2.96289 131.983 59.377 186.315 111.178 193.149c50.6328 6.66797 98.2578 -30.6514 115.862 -90.7588c13.1631 -44.9668 6.7666 -96.3799 1.78223 -123.033
c-7.60938 -40.6699 -19.0059 -81.5615 -35.8799 -128.666c-17.8037 -49.708 -38.0059 -96.3086 -57.5381 -141.37c-24.3496 -56.1592 -49.5186 -114.229 -69.4932 -177.487c-0.719727 -2.29297 -2.01562 -6.38574 -3.18945 -11.1816
c37.3584 0.0224609 98.2637 0.470703 127.437 3.0127l30.3418 2.6416z" />
    <glyph glyph-name="three" unicode="3" horiz-adv-x="265" 
d="M222.335 86.1211c-19.2275 -65.1582 -55.5801 -107.137 -97.2412 -112.287c-2.91797 -0.365234 -5.83105 -0.541992 -8.72168 -0.541992c-40.249 -0.00585938 -77.8457 34.5166 -99.6426 92.4033l-10.7324 28.5029l57.0068 21.4648l10.7324 -28.498
c13.6289 -36.1846 32.7676 -54.2598 43.876 -52.8809c10.3945 1.29004 32.1523 21.1816 46.2852 69.0732c10.6826 36.1787 13.9941 79.0137 8.87207 114.594c-2.6582 18.4629 -7.80859 36.8652 -15.3018 54.6855c-19.0996 45.4268 -43.6768 64.5322 -59.6094 63.1758
l-10.3887 59.7695c24.1895 6.52344 49.4697 33.9639 69.3564 75.2764c9.1709 19.0615 24.0176 57.3057 20.3623 99.2773c-3.54395 40.7363 -22.6162 61.0605 -30.6514 67.9053c-10.1562 8.65039 -20.2188 11.5576 -30.7354 8.90527
c-16.1211 -4.08105 -31.666 -20.9102 -40.5762 -43.9199l-10.9922 -28.4033l-56.8066 21.9912l10.998 28.4033c16.1543 41.7334 46.9775 72.0088 82.4414 80.9854c29.7607 7.53125 60.0137 -0.138672 85.1885 -21.5918c29.0684 -24.7705 47.958 -64.4932 51.835 -108.984
c4.91797 -56.4639 -14.2812 -106.299 -26.165 -130.986c-14.2715 -29.6436 -31.2666 -54.1152 -50.0674 -72.4785c20.3018 -17.2168 38.2051 -42.9404 51.9775 -75.7129c9.50293 -22.5947 16.043 -46.0146 19.4375 -69.6055
c6.40723 -44.4795 2.49219 -95.6992 -10.7373 -140.522z" />
    <glyph glyph-name="four" unicode="4" horiz-adv-x="331" 
d="M237.699 167.156c-12.167 -0.431641 -26.7373 -1.08789 -41.7617 -1.75195c-113.177 -5.05078 -123.36 -4.49121 -136.131 7.57031c-6.12988 5.79297 -9.70215 13.9111 -9.80762 22.29c-0.199219 16.625 76.583 230.895 77.3584 233.043
c82.7021 228.939 105.584 252.104 114.201 260.821c8.20117 8.30664 17.4551 12.5156 27.5117 12.5156h30.8564l-0.398438 -30.8516c-2.93457 -225.971 -2.54688 -437.316 1.22461 -665.115l0.503906 -30.4521l-60.9102 -1.00781l-0.503906 30.4521
c-0.908203 54.9688 -1.62305 108.996 -2.14355 162.486zM120.685 223.522c22.4668 0.493164 51.7129 1.80078 72.5293 2.73633c16.2812 0.725586 31.3496 1.40137 43.9756 1.83301c-0.742188 106.531 -0.692383 211.617 0.126953 318.796
c-41.085 -101.901 -93.9043 -253.223 -116.632 -323.365z" />
    <glyph glyph-name="five" unicode="5" horiz-adv-x="285" 
d="M203.228 16.5049c-19.9199 -22.9873 -44.792 -34.8906 -69.4404 -34.9014c-16.5918 0 -33.0889 5.38867 -47.9189 16.4141c-31.959 23.752 -55.5996 74.7109 -61.7021 132.979l-3.16797 30.292l60.584 6.34668l3.17285 -30.2979
c4.87891 -46.6338 22.833 -79.5615 37.4531 -90.4268c4.02637 -2.99609 16.2764 -12.1113 34.9834 9.48047c18.2529 21.0605 32.4961 60.3682 38.1055 105.136c3.79883 30.3145 13.7783 134.182 -17.3662 197.706c-27.0527 55.168 -95.9268 40.2432 -98.8506 39.5898
l-41.2676 -9.36426l4.05371 42.0713c0.714844 7.13867 17.4727 173.872 27.4463 243.903v28.3145h4.08691l0.586914 4.04297l27.9775 -4.04297h138.146v-60.916h-113.697c-6.76172 -53.1406 -15.3457 -134.081 -20.1807 -180.754
c43.2891 -1.04688 97.9199 -17.9424 126.396 -76.0283c37.5186 -76.5332 28.6631 -187.805 23.1143 -232.091c-7.16016 -57.0947 -26.2988 -107.195 -52.5146 -137.454z" />
    <glyph glyph-name="six" unicode="6" horiz-adv-x="262" 
d="M159.253 -19.5518c-6.0918 -1.67285 -12.3242 -2.49707 -18.5762 -2.50293c-13.8506 0 -27.7891 4.05957 -40.5479 11.9844c-26.1328 16.2314 -47.5312 47.6084 -60.2568 88.3555c-14.9746 47.9688 -19.3721 111.748 -13.1201 189.859l-1.3125 0.808594l1.58984 2.5918
c0.647461 7.71387 1.39551 15.5557 2.24316 23.541c14.6143 137.305 49.6904 264.603 98.7666 358.436c8.42871 16.1211 19.9473 36.5947 34.3125 51.9619l20.7998 22.251l44.502 -41.6006l-20.7998 -22.251c-9.46387 -10.1289 -18.7061 -26.8809 -24.8369 -38.5938
c-38.6924 -73.9912 -68.1201 -171.252 -84.5947 -278.343c3.55566 1.35156 7.17188 2.42578 10.8438 3.23438c22.0625 4.82324 44.5684 -0.304688 66.8965 -15.251c45.2773 -30.3086 59.3047 -105.229 63.2314 -136.036
c7.73633 -60.6943 -1.10742 -126.528 -22.5439 -167.719c-17.666 -33.9414 -40.5264 -46.3184 -56.5967 -50.7266zM98.0195 96.4502c8.12402 -26.0225 20.9268 -46.4951 34.2451 -54.7578c6.11914 -3.79883 9.69629 -2.83008 10.876 -2.49219
c5.99219 1.64453 12.9756 9.1543 18.6689 20.1025c15.5889 29.96 22.2344 84.1973 16.1543 131.895c-6.26855 49.2031 -23.2031 84.0918 -36.6875 93.1182c-8.01855 5.36035 -14.7412 7.49805 -19.9854 6.35742c-4.77344 -1.04102 -14.7529 -6.01953 -27.9941 -27.6064
l-6.65137 -10.8379c-4.43555 -65.0469 -0.625977 -117.335 11.374 -155.778z" />
    <glyph glyph-name="seven" unicode="7" horiz-adv-x="289" 
d="M256.295 551.165c-11.9395 -62.8271 -28.6172 -148.094 -44.7266 -230.552c-24.8818 -127.248 -50.6104 -258.821 -61.3262 -319.859l-5.2666 -29.998l-60.002 10.5273l5.2666 30.0039c10.8096 61.6191 36.5996 193.491 61.5361 321.011
c21.6533 110.734 47.5039 242.934 57.959 301.757c-15.7881 0.132812 -34.3008 -0.0722656 -53.4062 -0.277344c-25.0088 -0.265625 -50.8701 -0.553711 -75.873 -0.193359l-30.458 0.4375l0.875 60.9053l30.458 -0.4375
c24.2334 -0.34375 49.7021 -0.0615234 74.3291 0.204102c37.9951 0.415039 70.8125 0.775391 91.8838 -1.21777l13.4463 -1.26855l8.14648 -10.8594c9.49219 -12.6924 9.49219 -12.6924 -12.8418 -130.183z" />
    <glyph glyph-name="eight" unicode="8" horiz-adv-x="271" 
d="M161.456 -17.9463c-7.80859 -2.76855 -15.7568 -4.13672 -23.6426 -4.13672c-13.7393 0 -27.2852 4.15918 -39.5732 12.3438c-46.0859 30.6855 -66.8525 109.699 -70.6289 168.035c-3.36719 52.0615 6.77246 163.007 42.9121 214.569
c-0.692383 1.14062 -1.38477 2.28711 -2.07715 3.4502c-15.1406 25.502 -40.4932 78.4102 -40.1943 146.193c0.132812 29.8652 5.34961 60.7168 15.0791 89.2197c16.7354 49.0264 45.7207 82.2754 79.5234 91.2139c25.3906 6.70117 50.3936 1.03027 70.3799 -15.9873
c16.7686 -14.2881 29.4443 -36.2568 36.6602 -63.5527c26.9023 -101.758 7.32617 -221.153 -6.9668 -308.33c-3.08984 -18.8232 -6.00293 -36.5996 -8.06348 -51.9287l-1.36816 -10.167c5.12793 -13.8281 9.76855 -28.3652 13.9219 -43.5605
c5.20605 -19.0615 12.0947 -48.0801 11.8008 -79.8066c-0.199219 -21.5811 -3.73828 -43.9756 -10.2285 -64.7705c-13.125 -42.0596 -37.7402 -72.2354 -67.5342 -82.7852zM100.987 592.04c-5.31641 -15.5664 -11.6787 -40.3164 -11.8115 -69.8105
c-0.238281 -53.1074 19.7363 -94.7412 31.6592 -114.832c8.99316 -15.1572 18.9062 -28.3818 29.4004 -42.3701c5.17188 -6.89453 10.4277 -13.9053 15.6553 -21.2646c12.8477 79.5508 26.9248 181.574 5.11719 264.077c-3.9707 15.0078 -10.1016 26.6377 -17.2676 32.7402
c-3.34473 2.85156 -6.51758 4.19727 -10.2109 4.19727c-1.58398 0 -3.26172 -0.244141 -5.08887 -0.731445c-10.4336 -2.75781 -26.5986 -20.2129 -37.4531 -52.0059zM132.011 40.959c3.84277 -2.54785 6.43262 -2.42676 9.11328 -1.49609
c8.37305 2.96875 21.1816 16.1436 29.7266 43.5166c4.73438 15.1787 7.32031 31.4932 7.46387 47.1875c0.166016 18.3799 -2.90234 38.46 -9.65332 63.1924c-4.54688 16.6357 -9.84082 32.5459 -15.75 47.376l-2.46973 0.337891l0.581055 4.31934
c-6.22461 15.0576 -13.0859 28.9355 -20.4238 41.2295c-6.45117 10.8154 -13.3682 20.6504 -20.6279 30.4971c-13.6172 -36.6602 -24.8926 -103.49 -21.5645 -154.897c4.05371 -62.6055 25.4902 -109.201 43.6045 -121.263z" />
    <glyph glyph-name="nine" unicode="9" horiz-adv-x="291" 
d="M240.204 128.928c-11.0645 -54.8965 -33.5527 -124.639 -77.8281 -145.129c-8.62207 -3.9873 -17.6377 -5.95312 -26.7637 -5.95312c-18.0703 0 -36.5664 7.70312 -53.2959 22.6494c-15.6387 13.9668 -30.0098 33.6094 -46.6064 63.7021l-14.708 26.6699l53.3457 29.417
l14.708 -26.665c12.7646 -23.1592 23.835 -38.7588 33.8359 -47.6855c4.86816 -4.34766 11.0537 -8.15234 13.9053 -6.83398c10.2676 4.75098 30.375 35.7959 43.6934 101.873c10.5664 52.4268 14.5977 110.479 16.9287 155.192
c1.65625 31.7646 2.78613 62.7822 3.44531 93.3232c-10.251 -25.6064 -23.1709 -45.4873 -40.0283 -57.7207c-12.2549 -8.89941 -26.0498 -13.4346 -40.5088 -13.4346c-4.93945 0 -9.95703 0.53125 -15.0186 1.59473c-47.0107 9.91309 -68.1484 72.3242 -73.2266 107.639
c-4.76855 33.1162 -4.80176 69.6992 -0.0888672 103.015c23.5859 166.916 105.285 187.86 129.763 190.297c8.84375 0.891602 17.4941 0.398438 25.7285 -1.22949l-0.0830078 0.875l60.6504 5.6709l2.83496 -30.3311c12.4268 -132.875 14.7637 -260.888 7.36523 -402.872
c-2.44238 -46.7998 -6.70117 -107.738 -18.0479 -164.063zM179.61 604.889c2.04297 18.9062 3.8623 35.7412 5.78906 50.1289c-3.13965 3.07324 -8.32812 5.37695 -14.791 5.37695c-0.914062 0 -1.84961 -0.0439453 -2.80762 -0.137695
c-26.1826 -2.61426 -61.6689 -40.377 -75.4912 -138.208c-3.86523 -27.3623 -3.84277 -58.6455 0.0673828 -85.8145c4.51367 -31.4053 19.2998 -54.8965 25.5244 -56.7129c2.97949 -0.625977 4.65723 -0.271484 7.15527 1.54492
c32.9561 23.9121 47.0059 153.963 54.5537 223.822z" />
    <glyph glyph-name="colon" unicode=":" horiz-adv-x="183" 
d="M72.2373 477.835l60.5176 -6.93262l-3.46094 -30.2646c-2.80176 -24.4775 -4.81738 -49.6025 -5.98633 -74.6836l-1.41797 -30.4189l-60.8496 2.84082l1.41797 30.4248c1.24023 26.4434 3.36133 52.9414 6.31836 78.7754zM65.376 5.81934l3.30469 30.2754
l60.5566 -6.60645l-3.30566 -30.2812c-3.16211 -28.9404 -6.91699 -57.9473 -11.1641 -86.2119l-4.52441 -30.1201l-60.2402 9.05957l4.52441 30.1143c4.12598 27.457 7.77539 55.6387 10.8486 83.7705z" />
    <glyph glyph-name="semicolon" unicode=";" horiz-adv-x="223" 
d="M172.565 472.289l-17.7783 -124.198l-60.3008 8.63184l17.7783 124.198zM83.709 38.1035l3.70996 30.2324l60.4619 -7.39844l-3.69922 -30.2314c-8.63379 -70.541 -18.3633 -141.503 -28.9238 -210.903l-4.58496 -30.1143l-60.2236 9.15918l4.58008 30.1143
c10.4717 68.8242 20.1182 139.188 28.6797 209.142z" />
    <glyph glyph-name="less" unicode="&#x3c;" horiz-adv-x="364" 
d="M212.358 297.922c24.416 -12.9639 49.667 -26.3711 73.5293 -39.6289l26.6201 -14.7969l-29.5889 -53.2461l-26.626 14.7969c-23.3535 12.9805 -48.3398 26.249 -72.501 39.0801c-24.4326 12.9697 -49.6963 26.3828 -73.5703 39.6514
c-12.1387 6.75098 -27.2461 15.1465 -40.7861 29.8438l-19.4326 21.1045l19.8975 20.6621c58.7227 60.9766 120.021 117.401 182.199 167.724l23.6738 19.1611l38.3213 -47.3535l-23.6738 -19.1611c-51.707 -41.8496 -102.821 -88.0908 -152.312 -137.787
c0.564453 -0.31543 1.12891 -0.625977 1.70508 -0.947266c23.3643 -12.9863 48.3672 -26.2656 72.5449 -39.1025z" />
    <glyph glyph-name="equal" unicode="=" horiz-adv-x="369" 
d="M87.1924 361.325l-30.2578 -3.4707l-6.93359 60.5225l30.2588 3.4668c73.4873 8.42285 137.609 9.86816 207.901 4.68457l30.375 -2.2373l-4.48047 -60.7559l-30.375 2.2373c-66.3486 4.88965 -126.938 3.5166 -196.488 -4.44727zM80.2598 336.578
c73.4873 8.42285 137.61 9.8584 207.902 4.68652l30.375 -2.2373l-4.48047 -60.7559l-30.375 2.2373c-66.3486 4.88965 -126.938 3.5166 -196.488 -4.44727l-30.2588 -3.47266l-6.93359 60.5225z" />
    <glyph glyph-name="greater" unicode="&#x3e;" horiz-adv-x="364" 
d="M294.196 355.383l19.8984 -20.6621l-19.4326 -21.1045c-13.54 -14.7031 -28.6475 -23.0928 -40.7861 -29.8438c-23.8623 -13.2578 -49.1201 -26.6709 -73.542 -39.6406c-24.1729 -12.8369 -49.165 -26.1055 -72.5234 -39.0918l-26.626 -14.7969l-29.5938 53.2461
l26.626 14.7969c23.8623 13.2578 49.1201 26.6709 73.542 39.6406c24.1729 12.8369 49.165 26.1055 72.5234 39.0918c0.570312 0.321289 1.14062 0.631836 1.70508 0.947266c-49.4863 49.6963 -100.606 95.9375 -152.313 137.787l-23.6738 19.1611l38.3223 47.3535
l23.6738 -19.1611c62.1787 -50.3223 123.477 -106.747 182.2 -167.724z" />
    <glyph glyph-name="question" unicode="?" horiz-adv-x="300" 
d="M234.864 684.474c13.3076 -26.6816 15.4805 -61.8018 15.5859 -80.3701c0.171875 -28.3428 -3.60449 -54.9854 -7.31445 -77.3135c-6.81738 -41.0186 -15.7891 -80.4033 -24.4668 -118.498c-4.39746 -19.2998 -8.94434 -39.2637 -13.1084 -59.0283
c-10.2061 -48.3896 -21.8799 -112.557 -21.6357 -179.736l0.110352 -30.458l-60.916 -0.22168l-0.110352 30.4521c-0.265625 72.9111 12.1221 141.192 22.9434 192.533c4.26953 20.2461 8.87109 40.4541 13.3232 59.9912c8.47852 37.2256 17.25 75.7188 23.7676 114.96
c3.28906 19.7871 6.62793 43.2178 6.48926 66.9697c-0.126953 21.9189 -3.64355 42.4307 -9.18164 53.5283c-3.64941 7.32129 -6.5791 7.69238 -7.68066 7.83105c-13.5898 1.87695 -45.6045 -32.7617 -57.583 -104.854l-4.98926 -30.0479l-60.0967 9.98438l4.98926 30.0479
c16.3916 98.6562 67.96 162.624 125.282 155.309c23.4639 -2.95117 42.8516 -17.543 54.5918 -41.0791zM186.066 -1.12012c1.40625 -15.5059 2.14258 -31.3496 2.18652 -47.083l0.0996094 -30.458l-60.916 -0.193359l-0.0996094 30.458
c-0.0498047 13.9775 -0.703125 28.0381 -1.94336 41.7939l-2.74121 30.3359l60.6729 5.48242z" />
    <glyph glyph-name="at" unicode="@" horiz-adv-x="473" 
d="M414.623 562.515c8.72168 -47.9629 10.2695 -104.885 4.46582 -164.604c-5.01172 -51.4238 -14.3926 -93.4668 -27.8936 -124.966c-9.01562 -21.0381 -25.1914 -47.3369 -51.0527 -53.1738c-14.498 -3.27832 -28.8906 0.576172 -40.5312 10.8379
c-6.05859 5.33301 -11.3086 12.4268 -15.8057 21.3701c-3.26758 -8.47266 -6.75684 -16.6074 -10.4727 -24.3105c-7.15527 -14.8027 -17.2178 -33.2881 -31.6992 -44.8789c-22.7217 -18.1807 -52.2881 -15.1016 -70.3027 7.35449
c-13.1523 16.3867 -20.8721 43.2393 -23.5967 82.0986c-3.47754 49.5527 1.01367 125.604 19.0889 175.488c7.4707 20.6113 27.2793 75.3691 70.9668 72.5059c30.3584 -1.98828 53.7666 -31.6436 69.7324 -88.251l16.1094 -1.06836
c-0.310547 -39.3906 -0.625977 -80.1328 5.21094 -116.992c1.37305 -8.66699 2.94043 -15.6387 4.47949 -21.127c0.614258 1.28516 1.24512 2.6582 1.87598 4.13672c11.0254 25.7344 18.8555 61.6914 23.2529 106.875c5.27734 54.1934 3.98145 105.297 -3.74902 147.794
c-15.1904 83.4941 -55.0186 129.209 -85.5986 136.358c-30.165 7.05566 -56.1709 -14.4922 -72.668 -33.8027c-27.9775 -32.7676 -51.5186 -85.6924 -66.2939 -149.028c-11.4746 -49.209 -18.0762 -106.687 -19.084 -166.218
c-0.914062 -54.3154 2.75781 -104.277 10.915 -148.491c19.1719 -103.912 62.4336 -163.327 94.5195 -174.558c33.2324 -11.6465 73.1543 25.291 99.2822 91.9004l11.1201 28.3535l56.707 -22.2451l-11.1201 -28.3594
c-33.0391 -84.2305 -86.7168 -132.925 -142.799 -132.931c-11.0586 0 -22.2119 1.89355 -33.3203 5.78125c-61.6689 21.5869 -113.132 106.271 -134.298 221.004c-8.89355 48.1904 -12.8975 102.218 -11.9121 160.575c1.07422 63.7734 8.21777 125.681 20.6611 179.021
c16.9512 72.6504 45.1113 134.713 79.291 174.751c38.8477 45.4824 86.0186 64.5273 132.852 53.5684c63.1641 -14.7588 113.619 -85.5596 131.667 -184.77zM218.471 254.164c15.1289 31.3164 27.8525 76.5273 37.3662 132.382l-1.96582 8.91016
c-6.05273 27.4619 -13.4404 45.7979 -19.0557 56.0986c-2.87988 -5.19434 -6.53516 -12.9971 -10.7275 -24.5713c-12.6982 -35.0322 -19.2549 -98.3184 -15.5947 -150.474c1.00195 -14.2988 2.74609 -25.042 4.58984 -32.7676
c1.59473 2.85156 3.39453 6.29102 5.3877 10.4219z" />
    <glyph glyph-name="A" unicode="A" horiz-adv-x="351" 
d="M129.397 280.024c-16.2148 -0.0439453 -31.8721 -0.0898438 -46.2314 -0.123047c-4.34766 -92.0391 -4.29199 -183.424 -4.24219 -251.966l0.00585938 -50.0615h-60.916l-0.00585938 50.0176c-0.0722656 106.647 -0.182617 267.81 16.1094 404.046
c13.834 115.641 43.7383 269.376 143.275 269.376c132.57 0 147.827 -264.625 153.232 -584.312c0.65332 -38.8311 1.27344 -75.5137 2.40918 -105.595l1.14648 -30.4355l-60.8721 -2.29297l-1.14648 30.4355c-1.15723 30.7129 -1.77734 67.7061 -2.44141 106.864
c-0.858398 50.8096 -1.83301 107.317 -4.14258 164.113c-37.4414 0.21582 -89.3584 0.0722656 -136.181 -0.0664062zM177.392 640.396c-13.3682 0 -58.8516 -15.5498 -82.7969 -215.692c-3.23926 -27.0859 -5.80371 -55.2793 -7.84766 -83.8818
c13.3184 0.0273438 27.6445 0.0664062 42.4639 0.110352c45.5488 0.132812 95.8604 0.282227 133.312 0.0830078c-2.81836 46.125 -6.84473 91.1367 -12.7754 132.05c-21.8965 151.027 -57.8975 167.331 -72.3564 167.331z" />
    <glyph glyph-name="A" unicode="&#xc5;" horiz-adv-x="351" 
d="M129.397 280.024c-16.2148 -0.0439453 -31.8721 -0.0898438 -46.2314 -0.123047c-4.34766 -92.0391 -4.29199 -183.424 -4.24219 -251.966l0.00585938 -50.0615h-60.916l-0.00585938 50.0176c-0.0722656 106.647 -0.182617 267.81 16.1094 404.046
c13.834 115.641 43.7383 269.376 143.275 269.376c132.57 0 147.827 -264.625 153.232 -584.312c0.65332 -38.8311 1.27344 -75.5137 2.40918 -105.595l1.14648 -30.4355l-60.8721 -2.29297l-1.14648 30.4355c-1.15723 30.7129 -1.77734 67.7061 -2.44141 106.864
c-0.858398 50.8096 -1.83301 107.317 -4.14258 164.113c-37.4414 0.21582 -89.3584 0.0722656 -136.181 -0.0664062zM177.392 640.396c-13.3682 0 -58.8516 -15.5498 -82.7969 -215.692c-3.23926 -27.0859 -5.80371 -55.2793 -7.84766 -83.8818
c13.3184 0.0273438 27.6445 0.0664062 42.4639 0.110352c45.5488 0.132812 95.8604 0.282227 133.312 0.0830078c-2.81836 46.125 -6.84473 91.1367 -12.7754 132.05c-21.8965 151.027 -57.8975 167.331 -72.3564 167.331z" />
    <glyph glyph-name="A" unicode="&#xc4;" horiz-adv-x="351" 
d="M129.397 280.024c-16.2148 -0.0439453 -31.8721 -0.0898438 -46.2314 -0.123047c-4.34766 -92.0391 -4.29199 -183.424 -4.24219 -251.966l0.00585938 -50.0615h-60.916l-0.00585938 50.0176c-0.0722656 106.647 -0.182617 267.81 16.1094 404.046
c13.834 115.641 43.7383 269.376 143.275 269.376c132.57 0 147.827 -264.625 153.232 -584.312c0.65332 -38.8311 1.27344 -75.5137 2.40918 -105.595l1.14648 -30.4355l-60.8721 -2.29297l-1.14648 30.4355c-1.15723 30.7129 -1.77734 67.7061 -2.44141 106.864
c-0.858398 50.8096 -1.83301 107.317 -4.14258 164.113c-37.4414 0.21582 -89.3584 0.0722656 -136.181 -0.0664062zM177.392 640.396c-13.3682 0 -58.8516 -15.5498 -82.7969 -215.692c-3.23926 -27.0859 -5.80371 -55.2793 -7.84766 -83.8818
c13.3184 0.0273438 27.6445 0.0664062 42.4639 0.110352c45.5488 0.132812 95.8604 0.282227 133.312 0.0830078c-2.81836 46.125 -6.84473 91.1367 -12.7754 132.05c-21.8965 151.027 -57.8975 167.331 -72.3564 167.331z" />
    <glyph glyph-name="A" unicode="&#xc3;" horiz-adv-x="351" 
d="M129.397 280.024c-16.2148 -0.0439453 -31.8721 -0.0898438 -46.2314 -0.123047c-4.34766 -92.0391 -4.29199 -183.424 -4.24219 -251.966l0.00585938 -50.0615h-60.916l-0.00585938 50.0176c-0.0722656 106.647 -0.182617 267.81 16.1094 404.046
c13.834 115.641 43.7383 269.376 143.275 269.376c132.57 0 147.827 -264.625 153.232 -584.312c0.65332 -38.8311 1.27344 -75.5137 2.40918 -105.595l1.14648 -30.4355l-60.8721 -2.29297l-1.14648 30.4355c-1.15723 30.7129 -1.77734 67.7061 -2.44141 106.864
c-0.858398 50.8096 -1.83301 107.317 -4.14258 164.113c-37.4414 0.21582 -89.3584 0.0722656 -136.181 -0.0664062zM177.392 640.396c-13.3682 0 -58.8516 -15.5498 -82.7969 -215.692c-3.23926 -27.0859 -5.80371 -55.2793 -7.84766 -83.8818
c13.3184 0.0273438 27.6445 0.0664062 42.4639 0.110352c45.5488 0.132812 95.8604 0.282227 133.312 0.0830078c-2.81836 46.125 -6.84473 91.1367 -12.7754 132.05c-21.8965 151.027 -57.8975 167.331 -72.3564 167.331z" />
    <glyph glyph-name="A" unicode="&#xc2;" horiz-adv-x="351" 
d="M129.397 280.024c-16.2148 -0.0439453 -31.8721 -0.0898438 -46.2314 -0.123047c-4.34766 -92.0391 -4.29199 -183.424 -4.24219 -251.966l0.00585938 -50.0615h-60.916l-0.00585938 50.0176c-0.0722656 106.647 -0.182617 267.81 16.1094 404.046
c13.834 115.641 43.7383 269.376 143.275 269.376c132.57 0 147.827 -264.625 153.232 -584.312c0.65332 -38.8311 1.27344 -75.5137 2.40918 -105.595l1.14648 -30.4355l-60.8721 -2.29297l-1.14648 30.4355c-1.15723 30.7129 -1.77734 67.7061 -2.44141 106.864
c-0.858398 50.8096 -1.83301 107.317 -4.14258 164.113c-37.4414 0.21582 -89.3584 0.0722656 -136.181 -0.0664062zM177.392 640.396c-13.3682 0 -58.8516 -15.5498 -82.7969 -215.692c-3.23926 -27.0859 -5.80371 -55.2793 -7.84766 -83.8818
c13.3184 0.0273438 27.6445 0.0664062 42.4639 0.110352c45.5488 0.132812 95.8604 0.282227 133.312 0.0830078c-2.81836 46.125 -6.84473 91.1367 -12.7754 132.05c-21.8965 151.027 -57.8975 167.331 -72.3564 167.331z" />
    <glyph glyph-name="A" unicode="&#xc1;" horiz-adv-x="351" 
d="M129.397 280.024c-16.2148 -0.0439453 -31.8721 -0.0898438 -46.2314 -0.123047c-4.34766 -92.0391 -4.29199 -183.424 -4.24219 -251.966l0.00585938 -50.0615h-60.916l-0.00585938 50.0176c-0.0722656 106.647 -0.182617 267.81 16.1094 404.046
c13.834 115.641 43.7383 269.376 143.275 269.376c132.57 0 147.827 -264.625 153.232 -584.312c0.65332 -38.8311 1.27344 -75.5137 2.40918 -105.595l1.14648 -30.4355l-60.8721 -2.29297l-1.14648 30.4355c-1.15723 30.7129 -1.77734 67.7061 -2.44141 106.864
c-0.858398 50.8096 -1.83301 107.317 -4.14258 164.113c-37.4414 0.21582 -89.3584 0.0722656 -136.181 -0.0664062zM177.392 640.396c-13.3682 0 -58.8516 -15.5498 -82.7969 -215.692c-3.23926 -27.0859 -5.80371 -55.2793 -7.84766 -83.8818
c13.3184 0.0273438 27.6445 0.0664062 42.4639 0.110352c45.5488 0.132812 95.8604 0.282227 133.312 0.0830078c-2.81836 46.125 -6.84473 91.1367 -12.7754 132.05c-21.8965 151.027 -57.8975 167.331 -72.3564 167.331z" />
    <glyph glyph-name="B" unicode="B" horiz-adv-x="310" 
d="M32.54 -15.1973l-0.367188 22.0928c-3.78223 224.93 -4.17578 433.528 -1.22949 656.465l0.249023 18.9668l17.1289 8.14648c39.1689 18.6123 111.587 17.7646 164.988 -15.8828c48.1016 -30.2979 76.915 -78.1338 81.1348 -134.691
c3.61035 -48.3232 -11.5908 -99.7197 -42.8076 -144.715c-14.1045 -20.335 -31.4541 -35.9629 -49.9668 -48.1074c10.417 -5.40527 20.54 -12.2393 30.0156 -20.8281c42.4248 -38.4434 61.8242 -102.433 57.6543 -190.202
c-3.51074 -73.8525 -38.543 -113.437 -67.3115 -133.633c-32.9834 -23.165 -73.2598 -32.3965 -110.125 -32.3965c-21.2266 0 -41.3125 3.05664 -58.2529 8.27832zM228.489 138.934c3.26172 68.708 -9.42578 116.544 -37.7129 142.173
c-29.3398 26.5928 -71.8984 25.751 -100.745 22.4619c0.310547 -89.292 1.18555 -179.027 2.64746 -271.354c27.6396 -3.32227 65.4629 -0.21582 94.3428 20.0586c25.6406 17.998 39.5908 47.1543 41.4678 86.6611zM91.5664 640.307
c-1.12988 -92.4434 -1.68457 -182.593 -1.65723 -272.627c35.542 8.24023 85.0166 23.7959 111.67 62.2178c23.2812 33.5645 34.6895 71.0117 32.1143 105.457v0.00585938c-2.78516 37.3301 -21.0654 67.6553 -52.8584 87.6855
c-27.6611 17.4219 -64.6367 21.1816 -89.2686 17.2607z" />
    <glyph glyph-name="C" unicode="C" horiz-adv-x="292" 
d="M164.469 -23.1328c-68.8682 0 -115.353 66.9541 -138.229 199.147c-15.7109 90.7705 -14.9189 201.051 2.18164 302.564c5.99219 35.5635 40.7754 212.968 137.283 213.012h0.0322266c54.3154 0 93.623 -51.8896 105.152 -138.812l4.00391 -30.1924l-60.3848 -8.01367
l-4.00391 30.1924c-6.60156 49.7852 -25.4297 85.9141 -44.7676 85.9141h-0.00585938c-26.5928 -0.0107422 -62.6826 -75.8125 -77.2412 -162.219c-15.999 -94.9961 -16.8135 -197.795 -2.22656 -282.053c16.6084 -95.9434 46.0312 -150.297 80.3105 -148.574
c29.7939 1.3125 52.3936 39.374 58.9727 99.3262l3.32227 30.2754l60.5566 -6.64551l-3.32227 -30.2812c-15.1904 -138.357 -93.2793 -152.495 -116.849 -153.536c-1.60645 -0.0722656 -3.20703 -0.105469 -4.78516 -0.105469z" />
    <glyph glyph-name="D" unicode="D" horiz-adv-x="323" 
d="M32.584 -17.8164l-0.40918 24.7002c-3.78223 224.842 -4.17578 433.436 -1.22949 656.466l0.249023 18.9668l17.1289 8.14648c41.667 19.7979 113.564 16.752 161.776 -22.6445c126.174 -103.114 126.899 -460.183 29.4668 -599.016
c-13.4238 -19.1279 -26.3047 -34.5732 -39.3848 -47.2275c-32.8008 -31.7598 -68.9072 -47.4375 -109.633 -47.4375c-10.8984 0 -22.1182 1.11816 -33.7031 3.35547zM91.5732 640.373c-2.51953 -205.144 -2.17773 -398.808 1.05664 -605.308
c24.0566 0.526367 44.4355 10.2012 65.1748 30.2754l0.00585938 0.00585938c10.2783 9.94629 20.7061 22.5225 31.8926 38.4551c85.792 122.242 74.5947 441.05 -18.1523 516.852c-23.5693 19.2607 -56.7744 23.375 -79.9775 19.7197z" />
    <glyph glyph-name="E" unicode="E" horiz-adv-x="233" 
d="M61.3262 696.52c5.69336 0 15.3623 0.0849609 27.1416 0.173828c34.0352 0.282227 85.4707 0.719727 111.394 -0.205078l30.4414 -1.08008l-2.1709 -60.877l-30.4414 1.08496c-23.9844 0.847656 -72.7002 0.46582 -106.171 0.183594
c-1.20703 -99.8633 -1.7334 -197.091 -1.58398 -294.418c26.5537 -0.271484 65.7285 -0.603516 83.3389 0.22168l30.4248 1.42871l2.85742 -60.8496l-30.4248 -1.42871c-9.44238 -0.443359 -23.5967 -0.586914 -38.9141 -0.586914
c-15.7441 0 -32.7119 0.160156 -47.0879 0.303711c0.360352 -80.6533 1.18555 -161.827 2.48145 -245.05c0.282227 0 0.542969 -0.00585938 0.825195 -0.00585938c33.5811 -0.288086 84.335 -0.708984 103.025 0.149414l30.4248 1.41211l2.83008 -60.8496l-30.4248 -1.41211
c-9.38672 -0.4375 -25.0195 -0.576172 -42.6963 -0.576172c-20.6621 0 -44.1152 0.193359 -63.6807 0.359375c-11.8955 0.0996094 -21.6699 0.182617 -27.1963 0.182617h-30.458v0.0166016l-2.58105 -0.0439453l-0.509766 30.4521
c-3.74902 223.468 -4.15918 430.893 -1.30176 652.195v39.2188h30.458z" />
    <glyph glyph-name="E" unicode="&#xcb;" horiz-adv-x="233" 
d="M61.3262 696.52c5.69336 0 15.3623 0.0849609 27.1416 0.173828c34.0352 0.282227 85.4707 0.719727 111.394 -0.205078l30.4414 -1.08008l-2.1709 -60.877l-30.4414 1.08496c-23.9844 0.847656 -72.7002 0.46582 -106.171 0.183594
c-1.20703 -99.8633 -1.7334 -197.091 -1.58398 -294.418c26.5537 -0.271484 65.7285 -0.603516 83.3389 0.22168l30.4248 1.42871l2.85742 -60.8496l-30.4248 -1.42871c-9.44238 -0.443359 -23.5967 -0.586914 -38.9141 -0.586914
c-15.7441 0 -32.7119 0.160156 -47.0879 0.303711c0.360352 -80.6533 1.18555 -161.827 2.48145 -245.05c0.282227 0 0.542969 -0.00585938 0.825195 -0.00585938c33.5811 -0.288086 84.335 -0.708984 103.025 0.149414l30.4248 1.41211l2.83008 -60.8496l-30.4248 -1.41211
c-9.38672 -0.4375 -25.0195 -0.576172 -42.6963 -0.576172c-20.6621 0 -44.1152 0.193359 -63.6807 0.359375c-11.8955 0.0996094 -21.6699 0.182617 -27.1963 0.182617h-30.458v0.0166016l-2.58105 -0.0439453l-0.509766 30.4521
c-3.74902 223.468 -4.15918 430.893 -1.30176 652.195v39.2188h30.458z" />
    <glyph glyph-name="E" unicode="&#xca;" horiz-adv-x="233" 
d="M61.3262 696.52c5.69336 0 15.3623 0.0849609 27.1416 0.173828c34.0352 0.282227 85.4707 0.719727 111.394 -0.205078l30.4414 -1.08008l-2.1709 -60.877l-30.4414 1.08496c-23.9844 0.847656 -72.7002 0.46582 -106.171 0.183594
c-1.20703 -99.8633 -1.7334 -197.091 -1.58398 -294.418c26.5537 -0.271484 65.7285 -0.603516 83.3389 0.22168l30.4248 1.42871l2.85742 -60.8496l-30.4248 -1.42871c-9.44238 -0.443359 -23.5967 -0.586914 -38.9141 -0.586914
c-15.7441 0 -32.7119 0.160156 -47.0879 0.303711c0.360352 -80.6533 1.18555 -161.827 2.48145 -245.05c0.282227 0 0.542969 -0.00585938 0.825195 -0.00585938c33.5811 -0.288086 84.335 -0.708984 103.025 0.149414l30.4248 1.41211l2.83008 -60.8496l-30.4248 -1.41211
c-9.38672 -0.4375 -25.0195 -0.576172 -42.6963 -0.576172c-20.6621 0 -44.1152 0.193359 -63.6807 0.359375c-11.8955 0.0996094 -21.6699 0.182617 -27.1963 0.182617h-30.458v0.0166016l-2.58105 -0.0439453l-0.509766 30.4521
c-3.74902 223.468 -4.15918 430.893 -1.30176 652.195v39.2188h30.458z" />
    <glyph glyph-name="E" unicode="&#xc9;" horiz-adv-x="233" 
d="M61.3262 696.52c5.69336 0 15.3623 0.0849609 27.1416 0.173828c34.0352 0.282227 85.4707 0.719727 111.394 -0.205078l30.4414 -1.08008l-2.1709 -60.877l-30.4414 1.08496c-23.9844 0.847656 -72.7002 0.46582 -106.171 0.183594
c-1.20703 -99.8633 -1.7334 -197.091 -1.58398 -294.418c26.5537 -0.271484 65.7285 -0.603516 83.3389 0.22168l30.4248 1.42871l2.85742 -60.8496l-30.4248 -1.42871c-9.44238 -0.443359 -23.5967 -0.586914 -38.9141 -0.586914
c-15.7441 0 -32.7119 0.160156 -47.0879 0.303711c0.360352 -80.6533 1.18555 -161.827 2.48145 -245.05c0.282227 0 0.542969 -0.00585938 0.825195 -0.00585938c33.5811 -0.288086 84.335 -0.708984 103.025 0.149414l30.4248 1.41211l2.83008 -60.8496l-30.4248 -1.41211
c-9.38672 -0.4375 -25.0195 -0.576172 -42.6963 -0.576172c-20.6621 0 -44.1152 0.193359 -63.6807 0.359375c-11.8955 0.0996094 -21.6699 0.182617 -27.1963 0.182617h-30.458v0.0166016l-2.58105 -0.0439453l-0.509766 30.4521
c-3.74902 223.468 -4.15918 430.893 -1.30176 652.195v39.2188h30.458z" />
    <glyph glyph-name="F" unicode="F" horiz-adv-x="229" 
d="M91.5225 635.803c-1.19629 -99.8916 -1.72754 -197.17 -1.58887 -294.514c26.543 -0.277344 65.7227 -0.609375 83.3223 0.22168l30.4248 1.44531l2.89062 -60.8438l-30.4248 -1.45117c-9.44727 -0.448242 -23.6074 -0.591797 -38.9365 -0.591797
c-15.75 0 -32.7236 0.160156 -47.0996 0.303711c0.393555 -91.9229 1.37402 -184.443 2.96289 -279.865l0.509766 -30.458l-60.9102 -1.01367l-0.503906 30.4521c-3.74316 225.224 -4.1582 434.349 -1.30078 657.507v39.5176h30.458
c5.6875 0 15.3564 0.0771484 27.1406 0.182617c34.0352 0.288086 85.4756 0.731445 111.403 -0.204102l30.4355 -1.09082l-2.1875 -60.877l-30.4414 1.09668c-23.9785 0.869141 -72.6895 0.481445 -106.154 0.182617z" />
    <glyph glyph-name="G" unicode="G" horiz-adv-x="296" 
d="M164.473 -23.1328c-68.8633 -0.0107422 -115.353 66.9521 -138.24 199.146c-15.7051 90.7812 -14.9072 201.062 2.18848 302.57c5.99707 35.5635 40.7744 212.968 137.282 213.012h0.0322266c54.3203 0 93.6221 -51.8896 105.151 -138.817l4.00391 -30.1924
l-60.3848 -8.00781l-4.00391 30.1982c-6.60156 49.7852 -25.4297 85.9082 -44.7676 85.9082h-0.00585938c-26.5869 -0.0107422 -62.6768 -75.8125 -77.2354 -162.219c-15.999 -94.9902 -16.8135 -197.795 -2.23242 -282.059
c16.6025 -95.9375 45.9258 -150.291 80.3105 -148.568c33.8975 1.48926 50.3555 46.8887 58.2744 94.5801c-14.5645 -0.193359 -28.5029 -0.641602 -49.624 -1.73242l-30.4189 -1.56152l-3.13477 60.833l30.4189 1.56738c37.624 1.93848 53.2129 1.93848 87.3701 1.93848
h33.4766l-3.15625 -33.332c-11.2197 -118.504 -51.7734 -180.129 -120.525 -183.158c-1.60059 -0.0722656 -3.20117 -0.105469 -4.7793 -0.105469z" />
    <glyph glyph-name="H" unicode="H" horiz-adv-x="320" 
d="M201.394 280.069c-25.1143 0 -53.8555 0.244141 -79.1191 0.46582c-11.6797 0.0996094 -22.6553 0.193359 -32.1641 0.253906c0.387695 -93.1074 1.37305 -186.813 2.97363 -283.493l0.503906 -30.4521l-60.9102 -1.00781l-0.503906 30.4521
c-3.78223 228.475 -4.17578 440.391 -1.22949 666.91l0.393555 30.458l60.9102 -0.797852l-0.393555 -30.4521c-1.41797 -109.134 -2.04883 -214.867 -1.91016 -320.7c9.56934 -0.0605469 20.6113 -0.149414 32.8447 -0.254883
c35.0762 -0.298828 76.8643 -0.65332 105.495 -0.332031c-0.143555 106.287 0.493164 212.475 1.91602 322.079l0.393555 30.458l60.9102 -0.797852l-0.393555 -30.4521c-2.93457 -225.938 -2.54688 -437.277 1.22461 -665.114l0.503906 -30.4521l-60.9102 -1.00781
l-0.503906 30.4521c-1.60059 96.8174 -2.5918 190.661 -2.97949 283.913c-8.20703 -0.0888672 -17.3555 -0.12793 -27.0518 -0.12793z" />
    <glyph glyph-name="I" unicode="I" horiz-adv-x="121" 
d="M92.249 692.854l-0.388672 -30.4473c-2.93457 -225.883 -2.54688 -437.223 1.22461 -665.115l0.503906 -30.4521l-60.9102 -1.00781l-0.503906 30.4521c-3.78223 228.508 -4.17578 440.424 -1.22949 666.91l0.393555 30.458z" />
    <glyph glyph-name="I" unicode="&#xcf;" horiz-adv-x="121" 
d="M92.249 692.854l-0.388672 -30.4473c-2.93457 -225.883 -2.54688 -437.223 1.22461 -665.115l0.503906 -30.4521l-60.9102 -1.00781l-0.503906 30.4521c-3.78223 228.508 -4.17578 440.424 -1.22949 666.91l0.393555 30.458z" />
    <glyph glyph-name="I" unicode="&#xce;" horiz-adv-x="121" 
d="M92.249 692.854l-0.388672 -30.4473c-2.93457 -225.883 -2.54688 -437.223 1.22461 -665.115l0.503906 -30.4521l-60.9102 -1.00781l-0.503906 30.4521c-3.78223 228.508 -4.17578 440.424 -1.22949 666.91l0.393555 30.458z" />
    <glyph glyph-name="I" unicode="&#xcd;" horiz-adv-x="121" 
d="M92.249 692.854l-0.388672 -30.4473c-2.93457 -225.883 -2.54688 -437.223 1.22461 -665.115l0.503906 -30.4521l-60.9102 -1.00781l-0.503906 30.4521c-3.78223 228.508 -4.17578 440.424 -1.22949 666.91l0.393555 30.458z" />
    <glyph glyph-name="J" unicode="J" horiz-adv-x="226" 
d="M93.0176 28.5684c34.2354 1.25684 42.7158 82.7705 43.7236 150.936c2.02637 139.271 0.381836 251.107 -2.09863 420.394l-0.464844 31.8926c-29.7109 -0.758789 -69.2236 -2.17676 -81.335 -3.52832l-30.2695 -3.38379l-6.77246 60.5391l30.2695 3.38379
c21.708 2.43066 99.2373 4.39648 118.027 4.44629l30.1035 0.0830078l1.33984 -92.5371c2.49219 -169.823 4.13672 -282.009 2.09863 -422.171c-0.902344 -62.0732 -3.02344 -207.441 -103.064 -210.875c-0.65332 -0.0224609 -1.33496 -0.0332031 -2.0332 -0.0332031
c-26.4434 0 -83.2666 17.5107 -88.4727 165.936l-1.06836 30.4355l60.877 2.1377l1.06836 -30.4414c2.84082 -81.1289 23.1865 -105.523 28.0713 -107.213z" />
    <glyph glyph-name="K" unicode="K" horiz-adv-x="282" 
d="M227.682 -20.6797c-31.7646 48.6387 -58.584 89.6396 -81.1338 124.124c-22.9375 35.0713 -41.2012 62.999 -55.8545 85.499c0.526367 -63.0264 1.31836 -126.656 2.39258 -191.653l0.503906 -30.4521l-60.9102 -1.00781l-0.503906 30.4521
c-3.78223 228.475 -4.17578 440.391 -1.22949 666.91l0.393555 30.458l60.9102 -0.797852l-0.393555 -30.4521c-1.06348 -81.7109 -1.68359 -161.511 -1.87207 -240.879c1.76074 3.70996 3.57129 7.51953 5.44824 11.457c33.1719 69.6992 76.7656 160.542 116.616 243.012
l13.252 27.4229l54.8467 -26.498l-13.252 -27.4229c-77.6738 -160.741 -150.641 -313.868 -170.339 -357.252c12.6982 -20.5068 45.665 -70.9121 100.96 -155.452c22.5557 -34.4951 49.3867 -75.5078 81.1572 -124.152l16.6582 -25.4961l-50.998 -33.3154z" />
    <glyph glyph-name="L" unicode="L" horiz-adv-x="196" 
d="M62.6201 -32.708l-30.4521 0.00683594v35.1602c-3.77637 226.381 -4.16406 436.348 -1.22363 660.746l0.398438 30.4521l60.9102 -0.797852l-0.398438 -30.458c-2.83008 -215.677 -2.56445 -418.04 0.830078 -634.53
c0.476562 -0.00585938 0.936523 -0.0117188 1.41797 -0.0175781c26.7031 -0.360352 63.2695 -0.870117 77.1367 -0.432617l30.4414 0.985352l1.96582 -60.8828l-30.4414 -0.985352c-4.53516 -0.143555 -10.8818 -0.204102 -18.3135 -0.204102
c-17.6211 0 -41.373 0.327148 -61.6416 0.609375c-13.4795 0.188477 -24.8926 0.348633 -30.6299 0.348633z" />
    <glyph glyph-name="M" unicode="M" horiz-adv-x="413" 
d="M324.389 39.6885c-3.25098 191.792 -6.33105 373.722 -4.44824 576.179c-41.5283 -48.4785 -64.0176 -180.218 -74.7832 -243.277c-3.61035 -21.1328 -6.72852 -39.3906 -9.74707 -52.5869c-2.64746 -11.5684 -10.7324 -46.6943 -42.1484 -42.3965l-22.2676 3.0791
l-3.62695 22.1846c-0.126953 0.802734 -13.4014 81.4062 -35.1094 163.831c-15.6719 59.4932 -29.8154 97.6152 -41.2402 121.987c-1.98242 -197.479 -1.2959 -386.208 2.08789 -588.001l0.509766 -30.458l-60.9053 -1.02441l-0.509766 30.4521
c-3.80957 226.962 -4.20801 437.399 -1.25586 662.263l0.365234 27.9883l27.9219 1.99316c50.6709 3.52734 90.3496 -57.1895 128.571 -197.164c3.67188 -13.4512 7.12207 -26.8809 10.3398 -40c21.9521 109.688 60.8223 237.323 151.781 240.408l31.9092 1.08008
l-0.420898 -31.9258c-2.92383 -221.568 0.381836 -416.844 3.88184 -623.582l1.19043 -70.4961l-60.9102 -1.02441z" />
    <glyph glyph-name="N" unicode="N" horiz-adv-x="338" 
d="M32.0674 -34.0869l-0.415039 30.4395c-3.16797 228.712 -3.48926 440.922 -1.01367 667.846l0.327148 29.8105l29.8047 0.321289h0.547852c58.4072 0 79.418 -100.035 121.212 -325.491c15.5557 -83.9316 31.6436 -170.726 49.8682 -238.984
c5.01172 -18.7783 9.75195 -34.4453 14.1602 -47.5146c-2.1377 196.404 -2.11035 383.256 0.0380859 580.785l0.332031 30.458l60.916 -0.664062l-0.332031 -30.4521c-2.49219 -228.879 -2.12109 -443.42 1.16309 -675.167l0.4375 -30.8896h-30.8955
c-77.4248 0 -108.071 145.02 -155.586 401.332c-9.54688 51.4795 -20.75 111.936 -32.2793 163.531c-1.01367 -174.63 -0.288086 -344.226 2.2041 -524.066l0.420898 -30.4521z" />
    <glyph glyph-name="O" unicode="O" horiz-adv-x="322" 
d="M267.229 78.2539c-10.4775 -27.335 -22.416 -49.1396 -35.4688 -64.7783c-19.0449 -22.832 -43.0127 -34.8379 -67.7285 -34.8379c-10.5498 0 -21.2324 2.1875 -31.7324 6.65137c-30.9287 13.1465 -57.9258 44.6621 -78.0723 91.1357
c-19.4434 44.8672 -32.3633 102.455 -36.3779 162.147c-10.1729 151.521 8.82227 254.807 26.5547 314.771c24.6436 83.3447 61.0322 132.604 102.466 138.717c24.6484 3.61621 48.4277 -3.36133 68.7354 -20.2461c79.6621 -66.2266 89.5303 -271.763 90.3945 -294.982
c3.79297 -101.99 -7.31641 -202.158 -30.4697 -274.814c-2.63574 -8.26758 -5.42676 -16.2646 -8.30078 -23.7627zM217.495 120.516c21.0996 66.21 31.1709 158.808 27.6318 254.059c-3.59961 96.79 -28.8193 217.442 -68.4648 250.398
c-6.89453 5.73145 -12.5762 7.12109 -17.1113 7.12109c-1.3623 0 -2.625 -0.126953 -3.78809 -0.298828c-5.26074 -1.05176 -31.4219 -21.752 -53.5068 -97.6533c-22.6387 -77.7783 -31.0225 -181.303 -23.624 -291.483c3.55566 -52.9248 14.7422 -103.363 31.4883 -142.012
c19.0615 -43.9648 38.5273 -56.1152 46.0146 -59.2998c4.67969 -1.98828 14.4268 -6.13574 28.8584 11.1533c8.62793 10.334 17.3887 26.7754 25.3525 47.5371c2.45898 6.42383 4.86816 13.3184 7.14941 20.4785z" />
    <glyph glyph-name="O" unicode="&#xd6;" horiz-adv-x="322" 
d="M267.229 78.2539c-10.4775 -27.335 -22.416 -49.1396 -35.4688 -64.7783c-19.0449 -22.832 -43.0127 -34.8379 -67.7285 -34.8379c-10.5498 0 -21.2324 2.1875 -31.7324 6.65137c-30.9287 13.1465 -57.9258 44.6621 -78.0723 91.1357
c-19.4434 44.8672 -32.3633 102.455 -36.3779 162.147c-10.1729 151.521 8.82227 254.807 26.5547 314.771c24.6436 83.3447 61.0322 132.604 102.466 138.717c24.6484 3.61621 48.4277 -3.36133 68.7354 -20.2461c79.6621 -66.2266 89.5303 -271.763 90.3945 -294.982
c3.79297 -101.99 -7.31641 -202.158 -30.4697 -274.814c-2.63574 -8.26758 -5.42676 -16.2646 -8.30078 -23.7627zM217.495 120.516c21.0996 66.21 31.1709 158.808 27.6318 254.059c-3.59961 96.79 -28.8193 217.442 -68.4648 250.398
c-6.89453 5.73145 -12.5762 7.12109 -17.1113 7.12109c-1.3623 0 -2.625 -0.126953 -3.78809 -0.298828c-5.26074 -1.05176 -31.4219 -21.752 -53.5068 -97.6533c-22.6387 -77.7783 -31.0225 -181.303 -23.624 -291.483c3.55566 -52.9248 14.7422 -103.363 31.4883 -142.012
c19.0615 -43.9648 38.5273 -56.1152 46.0146 -59.2998c4.67969 -1.98828 14.4268 -6.13574 28.8584 11.1533c8.62793 10.334 17.3887 26.7754 25.3525 47.5371c2.45898 6.42383 4.86816 13.3184 7.14941 20.4785z" />
    <glyph glyph-name="O" unicode="&#xd5;" horiz-adv-x="322" 
d="M267.229 78.2539c-10.4775 -27.335 -22.416 -49.1396 -35.4688 -64.7783c-19.0449 -22.832 -43.0127 -34.8379 -67.7285 -34.8379c-10.5498 0 -21.2324 2.1875 -31.7324 6.65137c-30.9287 13.1465 -57.9258 44.6621 -78.0723 91.1357
c-19.4434 44.8672 -32.3633 102.455 -36.3779 162.147c-10.1729 151.521 8.82227 254.807 26.5547 314.771c24.6436 83.3447 61.0322 132.604 102.466 138.717c24.6484 3.61621 48.4277 -3.36133 68.7354 -20.2461c79.6621 -66.2266 89.5303 -271.763 90.3945 -294.982
c3.79297 -101.99 -7.31641 -202.158 -30.4697 -274.814c-2.63574 -8.26758 -5.42676 -16.2646 -8.30078 -23.7627zM217.495 120.516c21.0996 66.21 31.1709 158.808 27.6318 254.059c-3.59961 96.79 -28.8193 217.442 -68.4648 250.398
c-6.89453 5.73145 -12.5762 7.12109 -17.1113 7.12109c-1.3623 0 -2.625 -0.126953 -3.78809 -0.298828c-5.26074 -1.05176 -31.4219 -21.752 -53.5068 -97.6533c-22.6387 -77.7783 -31.0225 -181.303 -23.624 -291.483c3.55566 -52.9248 14.7422 -103.363 31.4883 -142.012
c19.0615 -43.9648 38.5273 -56.1152 46.0146 -59.2998c4.67969 -1.98828 14.4268 -6.13574 28.8584 11.1533c8.62793 10.334 17.3887 26.7754 25.3525 47.5371c2.45898 6.42383 4.86816 13.3184 7.14941 20.4785z" />
    <glyph glyph-name="O" unicode="&#xd4;" horiz-adv-x="322" 
d="M267.229 78.2539c-10.4775 -27.335 -22.416 -49.1396 -35.4688 -64.7783c-19.0449 -22.832 -43.0127 -34.8379 -67.7285 -34.8379c-10.5498 0 -21.2324 2.1875 -31.7324 6.65137c-30.9287 13.1465 -57.9258 44.6621 -78.0723 91.1357
c-19.4434 44.8672 -32.3633 102.455 -36.3779 162.147c-10.1729 151.521 8.82227 254.807 26.5547 314.771c24.6436 83.3447 61.0322 132.604 102.466 138.717c24.6484 3.61621 48.4277 -3.36133 68.7354 -20.2461c79.6621 -66.2266 89.5303 -271.763 90.3945 -294.982
c3.79297 -101.99 -7.31641 -202.158 -30.4697 -274.814c-2.63574 -8.26758 -5.42676 -16.2646 -8.30078 -23.7627zM217.495 120.516c21.0996 66.21 31.1709 158.808 27.6318 254.059c-3.59961 96.79 -28.8193 217.442 -68.4648 250.398
c-6.89453 5.73145 -12.5762 7.12109 -17.1113 7.12109c-1.3623 0 -2.625 -0.126953 -3.78809 -0.298828c-5.26074 -1.05176 -31.4219 -21.752 -53.5068 -97.6533c-22.6387 -77.7783 -31.0225 -181.303 -23.624 -291.483c3.55566 -52.9248 14.7422 -103.363 31.4883 -142.012
c19.0615 -43.9648 38.5273 -56.1152 46.0146 -59.2998c4.67969 -1.98828 14.4268 -6.13574 28.8584 11.1533c8.62793 10.334 17.3887 26.7754 25.3525 47.5371c2.45898 6.42383 4.86816 13.3184 7.14941 20.4785z" />
    <glyph glyph-name="O" unicode="&#xd3;" horiz-adv-x="322" 
d="M267.229 78.2539c-10.4775 -27.335 -22.416 -49.1396 -35.4688 -64.7783c-19.0449 -22.832 -43.0127 -34.8379 -67.7285 -34.8379c-10.5498 0 -21.2324 2.1875 -31.7324 6.65137c-30.9287 13.1465 -57.9258 44.6621 -78.0723 91.1357
c-19.4434 44.8672 -32.3633 102.455 -36.3779 162.147c-10.1729 151.521 8.82227 254.807 26.5547 314.771c24.6436 83.3447 61.0322 132.604 102.466 138.717c24.6484 3.61621 48.4277 -3.36133 68.7354 -20.2461c79.6621 -66.2266 89.5303 -271.763 90.3945 -294.982
c3.79297 -101.99 -7.31641 -202.158 -30.4697 -274.814c-2.63574 -8.26758 -5.42676 -16.2646 -8.30078 -23.7627zM217.495 120.516c21.0996 66.21 31.1709 158.808 27.6318 254.059c-3.59961 96.79 -28.8193 217.442 -68.4648 250.398
c-6.89453 5.73145 -12.5762 7.12109 -17.1113 7.12109c-1.3623 0 -2.625 -0.126953 -3.78809 -0.298828c-5.26074 -1.05176 -31.4219 -21.752 -53.5068 -97.6533c-22.6387 -77.7783 -31.0225 -181.303 -23.624 -291.483c3.55566 -52.9248 14.7422 -103.363 31.4883 -142.012
c19.0615 -43.9648 38.5273 -56.1152 46.0146 -59.2998c4.67969 -1.98828 14.4268 -6.13574 28.8584 11.1533c8.62793 10.334 17.3887 26.7754 25.3525 47.5371c2.45898 6.42383 4.86816 13.3184 7.14941 20.4785z" />
    <glyph glyph-name="P" unicode="P" horiz-adv-x="285" 
d="M281.658 532.699c7.22656 -74.7383 -13.7314 -151.447 -52.1641 -190.888c-43.8213 -44.9893 -102.844 -53.6836 -139.377 -58.5352c0.398438 -90.4551 1.38379 -181.503 2.96191 -275.358l0.514648 -30.458l-60.9102 -1.02441l-0.509766 30.4521
c-3.79883 225.777 -4.17578 435.312 -1.19043 659.417l0.288086 21.5527l20.418 6.90039c34.2236 11.5576 106.974 17.123 156.481 -17.1621c41.1074 -28.4697 67.207 -79.9326 73.4873 -144.896zM185.868 384.314c25.8008 26.4814 40.5879 86.4219 35.1611 142.521
c-4.45801 46.1523 -21.7861 82.8516 -47.5312 100.684c-21.1992 14.6807 -55.9326 17.2783 -81.9053 13.9502c-1.23535 -100.717 -1.78906 -198.687 -1.64551 -296.745c30.7568 4.3252 68.9238 11.8682 95.9209 39.5908z" />
    <glyph glyph-name="Q" unicode="Q" horiz-adv-x="322" 
d="M54.2354 76.4316c-19.4541 44.873 -32.3691 102.46 -36.3838 162.146c-10.1787 151.515 8.81641 254.801 26.5488 314.765c24.6377 83.3447 61.0322 132.604 102.466 138.717c24.6484 3.61621 48.4277 -3.36133 68.7354 -20.2461
c79.6621 -66.2266 89.5303 -271.763 90.3945 -294.982c3.79297 -101.984 -7.31641 -202.152 -30.4697 -274.814c-2.63574 -8.26758 -5.42676 -16.2646 -8.30078 -23.7627v-0.0107422c-10.4775 -27.335 -22.4111 -49.1318 -35.4639 -64.7705
c-7.07227 -8.47852 -14.8311 -15.4502 -23.0488 -20.8828c18.7178 -52.0332 36.3779 -106.349 52.4648 -162.06l8.45117 -29.2617l-58.5234 -16.9014l-8.45117 29.2568c-16.5801 57.416 -34.8379 113.337 -54.2256 166.622
c-5.39355 1.10742 -10.7822 2.77441 -16.1211 5.04492c-30.9346 13.1465 -57.9316 44.6621 -78.0723 91.1406zM102.259 534.144c-22.6328 -77.7842 -31.0283 -181.298 -23.6191 -291.479c3.55566 -52.9248 14.7363 -103.363 31.4883 -142.018
c19.0557 -43.9648 38.5264 -56.1152 46.0137 -59.2998c4.67969 -1.98242 14.4316 -6.11914 28.8525 11.1533c8.62793 10.334 17.3887 26.7705 25.3525 47.5371c2.45898 6.42383 4.86816 13.3184 7.14941 20.4785c21.0996 66.2158 31.1729 158.819 27.6338 254.054
c-3.59961 96.79 -28.8193 217.442 -68.4648 250.398c-6.89453 5.73145 -12.5762 7.12109 -17.1113 7.12109c-1.3623 0 -2.625 -0.126953 -3.78809 -0.298828c-5.26074 -1.05176 -31.4219 -21.752 -53.5068 -97.6475z" />
    <glyph glyph-name="R" unicode="R" horiz-adv-x="293" 
d="M199.266 -3.56738c-18.6738 97.2549 -50.9932 230.844 -76.7715 305.887c-11.8838 -2.27051 -22.9258 -3.75488 -32.4287 -4.96777c0.354492 -95.1396 1.3623 -190.75 3.01855 -289.429l0.514648 -30.458l-60.9102 -1.02441l-0.509766 30.4521
c-3.79297 225.622 -4.18066 435.24 -1.21777 659.688l0.288086 21.8193l20.7559 6.74512c34.0352 11.0645 106.409 16.375 155.701 -16.4199c41.6611 -27.7227 67.96 -77.9893 74.0625 -141.547c6.91113 -71.9473 -14.2715 -145.756 -52.6982 -183.668
c-14.8799 -14.6807 -31.5049 -25.2637 -48.3955 -33.1104c27.418 -80.3428 59.7314 -215.155 78.416 -312.482l5.74316 -29.9102l-59.8252 -11.4854zM89.9199 358.756c30.8896 4.16406 69.2832 11.4062 96.3691 38.1318c25.2744 24.9316 39.9277 81.4893 34.8389 134.476
c-4.25293 44.3027 -21.4424 79.5293 -47.1709 96.6465c-21.3154 14.1826 -56.2256 16.6914 -82.3975 13.5127c-1.16895 -95.9814 -1.7168 -189.41 -1.63965 -282.767z" />
    <glyph glyph-name="S" unicode="S" horiz-adv-x="305" 
d="M124.218 -24.4062c-37.502 11.0752 -105.399 66.5996 -93.9414 197.447l2.6582 30.3418l60.6836 -5.31641l-2.6582 -30.3418c-8.2793 -94.5254 34.7832 -129.064 50.5215 -133.716c36.6719 -10.8047 73.1162 5.53223 88.6494 39.7949
c8.02441 17.6992 11.2969 38.4111 8.9707 56.8027c-8.65039 68.4473 -55.1348 114.218 -104.354 162.68c-66.9473 65.9111 -142.832 140.628 -117.884 278.774c6.38477 35.3477 29.6992 82.9951 67.4004 109.754c28.2812 20.0693 63.585 24.2227 94.4414 11.1094
c29.3066 -12.4541 67.0078 -45.6094 80.1992 -132.857l4.55176 -30.1143l-60.2295 -9.10938l-4.55176 30.1143c-6.91113 45.7041 -22.877 77.0146 -43.7988 85.9033c-16.6582 7.07227 -31.2783 -1.83301 -35.3652 -4.72363
c-22.2734 -15.8164 -38.627 -48.335 -42.7031 -70.9072c-19.2324 -106.487 36.334 -161.195 100.673 -224.543c54.4482 -53.6113 110.757 -109.039 122.054 -198.447c3.74902 -29.6934 -1.19629 -61.5078 -13.9277 -89.5898
c-22.5947 -49.835 -69.1621 -79.0361 -120.764 -79.0361c-13.3125 0 -26.9629 1.94336 -40.625 5.98047z" />
    <glyph glyph-name="T" unicode="T" horiz-adv-x="259" 
d="M98.9541 -3.72852c-3.67188 218.534 -4.13672 421.776 -1.45605 637.802c-10.8711 0.22168 -22.3066 0.470703 -34.3232 0.731445c-20.8887 0.454102 -37.3916 0.814453 -41.7168 0.814453h-30.458v60.916h30.458c4.98926 0 20.1299 -0.327148 43.0459 -0.831055
c46.1748 -1.00781 154.301 -3.35059 168.185 -1.90527l30.2529 3.21191l6.5459 -60.501l-30.248 -3.27246c-5.03418 -0.547852 -15.4893 -0.796875 -31.0781 -0.796875c-13.042 0 -29.6836 0.171875 -49.7578 0.487305c-2.66895 -215.267 -2.2041 -417.829 1.45605 -635.626
l0.514648 -30.4521l-60.9102 -1.03027z" />
    <glyph glyph-name="U" unicode="U" horiz-adv-x="347" 
d="M324.126 683.76c6.60645 -409.074 -19.9707 -621.498 -86.1641 -688.777c-16.3809 -16.6465 -36.123 -25.4463 -57.1055 -25.4463c-25.8613 0 -49.9951 11.0586 -69.7871 31.9805c-108.337 114.522 -93.2021 547.248 -85.9805 677.148l1.68945 30.4082l60.8223 -3.37793
l-1.68945 -30.4141c-10.8926 -195.929 -8.52832 -549.508 69.4111 -631.899c10.959 -11.5908 19.8193 -12.9307 25.5293 -12.9307c1.78906 0 6.5459 0 13.6846 7.25488c17.2393 17.5166 48.2451 76.2227 62.2559 272.55c8.99316 125.991 8.15723 265.262 6.42383 372.519
l-0.493164 30.4521l60.9102 0.985352z" />
    <glyph glyph-name="U" unicode="&#xdc;" horiz-adv-x="347" 
d="M324.126 683.76c6.60645 -409.074 -19.9707 -621.498 -86.1641 -688.777c-16.3809 -16.6465 -36.123 -25.4463 -57.1055 -25.4463c-25.8613 0 -49.9951 11.0586 -69.7871 31.9805c-108.337 114.522 -93.2021 547.248 -85.9805 677.148l1.68945 30.4082l60.8223 -3.37793
l-1.68945 -30.4141c-10.8926 -195.929 -8.52832 -549.508 69.4111 -631.899c10.959 -11.5908 19.8193 -12.9307 25.5293 -12.9307c1.78906 0 6.5459 0 13.6846 7.25488c17.2393 17.5166 48.2451 76.2227 62.2559 272.55c8.99316 125.991 8.15723 265.262 6.42383 372.519
l-0.493164 30.4521l60.9102 0.985352z" />
    <glyph glyph-name="U" unicode="&#xdb;" horiz-adv-x="347" 
d="M324.126 683.76c6.60645 -409.074 -19.9707 -621.498 -86.1641 -688.777c-16.3809 -16.6465 -36.123 -25.4463 -57.1055 -25.4463c-25.8613 0 -49.9951 11.0586 -69.7871 31.9805c-108.337 114.522 -93.2021 547.248 -85.9805 677.148l1.68945 30.4082l60.8223 -3.37793
l-1.68945 -30.4141c-10.8926 -195.929 -8.52832 -549.508 69.4111 -631.899c10.959 -11.5908 19.8193 -12.9307 25.5293 -12.9307c1.78906 0 6.5459 0 13.6846 7.25488c17.2393 17.5166 48.2451 76.2227 62.2559 272.55c8.99316 125.991 8.15723 265.262 6.42383 372.519
l-0.493164 30.4521l60.9102 0.985352z" />
    <glyph glyph-name="U" unicode="&#xda;" horiz-adv-x="347" 
d="M324.126 683.76c6.60645 -409.074 -19.9707 -621.498 -86.1641 -688.777c-16.3809 -16.6465 -36.123 -25.4463 -57.1055 -25.4463c-25.8613 0 -49.9951 11.0586 -69.7871 31.9805c-108.337 114.522 -93.2021 547.248 -85.9805 677.148l1.68945 30.4082l60.8223 -3.37793
l-1.68945 -30.4141c-10.8926 -195.929 -8.52832 -549.508 69.4111 -631.899c10.959 -11.5908 19.8193 -12.9307 25.5293 -12.9307c1.78906 0 6.5459 0 13.6846 7.25488c17.2393 17.5166 48.2451 76.2227 62.2559 272.55c8.99316 125.991 8.15723 265.262 6.42383 372.519
l-0.493164 30.4521l60.9102 0.985352z" />
    <glyph glyph-name="V" unicode="V" horiz-adv-x="333" 
d="M197.999 -6.3252l-60.1807 8.37109c0.797852 19.0166 -25.1523 131.103 -48.0459 229.986c-34.5059 149.04 -77.4521 334.524 -88.5889 440.441l-3.18457 30.292l60.5781 6.36816l3.18457 -30.292c10.749 -102.189 53.2246 -285.658 87.3545 -433.069
c7.71387 -33.3213 14.5752 -63.043 20.5557 -89.3809c31.793 154.589 79.5234 392.411 102.245 534.567l4.80664 30.0762l60.1523 -9.61328l-4.80664 -30.0762c-35.835 -224.188 -133.096 -683.063 -134.07 -687.671z" />
    <glyph glyph-name="W" unicode="W" horiz-adv-x="494" 
d="M492.325 713.432l-3.02832 -30.3096c-11.8125 -118.305 -40.9688 -284.246 -66.6973 -430.655c-19.4541 -110.74 -41.5117 -236.255 -39.3184 -256.772l-60.1572 -9.34277c-22.0684 115.431 -55.9658 248.942 -78.2832 292.93
c-22.4951 -38.0947 -53.8613 -161.378 -73.0332 -291.628l-0.586914 -2.96875l-59.9746 8.87207c-0.0166016 -0.327148 -0.0332031 -0.758789 -0.0166016 -1.2793c-0.509766 13.2686 -17.3389 114.589 -33.6143 212.575c-26.7812 161.223 -60.1133 361.858 -72.1582 467.354
l-3.45605 30.2646l60.5225 6.91113l3.45605 -30.2646c11.8672 -103.956 45.0605 -303.75 71.7256 -464.28c2.61914 -15.7998 5.06152 -30.4971 7.32617 -44.1807c30.5078 127.426 59.1934 178.229 100.882 178.229h0.321289
c38.6426 2.95215 63.1084 -42.9951 99.2812 -183.816c0 -0.0166016 0.00585938 -0.0390625 0.0117188 -0.0498047c4.95605 28.9297 10.666 61.5254 17.0732 97.9922c24.2783 138.163 54.4932 310.118 66.084 426.169l3.02344 30.3086z" />
    <glyph glyph-name="X" unicode="X" horiz-adv-x="303" 
d="M294.047 2.44141l10.3721 -28.6357l-57.2773 -20.7393l-10.3721 28.6357c-0.736328 2.03809 -38.1611 105.54 -85.5596 243.311c-47.3984 -137.771 -84.8232 -241.272 -85.5596 -243.311l-10.3721 -28.6357l-57.2773 20.7393l10.3721 28.6357
c0.864258 2.38672 52.1387 144.211 110.685 316.886c-38.6377 114.45 -79.7178 240.392 -111.267 347.742l-8.58887 29.2178l58.4463 17.1836l8.58887 -29.2227c24.4277 -83.123 54.6367 -177.537 84.9727 -269.056c30.3359 91.5186 60.5449 185.938 84.9727 269.056
l8.58887 29.2227l58.4463 -17.1836l-8.58887 -29.2178c-31.5488 -107.351 -72.6289 -233.292 -111.267 -347.742c58.5459 -172.681 109.82 -314.499 110.685 -316.886z" />
    <glyph glyph-name="Y" unicode="Y" horiz-adv-x="310" 
d="M155.95 -23.4258c-2.53125 -0.193359 -5.07812 -0.295898 -7.64746 -0.295898c-54.9463 0 -115.126 45.6709 -131.596 151.006l-4.70703 30.0928l60.1855 9.40918l4.70703 -30.0928c11.1592 -71.3828 46.3799 -101.52 74.3291 -99.3818
c36.0342 2.80176 72.5059 55.8652 72.5059 151.863c0 56.3477 -0.327148 111.072 -0.90332 167.408c-20.0029 -35.3311 -47.127 -56.6846 -84.1914 -56.6846c-22.8652 0 -43.793 9.53613 -60.5225 27.5898c-73.4043 79.2188 -57.0342 324.085 -54.9238 351.741
l2.31445 30.3691l60.7393 -4.62988l-2.31445 -30.3691c-7.71387 -101.192 -0.75293 -262.941 38.8701 -305.704c6.60156 -7.12207 11.7129 -8.08008 15.8438 -8.08008c22.749 0 43.9697 39.0088 58.2129 107.024c14.3154 68.3369 18.7734 151.128 21.0439 215.826
l-0.509766 29.6221l1.54492 0.0273438l0.0556641 1.54492l29.6553 -1.03516l29.6494 0.509766l0.0273438 -1.54492l1.54492 -0.0556641l-1.03516 -29.6553c3.38379 -196.792 5.82617 -339.104 5.82617 -493.908c0 -139.952 -64.6436 -207.624 -128.705 -212.597z" />
    <glyph glyph-name="Y" unicode="&#x178;" horiz-adv-x="310" 
d="M155.95 -23.4258c-2.53125 -0.193359 -5.07812 -0.295898 -7.64746 -0.295898c-54.9463 0 -115.126 45.6709 -131.596 151.006l-4.70703 30.0928l60.1855 9.40918l4.70703 -30.0928c11.1592 -71.3828 46.3799 -101.52 74.3291 -99.3818
c36.0342 2.80176 72.5059 55.8652 72.5059 151.863c0 56.3477 -0.327148 111.072 -0.90332 167.408c-20.0029 -35.3311 -47.127 -56.6846 -84.1914 -56.6846c-22.8652 0 -43.793 9.53613 -60.5225 27.5898c-73.4043 79.2188 -57.0342 324.085 -54.9238 351.741
l2.31445 30.3691l60.7393 -4.62988l-2.31445 -30.3691c-7.71387 -101.192 -0.75293 -262.941 38.8701 -305.704c6.60156 -7.12207 11.7129 -8.08008 15.8438 -8.08008c22.749 0 43.9697 39.0088 58.2129 107.024c14.3154 68.3369 18.7734 151.128 21.0439 215.826
l-0.509766 29.6221l1.54492 0.0273438l0.0556641 1.54492l29.6553 -1.03516l29.6494 0.509766l0.0273438 -1.54492l1.54492 -0.0556641l-1.03516 -29.6553c3.38379 -196.792 5.82617 -339.104 5.82617 -493.908c0 -139.952 -64.6436 -207.624 -128.705 -212.597z" />
    <glyph glyph-name="Y" unicode="&#xdd;" horiz-adv-x="310" 
d="M155.95 -23.4258c-2.53125 -0.193359 -5.07812 -0.295898 -7.64746 -0.295898c-54.9463 0 -115.126 45.6709 -131.596 151.006l-4.70703 30.0928l60.1855 9.40918l4.70703 -30.0928c11.1592 -71.3828 46.3799 -101.52 74.3291 -99.3818
c36.0342 2.80176 72.5059 55.8652 72.5059 151.863c0 56.3477 -0.327148 111.072 -0.90332 167.408c-20.0029 -35.3311 -47.127 -56.6846 -84.1914 -56.6846c-22.8652 0 -43.793 9.53613 -60.5225 27.5898c-73.4043 79.2188 -57.0342 324.085 -54.9238 351.741
l2.31445 30.3691l60.7393 -4.62988l-2.31445 -30.3691c-7.71387 -101.192 -0.75293 -262.941 38.8701 -305.704c6.60156 -7.12207 11.7129 -8.08008 15.8438 -8.08008c22.749 0 43.9697 39.0088 58.2129 107.024c14.3154 68.3369 18.7734 151.128 21.0439 215.826
l-0.509766 29.6221l1.54492 0.0273438l0.0556641 1.54492l29.6553 -1.03516l29.6494 0.509766l0.0273438 -1.54492l1.54492 -0.0556641l-1.03516 -29.6553c3.38379 -196.792 5.82617 -339.104 5.82617 -493.908c0 -139.952 -64.6436 -207.624 -128.705 -212.597z" />
    <glyph glyph-name="Z" unicode="Z" horiz-adv-x="278" 
d="M204.433 -25.0879c-31.084 0 -81.249 0.490234 -131.638 1.02148c-20.4736 0.209961 -38.1172 0.359375 -41.2236 0.370117l-42.5752 -0.354492l14.2656 42.9736c1.24609 3.74902 120.73 363.06 202.375 634.264
c-27.4121 -0.376953 -62.6992 -0.936523 -93.4951 -1.42969c-40.4814 -0.642578 -72.4512 -1.15234 -79.9883 -1.15234h-30.458v60.916h30.458c7.0498 0 42.0049 0.55957 79.0195 1.14648c54.5645 0.869141 116.405 1.85449 135.483 1.85449h40.8027l-11.6016 -39.1133
c-66.9688 -225.838 -167.719 -533.204 -202.496 -638.562c0.0224609 0 0.0498047 0 0.0722656 -0.00585938c49.6357 -0.514648 142.018 -1.4668 156.422 -0.757812l30.4189 1.52832l3.0625 -60.8389l-30.4189 -1.52832
c-4.61816 -0.232422 -14.6689 -0.332031 -28.4854 -0.332031z" />
    <glyph glyph-name="bracketleft" unicode="[" horiz-adv-x="243" 
d="M162.069 -199.458l30.8955 -52.4883l-26.2109 -15.5166c-10.2119 -6.04688 -36.5166 -13.7227 -61.1934 -13.7227c-19.1611 0 -37.3477 4.62402 -46.2695 18.2305c-6.5791 10.0234 -7.11621 10.8428 -8.3457 193.148
c-0.669922 99.4043 -1.00195 234.372 -0.935547 380.033c0.0664062 140.811 0.509766 279.057 1.21875 379.28c0.381836 53.8828 0.830078 96.2197 1.33398 125.853c0.99707 58.6289 1.01953 59.7529 10.1406 69.3555c10.2451 10.7549 23.6582 14.5098 39.873 11.209
c2.1875 -0.448242 7.54297 -0.226562 11.8291 -0.0546875c11.1592 0.464844 25.0205 1.02441 38.9756 -4.72363l28.1602 -11.6016l-23.1924 -56.3252l-28.165 11.5967c-2.02734 0.65332 -8.81152 0.365234 -13.2969 0.182617
c-1.03027 -0.0332031 -2.07715 -0.0771484 -3.14062 -0.116211c-3.82617 -150.602 -3.88184 -912.689 -0.0498047 -1054.56c8.86035 0.880859 18.3799 2.71387 22.1621 4.70703z" />
    <glyph glyph-name="backslash" unicode="\" horiz-adv-x="356" 
d="M306.457 -128.51l-59.7217 -12l-196.734 979.08l59.7217 12z" />
    <glyph glyph-name="bracketright" unicode="]" horiz-adv-x="243" 
d="M192.956 310.222c0.0664062 -145.661 -0.267578 -280.632 -0.931641 -380.041c-1.22949 -182.306 -1.7666 -183.125 -8.35645 -193.159c-8.91602 -13.5957 -27.0967 -18.2197 -46.252 -18.2197c-24.6816 0 -50.9863 7.67578 -61.2041 13.7227l-26.2109 15.5166
l31.0283 52.4209l26.1221 -15.4619c3.80469 -1.98828 13.2969 -3.81543 22.124 -4.68457c3.83203 141.874 3.77148 903.968 -0.0498047 1054.56c-1.06348 0.0332031 -2.11035 0.0771484 -3.14062 0.116211c-4.48535 0.193359 -11.2695 0.470703 -13.418 -0.232422
l-28.165 -11.5967l-23.0703 56.375l28.1602 11.6016c13.9443 5.74805 27.8164 5.2002 38.9756 4.72363c4.29688 -0.171875 9.64062 -0.387695 11.8506 0.0556641c16.209 3.30078 29.6055 -0.458984 39.8232 -11.1855c9.14844 -9.62988 9.16504 -10.748 10.1621 -69.3828
c0.503906 -29.6328 0.952148 -71.9746 1.33398 -125.853c0.714844 -100.218 1.1582 -238.464 1.21875 -379.279z" />
    <glyph glyph-name="asciicircum" unicode="^" horiz-adv-x="310" 
d="M252.831 528.949l7.49707 -29.5117l-59.0391 -15.0078l-7.50391 29.5225c-7.69727 30.2979 -23.3359 93.125 -37.4736 150.093c-14.2266 -54.3701 -30.1475 -115.718 -39.8389 -154.688l-7.35449 -29.5557l-59.1162 14.7031l7.35449 29.5605
c20.7949 83.5879 69.9209 268.978 70.4141 270.844l30.4746 114.971l28.5361 -115.47c0.503906 -2.02637 50.2002 -203.088 66.0498 -265.461z" />
    <glyph glyph-name="underscore" unicode="_" horiz-adv-x="385" 
d="M304.713 -104.91l30.457 -0.40918l-0.819336 -60.9102l-30.458 0.415039c-36.2891 0.448242 -73.6475 -1.37891 -109.787 -3.18457c-32.9111 -1.64453 -66.8252 -3.33887 -100.739 -3.33887c-4.30273 0 -8.60547 0.0273438 -12.9082 0.0878906l-30.458 0.410156
l0.819336 60.9102l30.458 -0.415039c36.2842 -0.459961 73.6475 1.38379 109.787 3.18359c37.0928 1.85547 75.4482 3.78223 113.648 3.25098z" />
    <glyph glyph-name="grave" unicode="`" horiz-adv-x="173" 
d="M119.05 635.536l3.83203 -30.21l-60.4287 -7.66992l-3.83203 30.2148c-6.28516 49.5137 -9.15332 100.639 -8.53906 151.958l0.365234 30.458l60.916 -0.736328l-0.365234 -30.458c-0.592773 -48.5166 2.12598 -96.8174 8.05176 -143.557z" />
    <glyph glyph-name="a" unicode="a" horiz-adv-x="353" 
d="M130.397 280.024c-16.2148 -0.0439453 -31.8721 -0.0898438 -46.2314 -0.123047c-4.34766 -92.0391 -4.29199 -183.424 -4.24219 -251.966l0.00585938 -50.0615h-60.916l-0.00585938 50.0176c-0.0722656 106.647 -0.182617 267.81 16.1094 404.046
c13.834 115.641 43.7383 269.376 143.275 269.376c132.57 0 147.827 -264.625 153.232 -584.312c0.65332 -38.8311 1.27344 -75.5137 2.40918 -105.595l1.14648 -30.4355l-60.8721 -2.29297l-1.14648 30.4355c-1.15723 30.7129 -1.77734 67.7061 -2.44141 106.864
c-0.858398 50.8096 -1.83301 107.317 -4.14258 164.113c-37.4414 0.21582 -89.3584 0.0722656 -136.181 -0.0664062zM178.392 640.396c-13.3682 0 -58.8516 -15.5498 -82.7969 -215.692c-3.23926 -27.0859 -5.80371 -55.2793 -7.84766 -83.8818
c13.3184 0.0273438 27.6445 0.0664062 42.4639 0.110352c45.5488 0.132812 95.8604 0.282227 133.312 0.0830078c-2.81836 46.125 -6.84473 91.1367 -12.7754 132.05c-21.8965 151.027 -57.8975 167.331 -72.3564 167.331z" />
    <glyph glyph-name="a" unicode="&#xe5;" horiz-adv-x="353" 
d="M130.397 280.024c-16.2148 -0.0439453 -31.8721 -0.0898438 -46.2314 -0.123047c-4.34766 -92.0391 -4.29199 -183.424 -4.24219 -251.966l0.00585938 -50.0615h-60.916l-0.00585938 50.0176c-0.0722656 106.647 -0.182617 267.81 16.1094 404.046
c13.834 115.641 43.7383 269.376 143.275 269.376c132.57 0 147.827 -264.625 153.232 -584.312c0.65332 -38.8311 1.27344 -75.5137 2.40918 -105.595l1.14648 -30.4355l-60.8721 -2.29297l-1.14648 30.4355c-1.15723 30.7129 -1.77734 67.7061 -2.44141 106.864
c-0.858398 50.8096 -1.83301 107.317 -4.14258 164.113c-37.4414 0.21582 -89.3584 0.0722656 -136.181 -0.0664062zM178.392 640.396c-13.3682 0 -58.8516 -15.5498 -82.7969 -215.692c-3.23926 -27.0859 -5.80371 -55.2793 -7.84766 -83.8818
c13.3184 0.0273438 27.6445 0.0664062 42.4639 0.110352c45.5488 0.132812 95.8604 0.282227 133.312 0.0830078c-2.81836 46.125 -6.84473 91.1367 -12.7754 132.05c-21.8965 151.027 -57.8975 167.331 -72.3564 167.331z" />
    <glyph glyph-name="a" unicode="&#xe4;" horiz-adv-x="353" 
d="M130.397 280.024c-16.2148 -0.0439453 -31.8721 -0.0898438 -46.2314 -0.123047c-4.34766 -92.0391 -4.29199 -183.424 -4.24219 -251.966l0.00585938 -50.0615h-60.916l-0.00585938 50.0176c-0.0722656 106.647 -0.182617 267.81 16.1094 404.046
c13.834 115.641 43.7383 269.376 143.275 269.376c132.57 0 147.827 -264.625 153.232 -584.312c0.65332 -38.8311 1.27344 -75.5137 2.40918 -105.595l1.14648 -30.4355l-60.8721 -2.29297l-1.14648 30.4355c-1.15723 30.7129 -1.77734 67.7061 -2.44141 106.864
c-0.858398 50.8096 -1.83301 107.317 -4.14258 164.113c-37.4414 0.21582 -89.3584 0.0722656 -136.181 -0.0664062zM178.392 640.396c-13.3682 0 -58.8516 -15.5498 -82.7969 -215.692c-3.23926 -27.0859 -5.80371 -55.2793 -7.84766 -83.8818
c13.3184 0.0273438 27.6445 0.0664062 42.4639 0.110352c45.5488 0.132812 95.8604 0.282227 133.312 0.0830078c-2.81836 46.125 -6.84473 91.1367 -12.7754 132.05c-21.8965 151.027 -57.8975 167.331 -72.3564 167.331z" />
    <glyph glyph-name="a" unicode="&#xe3;" horiz-adv-x="353" 
d="M130.397 280.024c-16.2148 -0.0439453 -31.8721 -0.0898438 -46.2314 -0.123047c-4.34766 -92.0391 -4.29199 -183.424 -4.24219 -251.966l0.00585938 -50.0615h-60.916l-0.00585938 50.0176c-0.0722656 106.647 -0.182617 267.81 16.1094 404.046
c13.834 115.641 43.7383 269.376 143.275 269.376c132.57 0 147.827 -264.625 153.232 -584.312c0.65332 -38.8311 1.27344 -75.5137 2.40918 -105.595l1.14648 -30.4355l-60.8721 -2.29297l-1.14648 30.4355c-1.15723 30.7129 -1.77734 67.7061 -2.44141 106.864
c-0.858398 50.8096 -1.83301 107.317 -4.14258 164.113c-37.4414 0.21582 -89.3584 0.0722656 -136.181 -0.0664062zM178.392 640.396c-13.3682 0 -58.8516 -15.5498 -82.7969 -215.692c-3.23926 -27.0859 -5.80371 -55.2793 -7.84766 -83.8818
c13.3184 0.0273438 27.6445 0.0664062 42.4639 0.110352c45.5488 0.132812 95.8604 0.282227 133.312 0.0830078c-2.81836 46.125 -6.84473 91.1367 -12.7754 132.05c-21.8965 151.027 -57.8975 167.331 -72.3564 167.331z" />
    <glyph glyph-name="a" unicode="&#xe2;" horiz-adv-x="353" 
d="M130.397 280.024c-16.2148 -0.0439453 -31.8721 -0.0898438 -46.2314 -0.123047c-4.34766 -92.0391 -4.29199 -183.424 -4.24219 -251.966l0.00585938 -50.0615h-60.916l-0.00585938 50.0176c-0.0722656 106.647 -0.182617 267.81 16.1094 404.046
c13.834 115.641 43.7383 269.376 143.275 269.376c132.57 0 147.827 -264.625 153.232 -584.312c0.65332 -38.8311 1.27344 -75.5137 2.40918 -105.595l1.14648 -30.4355l-60.8721 -2.29297l-1.14648 30.4355c-1.15723 30.7129 -1.77734 67.7061 -2.44141 106.864
c-0.858398 50.8096 -1.83301 107.317 -4.14258 164.113c-37.4414 0.21582 -89.3584 0.0722656 -136.181 -0.0664062zM178.392 640.396c-13.3682 0 -58.8516 -15.5498 -82.7969 -215.692c-3.23926 -27.0859 -5.80371 -55.2793 -7.84766 -83.8818
c13.3184 0.0273438 27.6445 0.0664062 42.4639 0.110352c45.5488 0.132812 95.8604 0.282227 133.312 0.0830078c-2.81836 46.125 -6.84473 91.1367 -12.7754 132.05c-21.8965 151.027 -57.8975 167.331 -72.3564 167.331z" />
    <glyph glyph-name="a" unicode="&#xe1;" horiz-adv-x="353" 
d="M130.397 280.024c-16.2148 -0.0439453 -31.8721 -0.0898438 -46.2314 -0.123047c-4.34766 -92.0391 -4.29199 -183.424 -4.24219 -251.966l0.00585938 -50.0615h-60.916l-0.00585938 50.0176c-0.0722656 106.647 -0.182617 267.81 16.1094 404.046
c13.834 115.641 43.7383 269.376 143.275 269.376c132.57 0 147.827 -264.625 153.232 -584.312c0.65332 -38.8311 1.27344 -75.5137 2.40918 -105.595l1.14648 -30.4355l-60.8721 -2.29297l-1.14648 30.4355c-1.15723 30.7129 -1.77734 67.7061 -2.44141 106.864
c-0.858398 50.8096 -1.83301 107.317 -4.14258 164.113c-37.4414 0.21582 -89.3584 0.0722656 -136.181 -0.0664062zM178.392 640.396c-13.3682 0 -58.8516 -15.5498 -82.7969 -215.692c-3.23926 -27.0859 -5.80371 -55.2793 -7.84766 -83.8818
c13.3184 0.0273438 27.6445 0.0664062 42.4639 0.110352c45.5488 0.132812 95.8604 0.282227 133.312 0.0830078c-2.81836 46.125 -6.84473 91.1367 -12.7754 132.05c-21.8965 151.027 -57.8975 167.331 -72.3564 167.331z" />
    <glyph glyph-name="b" unicode="b" horiz-adv-x="311" 
d="M32.54 -15.1973l-0.367188 22.0928c-3.78223 224.93 -4.17578 433.528 -1.22949 656.465l0.249023 18.9668l17.1289 8.14648c39.1689 18.6123 111.587 17.7646 164.988 -15.8828c48.1016 -30.2979 76.915 -78.1338 81.1348 -134.691
c3.61035 -48.3232 -11.5908 -99.7197 -42.8076 -144.715c-14.1045 -20.335 -31.4541 -35.9629 -49.9668 -48.1074c10.417 -5.40527 20.54 -12.2393 30.0156 -20.8281c42.4248 -38.4434 61.8242 -102.433 57.6543 -190.202
c-3.51074 -73.8525 -38.543 -113.437 -67.3115 -133.633c-32.9834 -23.165 -73.2598 -32.3965 -110.125 -32.3965c-21.2266 0 -41.3125 3.05664 -58.2529 8.27832zM228.489 138.934c3.26172 68.708 -9.42578 116.544 -37.7129 142.173
c-29.3398 26.5928 -71.8984 25.751 -100.745 22.4619c0.310547 -89.292 1.18555 -179.027 2.64746 -271.354c27.6396 -3.32227 65.4629 -0.21582 94.3428 20.0586c25.6406 17.998 39.5908 47.1543 41.4678 86.6611zM91.5664 640.307
c-1.12988 -92.4434 -1.68457 -182.593 -1.65723 -272.627c35.542 8.24023 85.0166 23.7959 111.67 62.2178c23.2812 33.5645 34.6895 71.0117 32.1143 105.457v0.00585938c-2.78516 37.3301 -21.0654 67.6553 -52.8584 87.6855
c-27.6611 17.4219 -64.6367 21.1816 -89.2686 17.2607z" />
    <glyph glyph-name="c" unicode="c" horiz-adv-x="294" 
d="M165.469 -23.1328c-68.8682 0 -115.353 66.9541 -138.229 199.147c-15.7109 90.7705 -14.9189 201.051 2.18164 302.564c5.99219 35.5635 40.7754 212.968 137.283 213.012h0.0322266c54.3154 0 93.623 -51.8896 105.152 -138.812l4.00391 -30.1924l-60.3848 -8.01367
l-4.00391 30.1924c-6.60156 49.7852 -25.4297 85.9141 -44.7676 85.9141h-0.00585938c-26.5928 -0.0107422 -62.6826 -75.8125 -77.2412 -162.219c-15.999 -94.9961 -16.8135 -197.795 -2.22656 -282.053c16.6084 -95.9434 46.0312 -150.297 80.3105 -148.574
c29.7939 1.3125 52.3936 39.374 58.9727 99.3262l3.32227 30.2754l60.5566 -6.64551l-3.32227 -30.2812c-15.1904 -138.357 -93.2793 -152.495 -116.849 -153.536c-1.60645 -0.0722656 -3.20703 -0.105469 -4.78516 -0.105469z" />
    <glyph glyph-name="d" unicode="d" horiz-adv-x="323" 
d="M32.584 -17.8164l-0.40918 24.7002c-3.78223 224.842 -4.17578 433.436 -1.22949 656.466l0.249023 18.9668l17.1289 8.14648c41.667 19.7979 113.564 16.752 161.776 -22.6445c126.174 -103.114 126.899 -460.183 29.4668 -599.016
c-13.4238 -19.1279 -26.3047 -34.5732 -39.3848 -47.2275c-32.8008 -31.7598 -68.9072 -47.4375 -109.633 -47.4375c-10.8984 0 -22.1182 1.11816 -33.7031 3.35547zM91.5732 640.373c-2.51953 -205.144 -2.17773 -398.808 1.05664 -605.308
c24.0566 0.526367 44.4355 10.2012 65.1748 30.2754l0.00585938 0.00585938c10.2783 9.94629 20.7061 22.5225 31.8926 38.4551c85.792 122.242 74.5947 441.05 -18.1523 516.852c-23.5693 19.2607 -56.7744 23.375 -79.9775 19.7197z" />
    <glyph glyph-name="e" unicode="e" horiz-adv-x="234" 
d="M61.3262 696.52c5.69336 0 15.3623 0.0849609 27.1416 0.173828c34.0352 0.282227 85.4707 0.719727 111.394 -0.205078l30.4414 -1.08008l-2.1709 -60.877l-30.4414 1.08496c-23.9844 0.847656 -72.7002 0.46582 -106.171 0.183594
c-1.20703 -99.8633 -1.7334 -197.091 -1.58398 -294.418c26.5537 -0.271484 65.7285 -0.603516 83.3389 0.22168l30.4248 1.42871l2.85742 -60.8496l-30.4248 -1.42871c-9.44238 -0.443359 -23.5967 -0.586914 -38.9141 -0.586914
c-15.7441 0 -32.7119 0.160156 -47.0879 0.303711c0.360352 -80.6533 1.18555 -161.827 2.48145 -245.05c0.282227 0 0.542969 -0.00585938 0.825195 -0.00585938c33.5811 -0.288086 84.335 -0.708984 103.025 0.149414l30.4248 1.41211l2.83008 -60.8496l-30.4248 -1.41211
c-9.38672 -0.4375 -25.0195 -0.576172 -42.6963 -0.576172c-20.6621 0 -44.1152 0.193359 -63.6807 0.359375c-11.8955 0.0996094 -21.6699 0.182617 -27.1963 0.182617h-30.458v0.0166016l-2.58105 -0.0439453l-0.509766 30.4521
c-3.74902 223.468 -4.15918 430.893 -1.30176 652.195v39.2188h30.458z" />
    <glyph glyph-name="e" unicode="&#xeb;" horiz-adv-x="234" 
d="M61.3262 696.52c5.69336 0 15.3623 0.0849609 27.1416 0.173828c34.0352 0.282227 85.4707 0.719727 111.394 -0.205078l30.4414 -1.08008l-2.1709 -60.877l-30.4414 1.08496c-23.9844 0.847656 -72.7002 0.46582 -106.171 0.183594
c-1.20703 -99.8633 -1.7334 -197.091 -1.58398 -294.418c26.5537 -0.271484 65.7285 -0.603516 83.3389 0.22168l30.4248 1.42871l2.85742 -60.8496l-30.4248 -1.42871c-9.44238 -0.443359 -23.5967 -0.586914 -38.9141 -0.586914
c-15.7441 0 -32.7119 0.160156 -47.0879 0.303711c0.360352 -80.6533 1.18555 -161.827 2.48145 -245.05c0.282227 0 0.542969 -0.00585938 0.825195 -0.00585938c33.5811 -0.288086 84.335 -0.708984 103.025 0.149414l30.4248 1.41211l2.83008 -60.8496l-30.4248 -1.41211
c-9.38672 -0.4375 -25.0195 -0.576172 -42.6963 -0.576172c-20.6621 0 -44.1152 0.193359 -63.6807 0.359375c-11.8955 0.0996094 -21.6699 0.182617 -27.1963 0.182617h-30.458v0.0166016l-2.58105 -0.0439453l-0.509766 30.4521
c-3.74902 223.468 -4.15918 430.893 -1.30176 652.195v39.2188h30.458z" />
    <glyph glyph-name="e" unicode="&#xea;" horiz-adv-x="234" 
d="M61.3262 696.52c5.69336 0 15.3623 0.0849609 27.1416 0.173828c34.0352 0.282227 85.4707 0.719727 111.394 -0.205078l30.4414 -1.08008l-2.1709 -60.877l-30.4414 1.08496c-23.9844 0.847656 -72.7002 0.46582 -106.171 0.183594
c-1.20703 -99.8633 -1.7334 -197.091 -1.58398 -294.418c26.5537 -0.271484 65.7285 -0.603516 83.3389 0.22168l30.4248 1.42871l2.85742 -60.8496l-30.4248 -1.42871c-9.44238 -0.443359 -23.5967 -0.586914 -38.9141 -0.586914
c-15.7441 0 -32.7119 0.160156 -47.0879 0.303711c0.360352 -80.6533 1.18555 -161.827 2.48145 -245.05c0.282227 0 0.542969 -0.00585938 0.825195 -0.00585938c33.5811 -0.288086 84.335 -0.708984 103.025 0.149414l30.4248 1.41211l2.83008 -60.8496l-30.4248 -1.41211
c-9.38672 -0.4375 -25.0195 -0.576172 -42.6963 -0.576172c-20.6621 0 -44.1152 0.193359 -63.6807 0.359375c-11.8955 0.0996094 -21.6699 0.182617 -27.1963 0.182617h-30.458v0.0166016l-2.58105 -0.0439453l-0.509766 30.4521
c-3.74902 223.468 -4.15918 430.893 -1.30176 652.195v39.2188h30.458z" />
    <glyph glyph-name="e" unicode="&#xe9;" horiz-adv-x="234" 
d="M61.3262 696.52c5.69336 0 15.3623 0.0849609 27.1416 0.173828c34.0352 0.282227 85.4707 0.719727 111.394 -0.205078l30.4414 -1.08008l-2.1709 -60.877l-30.4414 1.08496c-23.9844 0.847656 -72.7002 0.46582 -106.171 0.183594
c-1.20703 -99.8633 -1.7334 -197.091 -1.58398 -294.418c26.5537 -0.271484 65.7285 -0.603516 83.3389 0.22168l30.4248 1.42871l2.85742 -60.8496l-30.4248 -1.42871c-9.44238 -0.443359 -23.5967 -0.586914 -38.9141 -0.586914
c-15.7441 0 -32.7119 0.160156 -47.0879 0.303711c0.360352 -80.6533 1.18555 -161.827 2.48145 -245.05c0.282227 0 0.542969 -0.00585938 0.825195 -0.00585938c33.5811 -0.288086 84.335 -0.708984 103.025 0.149414l30.4248 1.41211l2.83008 -60.8496l-30.4248 -1.41211
c-9.38672 -0.4375 -25.0195 -0.576172 -42.6963 -0.576172c-20.6621 0 -44.1152 0.193359 -63.6807 0.359375c-11.8955 0.0996094 -21.6699 0.182617 -27.1963 0.182617h-30.458v0.0166016l-2.58105 -0.0439453l-0.509766 30.4521
c-3.74902 223.468 -4.15918 430.893 -1.30176 652.195v39.2188h30.458z" />
    <glyph glyph-name="f" unicode="f" horiz-adv-x="229" 
d="M91.5225 635.803c-1.19629 -99.8916 -1.72754 -197.17 -1.58887 -294.514c26.543 -0.277344 65.7227 -0.609375 83.3223 0.22168l30.4248 1.44531l2.89062 -60.8438l-30.4248 -1.45117c-9.44727 -0.448242 -23.6074 -0.591797 -38.9365 -0.591797
c-15.75 0 -32.7236 0.160156 -47.0996 0.303711c0.393555 -91.9229 1.37402 -184.443 2.96289 -279.865l0.509766 -30.458l-60.9102 -1.01367l-0.503906 30.4521c-3.74316 225.224 -4.1582 434.349 -1.30078 657.507v39.5176h30.458
c5.6875 0 15.3564 0.0771484 27.1406 0.182617c34.0352 0.288086 85.4756 0.731445 111.403 -0.204102l30.4355 -1.09082l-2.1875 -60.877l-30.4414 1.09668c-23.9785 0.869141 -72.6895 0.481445 -106.154 0.182617z" />
    <glyph glyph-name="g" unicode="g" horiz-adv-x="298" 
d="M165.473 -23.1328c-68.8633 -0.0107422 -115.353 66.9521 -138.24 199.146c-15.7051 90.7812 -14.9072 201.062 2.18848 302.57c5.99707 35.5635 40.7744 212.968 137.282 213.012h0.0322266c54.3203 0 93.6221 -51.8896 105.151 -138.817l4.00391 -30.1924
l-60.3848 -8.00781l-4.00391 30.1982c-6.60156 49.7852 -25.4297 85.9082 -44.7676 85.9082h-0.00585938c-26.5869 -0.0107422 -62.6768 -75.8125 -77.2354 -162.219c-15.999 -94.9902 -16.8135 -197.795 -2.23242 -282.059
c16.6025 -95.9375 45.9258 -150.291 80.3105 -148.568c33.8975 1.48926 50.3555 46.8887 58.2744 94.5801c-14.5645 -0.193359 -28.5029 -0.641602 -49.624 -1.73242l-30.4189 -1.56152l-3.13477 60.833l30.4189 1.56738c37.624 1.93848 53.2129 1.93848 87.3701 1.93848
h33.4766l-3.15625 -33.332c-11.2197 -118.504 -51.7734 -180.129 -120.525 -183.158c-1.60059 -0.0722656 -3.20117 -0.105469 -4.7793 -0.105469z" />
    <glyph glyph-name="h" unicode="h" horiz-adv-x="320" 
d="M201.394 280.069c-25.1143 0 -53.8555 0.244141 -79.1191 0.46582c-11.6797 0.0996094 -22.6553 0.193359 -32.1641 0.253906c0.387695 -93.1074 1.37305 -186.813 2.97363 -283.493l0.503906 -30.4521l-60.9102 -1.00781l-0.503906 30.4521
c-3.78223 228.475 -4.17578 440.391 -1.22949 666.91l0.393555 30.458l60.9102 -0.797852l-0.393555 -30.4521c-1.41797 -109.134 -2.04883 -214.867 -1.91016 -320.7c9.56934 -0.0605469 20.6113 -0.149414 32.8447 -0.254883
c35.0762 -0.298828 76.8643 -0.65332 105.495 -0.332031c-0.143555 106.287 0.493164 212.475 1.91602 322.079l0.393555 30.458l60.9102 -0.797852l-0.393555 -30.4521c-2.93457 -225.938 -2.54688 -437.277 1.22461 -665.114l0.503906 -30.4521l-60.9102 -1.00781
l-0.503906 30.4521c-1.60059 96.8174 -2.5918 190.661 -2.97949 283.913c-8.20703 -0.0888672 -17.3555 -0.12793 -27.0518 -0.12793z" />
    <glyph glyph-name="i" unicode="i" horiz-adv-x="121" 
d="M92.249 692.854l-0.388672 -30.4473c-2.93457 -225.883 -2.54688 -437.223 1.22461 -665.115l0.503906 -30.4521l-60.9102 -1.00781l-0.503906 30.4521c-3.78223 228.508 -4.17578 440.424 -1.22949 666.91l0.393555 30.458z" />
    <glyph glyph-name="i" unicode="&#xef;" horiz-adv-x="121" 
d="M92.249 692.854l-0.388672 -30.4473c-2.93457 -225.883 -2.54688 -437.223 1.22461 -665.115l0.503906 -30.4521l-60.9102 -1.00781l-0.503906 30.4521c-3.78223 228.508 -4.17578 440.424 -1.22949 666.91l0.393555 30.458z" />
    <glyph glyph-name="i" unicode="&#xee;" horiz-adv-x="121" 
d="M92.249 692.854l-0.388672 -30.4473c-2.93457 -225.883 -2.54688 -437.223 1.22461 -665.115l0.503906 -30.4521l-60.9102 -1.00781l-0.503906 30.4521c-3.78223 228.508 -4.17578 440.424 -1.22949 666.91l0.393555 30.458z" />
    <glyph glyph-name="i" unicode="&#xed;" horiz-adv-x="121" 
d="M92.249 692.854l-0.388672 -30.4473c-2.93457 -225.883 -2.54688 -437.223 1.22461 -665.115l0.503906 -30.4521l-60.9102 -1.00781l-0.503906 30.4521c-3.78223 228.508 -4.17578 440.424 -1.22949 666.91l0.393555 30.458z" />
    <glyph glyph-name="j" unicode="j" horiz-adv-x="226" 
d="M93.0176 28.5684c34.2354 1.25684 42.7158 82.7705 43.7236 150.936c2.02637 139.271 0.381836 251.107 -2.09863 420.394l-0.464844 31.8926c-29.7109 -0.758789 -69.2236 -2.17676 -81.335 -3.52832l-30.2695 -3.38379l-6.77246 60.5391l30.2695 3.38379
c21.708 2.43066 99.2373 4.39648 118.027 4.44629l30.1035 0.0830078l1.33984 -92.5371c2.49219 -169.823 4.13672 -282.009 2.09863 -422.171c-0.902344 -62.0732 -3.02344 -207.441 -103.064 -210.875c-0.65332 -0.0224609 -1.33496 -0.0332031 -2.0332 -0.0332031
c-26.4434 0 -83.2666 17.5107 -88.4727 165.936l-1.06836 30.4355l60.877 2.1377l1.06836 -30.4414c2.84082 -81.1289 23.1865 -105.523 28.0713 -107.213z" />
    <glyph glyph-name="k" unicode="k" horiz-adv-x="284" 
d="M228.682 -20.6797c-31.7646 48.6387 -58.584 89.6396 -81.1338 124.124c-22.9375 35.0713 -41.2012 62.999 -55.8545 85.499c0.526367 -63.0264 1.31836 -126.656 2.39258 -191.653l0.503906 -30.4521l-60.9102 -1.00781l-0.503906 30.4521
c-3.78223 228.475 -4.17578 440.391 -1.22949 666.91l0.393555 30.458l60.9102 -0.797852l-0.393555 -30.4521c-1.06348 -81.7109 -1.68359 -161.511 -1.87207 -240.879c1.76074 3.70996 3.57129 7.51953 5.44824 11.457c33.1719 69.6992 76.7656 160.542 116.616 243.012
l13.252 27.4229l54.8467 -26.498l-13.252 -27.4229c-77.6738 -160.741 -150.641 -313.868 -170.339 -357.252c12.6982 -20.5068 45.665 -70.9121 100.96 -155.452c22.5557 -34.4951 49.3867 -75.5078 81.1572 -124.152l16.6582 -25.4961l-50.998 -33.3154z" />
    <glyph glyph-name="l" unicode="l" horiz-adv-x="197" 
d="M62.6201 -32.708l-30.4521 0.00683594v35.1602c-3.77637 226.381 -4.16406 436.348 -1.22363 660.746l0.398438 30.4521l60.9102 -0.797852l-0.398438 -30.458c-2.83008 -215.677 -2.56445 -418.04 0.830078 -634.53
c0.476562 -0.00585938 0.936523 -0.0117188 1.41797 -0.0175781c26.7031 -0.360352 63.2695 -0.870117 77.1367 -0.432617l30.4414 0.985352l1.96582 -60.8828l-30.4414 -0.985352c-4.53516 -0.143555 -10.8818 -0.204102 -18.3135 -0.204102
c-17.6211 0 -41.373 0.327148 -61.6416 0.609375c-13.4795 0.188477 -24.8926 0.348633 -30.6299 0.348633z" />
    <glyph glyph-name="m" unicode="m" horiz-adv-x="413" 
d="M324.389 39.6885c-3.25098 191.792 -6.33105 373.722 -4.44824 576.179c-41.5283 -48.4785 -64.0176 -180.218 -74.7832 -243.277c-3.61035 -21.1328 -6.72852 -39.3906 -9.74707 -52.5869c-2.64746 -11.5684 -10.7324 -46.6943 -42.1484 -42.3965l-22.2676 3.0791
l-3.62695 22.1846c-0.126953 0.802734 -13.4014 81.4062 -35.1094 163.831c-15.6719 59.4932 -29.8154 97.6152 -41.2402 121.987c-1.98242 -197.479 -1.2959 -386.208 2.08789 -588.001l0.509766 -30.458l-60.9053 -1.02441l-0.509766 30.4521
c-3.80957 226.962 -4.20801 437.399 -1.25586 662.263l0.365234 27.9883l27.9219 1.99316c50.6709 3.52734 90.3496 -57.1895 128.571 -197.164c3.67188 -13.4512 7.12207 -26.8809 10.3398 -40c21.9521 109.688 60.8223 237.323 151.781 240.408l31.9092 1.08008
l-0.420898 -31.9258c-2.92383 -221.568 0.381836 -416.844 3.88184 -623.582l1.19043 -70.4961l-60.9102 -1.02441z" />
    <glyph glyph-name="n" unicode="n" horiz-adv-x="338" 
d="M32.0674 -34.0869l-0.415039 30.4395c-3.16797 228.712 -3.48926 440.922 -1.01367 667.846l0.327148 29.8105l29.8047 0.321289h0.547852c58.4072 0 79.418 -100.035 121.212 -325.491c15.5557 -83.9316 31.6436 -170.726 49.8682 -238.984
c5.01172 -18.7783 9.75195 -34.4453 14.1602 -47.5146c-2.1377 196.404 -2.11035 383.256 0.0380859 580.785l0.332031 30.458l60.916 -0.664062l-0.332031 -30.4521c-2.49219 -228.879 -2.12109 -443.42 1.16309 -675.167l0.4375 -30.8896h-30.8955
c-77.4248 0 -108.071 145.02 -155.586 401.332c-9.54688 51.4795 -20.75 111.936 -32.2793 163.531c-1.01367 -174.63 -0.288086 -344.226 2.2041 -524.066l0.420898 -30.4521z" />
    <glyph glyph-name="o" unicode="o" horiz-adv-x="324" 
d="M268.229 78.2539c-10.4775 -27.335 -22.416 -49.1396 -35.4688 -64.7783c-19.0449 -22.832 -43.0127 -34.8379 -67.7285 -34.8379c-10.5498 0 -21.2324 2.1875 -31.7324 6.65137c-30.9287 13.1465 -57.9258 44.6621 -78.0723 91.1357
c-19.4434 44.8672 -32.3633 102.455 -36.3779 162.147c-10.1729 151.521 8.82227 254.807 26.5547 314.771c24.6436 83.3447 61.0322 132.604 102.466 138.717c24.6484 3.61621 48.4277 -3.36133 68.7354 -20.2461c79.6621 -66.2266 89.5303 -271.763 90.3945 -294.982
c3.79297 -101.99 -7.31641 -202.158 -30.4697 -274.814c-2.63574 -8.26758 -5.42676 -16.2646 -8.30078 -23.7627zM218.495 120.516c21.0996 66.21 31.1709 158.808 27.6318 254.059c-3.59961 96.79 -28.8193 217.442 -68.4648 250.398
c-6.89453 5.73145 -12.5762 7.12109 -17.1113 7.12109c-1.3623 0 -2.625 -0.126953 -3.78809 -0.298828c-5.26074 -1.05176 -31.4219 -21.752 -53.5068 -97.6533c-22.6387 -77.7783 -31.0225 -181.303 -23.624 -291.483c3.55566 -52.9248 14.7422 -103.363 31.4883 -142.012
c19.0615 -43.9648 38.5273 -56.1152 46.0146 -59.2998c4.67969 -1.98828 14.4268 -6.13574 28.8584 11.1533c8.62793 10.334 17.3887 26.7754 25.3525 47.5371c2.45898 6.42383 4.86816 13.3184 7.14941 20.4785z" />
    <glyph glyph-name="o" unicode="&#xf6;" horiz-adv-x="324" 
d="M268.229 78.2539c-10.4775 -27.335 -22.416 -49.1396 -35.4688 -64.7783c-19.0449 -22.832 -43.0127 -34.8379 -67.7285 -34.8379c-10.5498 0 -21.2324 2.1875 -31.7324 6.65137c-30.9287 13.1465 -57.9258 44.6621 -78.0723 91.1357
c-19.4434 44.8672 -32.3633 102.455 -36.3779 162.147c-10.1729 151.521 8.82227 254.807 26.5547 314.771c24.6436 83.3447 61.0322 132.604 102.466 138.717c24.6484 3.61621 48.4277 -3.36133 68.7354 -20.2461c79.6621 -66.2266 89.5303 -271.763 90.3945 -294.982
c3.79297 -101.99 -7.31641 -202.158 -30.4697 -274.814c-2.63574 -8.26758 -5.42676 -16.2646 -8.30078 -23.7627zM218.495 120.516c21.0996 66.21 31.1709 158.808 27.6318 254.059c-3.59961 96.79 -28.8193 217.442 -68.4648 250.398
c-6.89453 5.73145 -12.5762 7.12109 -17.1113 7.12109c-1.3623 0 -2.625 -0.126953 -3.78809 -0.298828c-5.26074 -1.05176 -31.4219 -21.752 -53.5068 -97.6533c-22.6387 -77.7783 -31.0225 -181.303 -23.624 -291.483c3.55566 -52.9248 14.7422 -103.363 31.4883 -142.012
c19.0615 -43.9648 38.5273 -56.1152 46.0146 -59.2998c4.67969 -1.98828 14.4268 -6.13574 28.8584 11.1533c8.62793 10.334 17.3887 26.7754 25.3525 47.5371c2.45898 6.42383 4.86816 13.3184 7.14941 20.4785z" />
    <glyph glyph-name="o" unicode="&#xf5;" horiz-adv-x="324" 
d="M268.229 78.2539c-10.4775 -27.335 -22.416 -49.1396 -35.4688 -64.7783c-19.0449 -22.832 -43.0127 -34.8379 -67.7285 -34.8379c-10.5498 0 -21.2324 2.1875 -31.7324 6.65137c-30.9287 13.1465 -57.9258 44.6621 -78.0723 91.1357
c-19.4434 44.8672 -32.3633 102.455 -36.3779 162.147c-10.1729 151.521 8.82227 254.807 26.5547 314.771c24.6436 83.3447 61.0322 132.604 102.466 138.717c24.6484 3.61621 48.4277 -3.36133 68.7354 -20.2461c79.6621 -66.2266 89.5303 -271.763 90.3945 -294.982
c3.79297 -101.99 -7.31641 -202.158 -30.4697 -274.814c-2.63574 -8.26758 -5.42676 -16.2646 -8.30078 -23.7627zM218.495 120.516c21.0996 66.21 31.1709 158.808 27.6318 254.059c-3.59961 96.79 -28.8193 217.442 -68.4648 250.398
c-6.89453 5.73145 -12.5762 7.12109 -17.1113 7.12109c-1.3623 0 -2.625 -0.126953 -3.78809 -0.298828c-5.26074 -1.05176 -31.4219 -21.752 -53.5068 -97.6533c-22.6387 -77.7783 -31.0225 -181.303 -23.624 -291.483c3.55566 -52.9248 14.7422 -103.363 31.4883 -142.012
c19.0615 -43.9648 38.5273 -56.1152 46.0146 -59.2998c4.67969 -1.98828 14.4268 -6.13574 28.8584 11.1533c8.62793 10.334 17.3887 26.7754 25.3525 47.5371c2.45898 6.42383 4.86816 13.3184 7.14941 20.4785z" />
    <glyph glyph-name="o" unicode="&#xf4;" horiz-adv-x="324" 
d="M268.229 78.2539c-10.4775 -27.335 -22.416 -49.1396 -35.4688 -64.7783c-19.0449 -22.832 -43.0127 -34.8379 -67.7285 -34.8379c-10.5498 0 -21.2324 2.1875 -31.7324 6.65137c-30.9287 13.1465 -57.9258 44.6621 -78.0723 91.1357
c-19.4434 44.8672 -32.3633 102.455 -36.3779 162.147c-10.1729 151.521 8.82227 254.807 26.5547 314.771c24.6436 83.3447 61.0322 132.604 102.466 138.717c24.6484 3.61621 48.4277 -3.36133 68.7354 -20.2461c79.6621 -66.2266 89.5303 -271.763 90.3945 -294.982
c3.79297 -101.99 -7.31641 -202.158 -30.4697 -274.814c-2.63574 -8.26758 -5.42676 -16.2646 -8.30078 -23.7627zM218.495 120.516c21.0996 66.21 31.1709 158.808 27.6318 254.059c-3.59961 96.79 -28.8193 217.442 -68.4648 250.398
c-6.89453 5.73145 -12.5762 7.12109 -17.1113 7.12109c-1.3623 0 -2.625 -0.126953 -3.78809 -0.298828c-5.26074 -1.05176 -31.4219 -21.752 -53.5068 -97.6533c-22.6387 -77.7783 -31.0225 -181.303 -23.624 -291.483c3.55566 -52.9248 14.7422 -103.363 31.4883 -142.012
c19.0615 -43.9648 38.5273 -56.1152 46.0146 -59.2998c4.67969 -1.98828 14.4268 -6.13574 28.8584 11.1533c8.62793 10.334 17.3887 26.7754 25.3525 47.5371c2.45898 6.42383 4.86816 13.3184 7.14941 20.4785z" />
    <glyph glyph-name="o" unicode="&#xf3;" horiz-adv-x="324" 
d="M268.229 78.2539c-10.4775 -27.335 -22.416 -49.1396 -35.4688 -64.7783c-19.0449 -22.832 -43.0127 -34.8379 -67.7285 -34.8379c-10.5498 0 -21.2324 2.1875 -31.7324 6.65137c-30.9287 13.1465 -57.9258 44.6621 -78.0723 91.1357
c-19.4434 44.8672 -32.3633 102.455 -36.3779 162.147c-10.1729 151.521 8.82227 254.807 26.5547 314.771c24.6436 83.3447 61.0322 132.604 102.466 138.717c24.6484 3.61621 48.4277 -3.36133 68.7354 -20.2461c79.6621 -66.2266 89.5303 -271.763 90.3945 -294.982
c3.79297 -101.99 -7.31641 -202.158 -30.4697 -274.814c-2.63574 -8.26758 -5.42676 -16.2646 -8.30078 -23.7627zM218.495 120.516c21.0996 66.21 31.1709 158.808 27.6318 254.059c-3.59961 96.79 -28.8193 217.442 -68.4648 250.398
c-6.89453 5.73145 -12.5762 7.12109 -17.1113 7.12109c-1.3623 0 -2.625 -0.126953 -3.78809 -0.298828c-5.26074 -1.05176 -31.4219 -21.752 -53.5068 -97.6533c-22.6387 -77.7783 -31.0225 -181.303 -23.624 -291.483c3.55566 -52.9248 14.7422 -103.363 31.4883 -142.012
c19.0615 -43.9648 38.5273 -56.1152 46.0146 -59.2998c4.67969 -1.98828 14.4268 -6.13574 28.8584 11.1533c8.62793 10.334 17.3887 26.7754 25.3525 47.5371c2.45898 6.42383 4.86816 13.3184 7.14941 20.4785z" />
    <glyph glyph-name="p" unicode="p" horiz-adv-x="287" 
d="M282.658 532.699c7.22656 -74.7383 -13.7314 -151.447 -52.1641 -190.888c-43.8213 -44.9893 -102.844 -53.6836 -139.377 -58.5352c0.398438 -90.4551 1.38379 -181.503 2.96191 -275.358l0.514648 -30.458l-60.9102 -1.02441l-0.509766 30.4521
c-3.79883 225.777 -4.17578 435.312 -1.19043 659.417l0.288086 21.5527l20.418 6.90039c34.2236 11.5576 106.974 17.123 156.481 -17.1621c41.1074 -28.4697 67.207 -79.9326 73.4873 -144.896zM186.868 384.314c25.8008 26.4814 40.5879 86.4219 35.1611 142.521
c-4.45801 46.1523 -21.7861 82.8516 -47.5312 100.684c-21.1992 14.6807 -55.9326 17.2783 -81.9053 13.9502c-1.23535 -100.717 -1.78906 -198.687 -1.64551 -296.745c30.7568 4.3252 68.9238 11.8682 95.9209 39.5908z" />
    <glyph glyph-name="q" unicode="q" horiz-adv-x="324" 
d="M55.2354 76.4316c-19.4541 44.873 -32.3691 102.46 -36.3838 162.146c-10.1787 151.515 8.81641 254.801 26.5488 314.765c24.6377 83.3447 61.0322 132.604 102.466 138.717c24.6484 3.61621 48.4277 -3.36133 68.7354 -20.2461
c79.6621 -66.2266 89.5303 -271.763 90.3945 -294.982c3.79297 -101.984 -7.31641 -202.152 -30.4697 -274.814c-2.63574 -8.26758 -5.42676 -16.2646 -8.30078 -23.7627v-0.0107422c-10.4775 -27.335 -22.4111 -49.1318 -35.4639 -64.7705
c-7.07227 -8.47852 -14.8311 -15.4502 -23.0488 -20.8828c18.7178 -52.0332 36.3779 -106.349 52.4648 -162.06l8.45117 -29.2617l-58.5234 -16.9014l-8.45117 29.2568c-16.5801 57.416 -34.8379 113.337 -54.2256 166.622
c-5.39355 1.10742 -10.7822 2.77441 -16.1211 5.04492c-30.9346 13.1465 -57.9316 44.6621 -78.0723 91.1406zM103.259 534.144c-22.6328 -77.7842 -31.0283 -181.298 -23.6191 -291.479c3.55566 -52.9248 14.7363 -103.363 31.4883 -142.018
c19.0557 -43.9648 38.5264 -56.1152 46.0137 -59.2998c4.67969 -1.98242 14.4316 -6.11914 28.8525 11.1533c8.62793 10.334 17.3887 26.7705 25.3525 47.5371c2.45898 6.42383 4.86816 13.3184 7.14941 20.4785c21.0996 66.2158 31.1729 158.819 27.6338 254.054
c-3.59961 96.79 -28.8193 217.442 -68.4648 250.398c-6.89453 5.73145 -12.5762 7.12109 -17.1113 7.12109c-1.3623 0 -2.625 -0.126953 -3.78809 -0.298828c-5.26074 -1.05176 -31.4219 -21.752 -53.5068 -97.6475z" />
    <glyph glyph-name="r" unicode="r" horiz-adv-x="294" 
d="M200.266 -3.56738c-18.6738 97.2549 -50.9932 230.844 -76.7715 305.887c-11.8838 -2.27051 -22.9258 -3.75488 -32.4287 -4.96777c0.354492 -95.1396 1.3623 -190.75 3.01855 -289.429l0.514648 -30.458l-60.9102 -1.02441l-0.509766 30.4521
c-3.79297 225.622 -4.18066 435.24 -1.21777 659.688l0.288086 21.8193l20.7559 6.74512c34.0352 11.0645 106.409 16.375 155.701 -16.4199c41.6611 -27.7227 67.96 -77.9893 74.0625 -141.547c6.91113 -71.9473 -14.2715 -145.756 -52.6982 -183.668
c-14.8799 -14.6807 -31.5049 -25.2637 -48.3955 -33.1104c27.418 -80.3428 59.7314 -215.155 78.416 -312.482l5.74316 -29.9102l-59.8252 -11.4854zM90.9199 358.756c30.8896 4.16406 69.2832 11.4062 96.3691 38.1318c25.2744 24.9316 39.9277 81.4893 34.8389 134.476
c-4.25293 44.3027 -21.4424 79.5293 -47.1709 96.6465c-21.3154 14.1826 -56.2256 16.6914 -82.3975 13.5127c-1.16895 -95.9814 -1.7168 -189.41 -1.63965 -282.767z" />
    <glyph glyph-name="s" unicode="s" horiz-adv-x="305" 
d="M124.218 -24.4062c-37.502 11.0752 -105.399 66.5996 -93.9414 197.447l2.6582 30.3418l60.6836 -5.31641l-2.6582 -30.3418c-8.2793 -94.5254 34.7832 -129.064 50.5215 -133.716c36.6719 -10.8047 73.1162 5.53223 88.6494 39.7949
c8.02441 17.6992 11.2969 38.4111 8.9707 56.8027c-8.65039 68.4473 -55.1348 114.218 -104.354 162.68c-66.9473 65.9111 -142.832 140.628 -117.884 278.774c6.38477 35.3477 29.6992 82.9951 67.4004 109.754c28.2812 20.0693 63.585 24.2227 94.4414 11.1094
c29.3066 -12.4541 67.0078 -45.6094 80.1992 -132.857l4.55176 -30.1143l-60.2295 -9.10938l-4.55176 30.1143c-6.91113 45.7041 -22.877 77.0146 -43.7988 85.9033c-16.6582 7.07227 -31.2783 -1.83301 -35.3652 -4.72363
c-22.2734 -15.8164 -38.627 -48.335 -42.7031 -70.9072c-19.2324 -106.487 36.334 -161.195 100.673 -224.543c54.4482 -53.6113 110.757 -109.039 122.054 -198.447c3.74902 -29.6934 -1.19629 -61.5078 -13.9277 -89.5898
c-22.5947 -49.835 -69.1621 -79.0361 -120.764 -79.0361c-13.3125 0 -26.9629 1.94336 -40.625 5.98047z" />
    <glyph glyph-name="t" unicode="t" horiz-adv-x="261" 
d="M99.9541 -3.72852c-3.67188 218.534 -4.13672 421.776 -1.45605 637.802c-10.8711 0.22168 -22.3066 0.470703 -34.3232 0.731445c-20.8887 0.454102 -37.3916 0.814453 -41.7168 0.814453h-30.458v60.916h30.458c4.98926 0 20.1299 -0.327148 43.0459 -0.831055
c46.1748 -1.00781 154.301 -3.35059 168.185 -1.90527l30.2529 3.21191l6.5459 -60.501l-30.248 -3.27246c-5.03418 -0.547852 -15.4893 -0.796875 -31.0781 -0.796875c-13.042 0 -29.6836 0.171875 -49.7578 0.487305c-2.66895 -215.267 -2.2041 -417.829 1.45605 -635.626
l0.514648 -30.4521l-60.9102 -1.03027z" />
    <glyph glyph-name="u" unicode="u" horiz-adv-x="349" 
d="M325.126 683.76c6.60645 -409.074 -19.9707 -621.498 -86.1641 -688.777c-16.3809 -16.6465 -36.123 -25.4463 -57.1055 -25.4463c-25.8613 0 -49.9951 11.0586 -69.7871 31.9805c-108.337 114.522 -93.2021 547.248 -85.9805 677.148l1.68945 30.4082l60.8223 -3.37793
l-1.68945 -30.4141c-10.8926 -195.929 -8.52832 -549.508 69.4111 -631.899c10.959 -11.5908 19.8193 -12.9307 25.5293 -12.9307c1.78906 0 6.5459 0 13.6846 7.25488c17.2393 17.5166 48.2451 76.2227 62.2559 272.55c8.99316 125.991 8.15723 265.262 6.42383 372.519
l-0.493164 30.4521l60.9102 0.985352z" />
    <glyph glyph-name="u" unicode="&#xfc;" horiz-adv-x="349" 
d="M325.126 683.76c6.60645 -409.074 -19.9707 -621.498 -86.1641 -688.777c-16.3809 -16.6465 -36.123 -25.4463 -57.1055 -25.4463c-25.8613 0 -49.9951 11.0586 -69.7871 31.9805c-108.337 114.522 -93.2021 547.248 -85.9805 677.148l1.68945 30.4082l60.8223 -3.37793
l-1.68945 -30.4141c-10.8926 -195.929 -8.52832 -549.508 69.4111 -631.899c10.959 -11.5908 19.8193 -12.9307 25.5293 -12.9307c1.78906 0 6.5459 0 13.6846 7.25488c17.2393 17.5166 48.2451 76.2227 62.2559 272.55c8.99316 125.991 8.15723 265.262 6.42383 372.519
l-0.493164 30.4521l60.9102 0.985352z" />
    <glyph glyph-name="u" unicode="&#xfb;" horiz-adv-x="349" 
d="M325.126 683.76c6.60645 -409.074 -19.9707 -621.498 -86.1641 -688.777c-16.3809 -16.6465 -36.123 -25.4463 -57.1055 -25.4463c-25.8613 0 -49.9951 11.0586 -69.7871 31.9805c-108.337 114.522 -93.2021 547.248 -85.9805 677.148l1.68945 30.4082l60.8223 -3.37793
l-1.68945 -30.4141c-10.8926 -195.929 -8.52832 -549.508 69.4111 -631.899c10.959 -11.5908 19.8193 -12.9307 25.5293 -12.9307c1.78906 0 6.5459 0 13.6846 7.25488c17.2393 17.5166 48.2451 76.2227 62.2559 272.55c8.99316 125.991 8.15723 265.262 6.42383 372.519
l-0.493164 30.4521l60.9102 0.985352z" />
    <glyph glyph-name="u" unicode="&#xfa;" horiz-adv-x="349" 
d="M325.126 683.76c6.60645 -409.074 -19.9707 -621.498 -86.1641 -688.777c-16.3809 -16.6465 -36.123 -25.4463 -57.1055 -25.4463c-25.8613 0 -49.9951 11.0586 -69.7871 31.9805c-108.337 114.522 -93.2021 547.248 -85.9805 677.148l1.68945 30.4082l60.8223 -3.37793
l-1.68945 -30.4141c-10.8926 -195.929 -8.52832 -549.508 69.4111 -631.899c10.959 -11.5908 19.8193 -12.9307 25.5293 -12.9307c1.78906 0 6.5459 0 13.6846 7.25488c17.2393 17.5166 48.2451 76.2227 62.2559 272.55c8.99316 125.991 8.15723 265.262 6.42383 372.519
l-0.493164 30.4521l60.9102 0.985352z" />
    <glyph glyph-name="v" unicode="v" horiz-adv-x="338" 
d="M199.999 -6.3252l-60.1807 8.37109c0.797852 19.0166 -25.1523 131.103 -48.0459 229.986c-34.5059 149.04 -77.4521 334.524 -88.5889 440.441l-3.18457 30.292l60.5781 6.36816l3.18457 -30.292c10.749 -102.189 53.2246 -285.658 87.3545 -433.069
c7.71387 -33.3213 14.5752 -63.043 20.5557 -89.3809c31.793 154.589 79.5234 392.411 102.245 534.567l4.80664 30.0762l60.1523 -9.61328l-4.80664 -30.0762c-35.835 -224.188 -133.096 -683.063 -134.07 -687.671z" />
    <glyph glyph-name="w" unicode="w" horiz-adv-x="497" 
d="M493.325 713.432l-3.02832 -30.3096c-11.8125 -118.305 -40.9688 -284.246 -66.6973 -430.655c-19.4541 -110.74 -41.5117 -236.255 -39.3184 -256.772l-60.1572 -9.34277c-22.0684 115.431 -55.9658 248.942 -78.2832 292.93
c-22.4951 -38.0947 -53.8613 -161.378 -73.0332 -291.628l-0.586914 -2.96875l-59.9746 8.87207c-0.0166016 -0.327148 -0.0332031 -0.758789 -0.0166016 -1.2793c-0.509766 13.2686 -17.3389 114.589 -33.6143 212.575c-26.7812 161.223 -60.1133 361.858 -72.1582 467.354
l-3.45605 30.2646l60.5225 6.91113l3.45605 -30.2646c11.8672 -103.956 45.0605 -303.75 71.7256 -464.28c2.61914 -15.7998 5.06152 -30.4971 7.32617 -44.1807c30.5078 127.426 59.1934 178.229 100.882 178.229h0.321289
c38.6426 2.95215 63.1084 -42.9951 99.2812 -183.816c0 -0.0166016 0.00585938 -0.0390625 0.0117188 -0.0498047c4.95605 28.9297 10.666 61.5254 17.0732 97.9922c24.2783 138.163 54.4932 310.118 66.084 426.169l3.02344 30.3086z" />
    <glyph glyph-name="x" unicode="x" horiz-adv-x="307" 
d="M296.047 2.44141l10.3721 -28.6357l-57.2773 -20.7393l-10.3721 28.6357c-0.736328 2.03809 -38.1611 105.54 -85.5596 243.311c-47.3984 -137.771 -84.8232 -241.272 -85.5596 -243.311l-10.3721 -28.6357l-57.2773 20.7393l10.3721 28.6357
c0.864258 2.38672 52.1387 144.211 110.685 316.886c-38.6377 114.45 -79.7178 240.392 -111.267 347.742l-8.58887 29.2178l58.4463 17.1836l8.58887 -29.2227c24.4277 -83.123 54.6367 -177.537 84.9727 -269.056c30.3359 91.5186 60.5449 185.938 84.9727 269.056
l8.58887 29.2227l58.4463 -17.1836l-8.58887 -29.2178c-31.5488 -107.351 -72.6289 -233.292 -111.267 -347.742c58.5459 -172.681 109.82 -314.499 110.685 -316.886z" />
    <glyph glyph-name="y" unicode="y" horiz-adv-x="312" 
d="M156.95 -23.4258c-2.53125 -0.193359 -5.07812 -0.295898 -7.64746 -0.295898c-54.9463 0 -115.126 45.6709 -131.596 151.006l-4.70703 30.0928l60.1855 9.40918l4.70703 -30.0928c11.1592 -71.3828 46.3799 -101.52 74.3291 -99.3818
c36.0342 2.80176 72.5059 55.8652 72.5059 151.863c0 56.3477 -0.327148 111.072 -0.90332 167.408c-20.0029 -35.3311 -47.127 -56.6846 -84.1914 -56.6846c-22.8652 0 -43.793 9.53613 -60.5225 27.5898c-73.4043 79.2188 -57.0342 324.085 -54.9238 351.741
l2.31445 30.3691l60.7393 -4.62988l-2.31445 -30.3691c-7.71387 -101.192 -0.75293 -262.941 38.8701 -305.704c6.60156 -7.12207 11.7129 -8.08008 15.8438 -8.08008c22.749 0 43.9697 39.0088 58.2129 107.024c14.3154 68.3369 18.7734 151.128 21.0439 215.826
l-0.509766 29.6221l1.54492 0.0273438l0.0556641 1.54492l29.6553 -1.03516l29.6494 0.509766l0.0273438 -1.54492l1.54492 -0.0556641l-1.03516 -29.6553c3.38379 -196.792 5.82617 -339.104 5.82617 -493.908c0 -139.952 -64.6436 -207.624 -128.705 -212.597z" />
    <glyph glyph-name="y" unicode="&#xff;" horiz-adv-x="312" 
d="M156.95 -23.4258c-2.53125 -0.193359 -5.07812 -0.295898 -7.64746 -0.295898c-54.9463 0 -115.126 45.6709 -131.596 151.006l-4.70703 30.0928l60.1855 9.40918l4.70703 -30.0928c11.1592 -71.3828 46.3799 -101.52 74.3291 -99.3818
c36.0342 2.80176 72.5059 55.8652 72.5059 151.863c0 56.3477 -0.327148 111.072 -0.90332 167.408c-20.0029 -35.3311 -47.127 -56.6846 -84.1914 -56.6846c-22.8652 0 -43.793 9.53613 -60.5225 27.5898c-73.4043 79.2188 -57.0342 324.085 -54.9238 351.741
l2.31445 30.3691l60.7393 -4.62988l-2.31445 -30.3691c-7.71387 -101.192 -0.75293 -262.941 38.8701 -305.704c6.60156 -7.12207 11.7129 -8.08008 15.8438 -8.08008c22.749 0 43.9697 39.0088 58.2129 107.024c14.3154 68.3369 18.7734 151.128 21.0439 215.826
l-0.509766 29.6221l1.54492 0.0273438l0.0556641 1.54492l29.6553 -1.03516l29.6494 0.509766l0.0273438 -1.54492l1.54492 -0.0556641l-1.03516 -29.6553c3.38379 -196.792 5.82617 -339.104 5.82617 -493.908c0 -139.952 -64.6436 -207.624 -128.705 -212.597z" />
    <glyph glyph-name="y" unicode="&#xfd;" horiz-adv-x="312" 
d="M156.95 -23.4258c-2.53125 -0.193359 -5.07812 -0.295898 -7.64746 -0.295898c-54.9463 0 -115.126 45.6709 -131.596 151.006l-4.70703 30.0928l60.1855 9.40918l4.70703 -30.0928c11.1592 -71.3828 46.3799 -101.52 74.3291 -99.3818
c36.0342 2.80176 72.5059 55.8652 72.5059 151.863c0 56.3477 -0.327148 111.072 -0.90332 167.408c-20.0029 -35.3311 -47.127 -56.6846 -84.1914 -56.6846c-22.8652 0 -43.793 9.53613 -60.5225 27.5898c-73.4043 79.2188 -57.0342 324.085 -54.9238 351.741
l2.31445 30.3691l60.7393 -4.62988l-2.31445 -30.3691c-7.71387 -101.192 -0.75293 -262.941 38.8701 -305.704c6.60156 -7.12207 11.7129 -8.08008 15.8438 -8.08008c22.749 0 43.9697 39.0088 58.2129 107.024c14.3154 68.3369 18.7734 151.128 21.0439 215.826
l-0.509766 29.6221l1.54492 0.0273438l0.0556641 1.54492l29.6553 -1.03516l29.6494 0.509766l0.0273438 -1.54492l1.54492 -0.0556641l-1.03516 -29.6553c3.38379 -196.792 5.82617 -339.104 5.82617 -493.908c0 -139.952 -64.6436 -207.624 -128.705 -212.597z" />
    <glyph glyph-name="z" unicode="z" horiz-adv-x="284" 
d="M205.433 -25.0879c-31.084 0 -81.249 0.490234 -131.638 1.02148c-20.4736 0.209961 -38.1172 0.359375 -41.2236 0.370117l-42.5752 -0.354492l14.2656 42.9736c1.24609 3.74902 120.73 363.06 202.375 634.264
c-27.4121 -0.376953 -62.6992 -0.936523 -93.4951 -1.42969c-40.4814 -0.642578 -72.4512 -1.15234 -79.9883 -1.15234h-30.458v60.916h30.458c7.0498 0 42.0049 0.55957 79.0195 1.14648c54.5645 0.869141 116.405 1.85449 135.483 1.85449h40.8027l-11.6016 -39.1133
c-66.9688 -225.838 -167.719 -533.204 -202.496 -638.562c0.0224609 0 0.0498047 0 0.0722656 -0.00585938c49.6357 -0.514648 142.018 -1.4668 156.422 -0.757812l30.4189 1.52832l3.0625 -60.8389l-30.4189 -1.52832
c-4.61816 -0.232422 -14.6689 -0.332031 -28.4854 -0.332031z" />
    <glyph glyph-name="braceleft" unicode="{" horiz-adv-x="416" 
d="M314.021 -172.272l51.5625 -32.4531l-16.2256 -25.7734c-11.6572 -18.5127 -28.7412 -29.2178 -48.124 -30.1201c-0.869141 -0.0439453 -1.73828 -0.0664062 -2.60254 -0.0664062c-19.6758 0 -38.8867 10.417 -53.0801 28.8799
c-16.7354 21.7637 -28.7578 54.874 -36.7549 101.215c-13.3291 77.2412 -14.4365 158.569 -15.5049 237.218c-0.53125 38.6982 -1.07422 78.7148 -3.0791 117.496c-2.82422 54.5312 -50.2949 77.6016 -78.3438 86.4902l-61.8682 19.6201l54.625 35.0488
c28.5811 18.3359 73.9688 69.3174 81.2783 113.515c8.09668 48.999 8.85547 102.649 9.5918 154.533l0.277344 18.9619c0.930664 57.6104 3.17871 123.981 18.2578 182.5c8.2627 32.0586 19.0176 54.7246 32.8848 69.2891c12.6211 13.252 29.1621 20.0742 45.4658 18.5898
c15.9658 -1.41211 30.1426 -10.3174 39.917 -25.0811l16.8125 -25.4023l-50.7988 -33.6201l-11.6348 17.583c-3.77148 -6.25195 -8.69434 -17.2891 -13.6562 -36.5547c-13.4131 -52.0723 -15.4678 -114.174 -16.3369 -168.289l-0.282227 -18.834
c-0.764648 -54.127 -1.55078 -110.104 -10.4004 -163.615c-7.49805 -45.3545 -37.9336 -90.0449 -68.7354 -121.521c34.3018 -21.0107 70.5527 -57.8037 73.7754 -120.065c2.06543 -39.9443 2.61328 -80.5479 3.15039 -119.816
c1.08496 -79.7998 2.10938 -155.17 14.625 -227.683c7.70898 -44.6621 17.8594 -65.1357 25.0195 -74.4502c1.42285 -1.84961 2.6748 -3.0625 3.64355 -3.84863c0.0996094 0.143555 0.205078 0.30957 0.31543 0.481445z" />
    <glyph glyph-name="verticalbar" unicode="|" horiz-adv-x="171" 
d="M120.585 -126.663l0.459961 -30.458l-60.9102 -0.914062l-0.459961 30.4521c-1.83301 121.849 -3.30078 322.19 -4.59668 498.947c-1.38477 188.657 -2.68652 366.854 -4.17578 417.054l-0.902344 30.4473l60.8887 1.7998l0.902344 -30.4414
c1.51172 -50.8818 2.81836 -229.41 4.20312 -418.416c1.29004 -176.646 2.75781 -376.86 4.59082 -498.471z" />
    <glyph glyph-name="braceright" unicode="}" horiz-adv-x="416" 
d="M310.948 365.29l54.6289 -35.0527l-61.8633 -19.6201c-28.0488 -8.88867 -75.5195 -31.9541 -78.3438 -86.4902c-2.00977 -38.7812 -2.55273 -78.8027 -3.0791 -117.495c-1.06836 -78.6484 -2.17578 -159.977 -15.5049 -237.218
c-7.99707 -46.3408 -20.0195 -79.4463 -36.7549 -101.221c-14.1875 -18.458 -33.4092 -28.8691 -53.0791 -28.875c-0.869141 0 -1.7334 0.0224609 -2.60254 0.0664062c-19.377 0.902344 -36.4668 11.6016 -48.124 30.1201l-16.2256 25.7734l51.5576 32.4463
l16.2256 -25.7734c0.110352 -0.171875 0.21582 -0.337891 0.31543 -0.481445c0.96875 0.78125 2.2207 1.99414 3.63867 3.84375c7.16602 9.31445 17.3164 29.793 25.0254 74.4551c12.5156 72.5068 13.54 147.882 14.625 227.682
c0.53125 39.2686 1.08496 79.8721 3.15039 119.816c3.22266 62.2676 39.4736 99.0557 73.7754 120.071c-30.8018 31.4717 -61.2373 76.168 -68.7354 121.518c-8.84961 53.5283 -9.6416 109.521 -10.4062 163.659l-0.277344 18.7949
c-0.875 54.127 -2.92969 116.233 -16.3428 168.289c-4.95605 19.249 -9.87402 30.2744 -13.6396 36.5322l-11.3525 -17.1562l-51.0977 33.2158l16.8125 25.4023c9.77441 14.7637 23.9512 23.6689 39.917 25.0811c16.2979 1.47852 32.8447 -5.32715 45.4658 -18.5898
c13.8672 -14.5645 24.6221 -37.2305 32.8848 -69.2891c15.0742 -58.5068 17.3281 -124.883 18.2588 -182.498l0.277344 -18.917c0.731445 -51.8945 1.48438 -105.556 9.5918 -154.576c7.30957 -44.1973 52.6973 -95.1729 81.2783 -113.514z" />
    <glyph glyph-name="nonbreakingspace" unicode="&#xa0;" horiz-adv-x="186" 
 />
    <glyph glyph-name="exclamdown" unicode="&#xa1;" horiz-adv-x="169" 
d="M117.383 -52.3506l1.19043 -30.4307l-60.8721 -2.37598l-1.18555 30.4307c-6.93848 177.587 -8.26758 357.815 -3.9541 535.674l0.736328 30.4473l60.8994 -1.47852l-0.736328 -30.4521c-4.28027 -176.573 -2.96191 -355.501 3.92188 -531.814zM51.9863 635.226
l-1.25781 30.4307c-1.25684 30.2422 -0.879883 60.8662 1.1084 91.0088l2.00977 30.3916l60.7832 -4.01465l-2.00488 -30.3916c-1.84961 -27.9775 -2.19824 -56.3975 -1.03516 -84.4746l1.2627 -30.4307z" />
    <glyph glyph-name="cent" unicode="&#xa2;" horiz-adv-x="368" 
d="M259.106 164.106l58.8281 -15.7715l-7.87988 -29.4229c-20.2627 -75.6689 -57.0889 -124.662 -98.8994 -135.351c0.176758 -18.3135 0.365234 -36.6934 0.564453 -55.1621l0.332031 -30.458l-60.9102 -0.65918l-0.332031 30.458
c-0.249023 22.6943 -0.470703 45.2334 -0.686523 67.7002c-58.7344 39.6455 -82.5137 150.989 -88.8936 187.832c-15.7051 90.7812 -14.9072 201.062 2.18848 302.575c11.126 66 27.0859 118.083 47.4375 154.805c11.834 21.3486 24.7646 36.2451 37.873 46.0801
c0.265625 47.0332 0.592773 94.3486 0.99707 142.189l0.260742 30.458l60.916 -0.520508l-0.254883 -30.458c-0.365234 -43.0898 -0.669922 -85.7529 -0.918945 -128.179c4.17578 -1.15234 8.16895 -2.70312 11.9346 -4.58594
c19.3662 -9.67969 35.7031 -29.123 47.2441 -56.2363c12.9424 -30.4082 21.3936 -74.0576 25.126 -129.757l2.03809 -30.3857l-60.7832 -4.07031l-2.03809 30.3916c-3.22852 48.1738 -10.2842 86.1963 -20.3965 109.959c-1.15723 2.71387 -2.33105 5.11719 -3.5166 7.37695
c-0.802734 -190.739 -0.40918 -377.392 1.20801 -570.772c13.0859 12.6816 28.9023 38.5654 40.6816 82.541zM121.259 193.673c7.0332 -40.6143 17.1953 -72.8955 28.0107 -97.123c-1.19629 161.583 -1.52832 319.018 -1.02441 478.695
c-9.81348 -27.1074 -18.2197 -60.7441 -24.7539 -99.5088c-15.999 -94.9902 -16.8135 -197.8 -2.23242 -282.063z" />
    <glyph glyph-name="sterling" unicode="&#xa3;" horiz-adv-x="397" 
d="M282.479 32.4609l30.3223 2.7334l5.49316 -60.667l-30.3359 -2.74707c-19.3604 -1.75 -50.71 -2.25391 -80.2207 -2.25391c-37.9287 0 -72.834 0.825195 -75.3818 0.891602l-32.0752 0.775391l2.44727 31.9922c0.171875 2.25977 13.8174 180.417 25.3691 310.445
c-13.1299 -0.952148 -26.4541 -2.29785 -40.1709 -4.04785l-30.2148 -3.84863l-7.70898 60.4229l30.2148 3.85449c18.1865 2.32031 35.9355 3.91016 53.54 4.93457c0.918945 9.49707 1.80469 18.3408 2.64062 26.3213c7.44238 71.1055 15.1396 144.631 32.0078 211.141
c14.9688 59.0225 34.2959 91.8174 60.833 103.209c24.499 10.5439 61.9902 3.43359 86.9658 -51.1357c11.9668 -26.1445 20.3848 -60.0137 26.4932 -106.598l3.95996 -30.1982l-60.4014 -7.91895l-3.95996 30.1982c-5.2168 39.8281 -12.25 68.9902 -21.4814 89.1641
c-3.91016 8.53418 -7.73145 13.9062 -10.4951 16.9961c-4.69629 -6.26367 -13.5518 -21.9414 -22.8721 -58.6846c-15.7832 -62.251 -23.248 -133.556 -30.4639 -202.507c-0.614258 -5.89746 -1.26172 -12.2773 -1.92578 -19.0391
c18.1865 -0.498047 36.4727 -1.61133 55.168 -3.48828l30.3086 -3.0459l-6.08594 -60.6064l-30.3027 3.04004c-18.7676 1.88867 -36.8428 2.98535 -54.7461 3.37891c-8.7168 -97.4102 -18.8398 -225.467 -23.4307 -284.417
c35.1094 -0.454102 89.8896 -0.708984 116.51 1.70508z" />
    <glyph glyph-name="currency" unicode="&#xa4;" horiz-adv-x="530" 
d="M399.326 225.626c18.9229 -28.293 37.8906 -56.7432 57.0293 -85.6562l16.8125 -25.3965l-50.7988 -33.6201l-16.8076 25.4023c-12.709 19.1992 -25.3408 38.2051 -37.9453 57.1172c-8.02441 -11.0371 -16.6465 -20.3242 -25.7949 -27.6621
c-18.7402 -15.0352 -40.4482 -22.7656 -63.0205 -22.7656c-9.41406 0 -18.9668 1.33984 -28.5303 4.05859c-30.8184 8.77148 -58.2305 30.5957 -79.2793 63.1025c-0.34375 0.53125 -0.648438 1.1123 -0.986328 1.64941
c-17.4717 -23.6689 -35.0879 -47.4424 -52.9531 -71.4326l-18.1914 -24.4277l-48.8604 36.3838l18.1914 24.4277c24.915 33.46 49.3809 66.5264 73.5703 99.4209c-4.51367 15.8994 -7.75293 32.4688 -9.44238 49.2979c-6.97168 69.4502 -0.875 135.201 16.5078 189.173
c-24.5879 35.3369 -49.458 70.873 -74.9043 106.958l-17.5547 24.8926l49.7852 35.1045l17.5498 -24.8867c18.5352 -26.2881 36.7266 -52.2549 54.7852 -78.1055c4.21387 6.54004 8.61133 12.8203 13.3291 18.585c21.376 26.0996 45.8867 41.2012 70.8848 43.6709
c30.0762 2.99609 58.4023 -6.11914 81.9385 -26.2764c8.54492 -7.32129 16.1152 -15.7607 22.8496 -24.915c14.8301 21.0322 29.7266 42.2363 44.7285 63.6787l17.4609 24.9531l49.9121 -34.9219l-17.4609 -24.959c-21.293 -30.4355 -42.376 -60.4062 -63.3584 -90.0615
c17.666 -50.0068 21.1104 -99.2715 21.5811 -107.739c3.28906 -59.2383 -4.3252 -117.701 -21.0273 -165.05zM238.951 528.647c-7.54297 -9.20898 -14.9463 -21.2041 -21.6309 -35.7744c16.9678 -24.4609 33.7803 -48.8496 50.5049 -73.2051
c20.4785 28.5088 40.9355 57.1504 61.459 86.0576c-7.02734 13.4346 -15.1348 24.8203 -24.2725 32.6504c-9.61914 8.24023 -19.5986 12.1836 -31.0449 12.1836c-1.72266 0 -3.47852 -0.09375 -5.27246 -0.270508c-6.32422 -0.620117 -17.4551 -6.63379 -29.7432 -21.6416z
M191.881 314.683c12.7422 17.4941 25.4404 34.9766 38.0996 52.4766c-11.4688 16.7412 -22.9648 33.4932 -34.5273 50.2559c-4.77344 -29.7773 -6.47363 -64.1562 -3.57227 -102.732zM326.738 212.287c1.24023 2.1709 2.46484 4.44727 3.67188 6.79004
c-21.3154 31.748 -42.6084 63.2471 -63.9404 94.6133c-18.7236 -25.8115 -37.5303 -51.6123 -56.4922 -77.4854c3.62207 -8.21289 7.65332 -15.9551 12.1504 -22.8994c12.7207 -19.6533 28.6367 -33.0107 44.8125 -37.6123
c13.3516 -3.80957 25.7178 -1.23438 36.7598 7.63184c7.80859 6.25195 15.7725 16.2695 23.0381 28.9619zM354.151 292.862c5.2666 29.3564 7.20508 61.5967 5.38281 94.4355c-0.831055 14.9746 -2.96875 31.0732 -6.22461 47.1162
c-16.2979 -22.8486 -32.585 -45.5645 -48.8936 -68.2139c16.6025 -24.3613 33.1777 -48.8057 49.7354 -73.3379z" />
    <glyph glyph-name="yen" unicode="&#xa5;" horiz-adv-x="350" 
d="M259.734 281.215c-18.6348 1.72266 -36.8701 2.75098 -54.9902 3.22754c-0.31543 -20.1963 -0.537109 -40.2822 -0.636719 -60.2734c20.1904 -0.481445 40.4922 -1.61133 61.2588 -3.5332l30.3311 -2.80762l-5.62109 -60.6562l-30.3311 2.80762
c-18.8398 1.74414 -37.2695 2.7793 -55.5996 3.24414c0.304688 -51.6074 1.28516 -103.431 3.02441 -157.07l0.985352 -30.4414l-60.8887 -1.96582l-0.985352 30.4414c-1.75 54.0273 -2.74121 106.232 -3.05176 158.216
c-18.125 -0.947266 -36.4053 -2.44824 -55.1396 -4.65234l-30.248 -3.56055l-7.11621 60.501l30.248 3.55566c21.1436 2.49219 41.7549 4.16504 62.2002 5.16211c0.09375 19.9912 0.320312 40.0713 0.625 60.2627c-18.3076 -0.947266 -36.7764 -2.45898 -55.71 -4.68555
l-30.248 -3.56055l-7.11621 60.501l30.248 3.55566c20.9717 2.46973 41.4121 4.12598 61.6865 5.12793c-13.6338 53.1465 -68.7852 269.371 -86.6777 358.763l-5.98047 29.8652l59.7314 11.9561l5.98047 -29.8711c11.1865 -55.8818 38.0889 -165.702 59.3926 -250.729
c20.4951 82.3643 46.3848 189.621 59.4209 256.264l5.84766 29.8877l59.7812 -11.6904l-5.84766 -29.8877c-21.0215 -107.479 -72.9834 -311.265 -86.5127 -363.868c18.9727 -0.537109 38.0615 -1.62207 57.5605 -3.42773l30.3311 -2.80762l-5.62109 -60.6562z" />
    <glyph glyph-name="section" unicode="&#xa7;" horiz-adv-x="312" 
d="M260.663 571.131l-60.8867 2.34863l1.17383 30.4355c1.01855 26.3818 -6.76172 46.1182 -21.3369 54.126c-10.0625 5.53809 -22.4229 4.45801 -33.0664 -2.89062c-22.9766 -15.8604 -32.6514 -54.0273 -25.873 -102.112
c1.65039 -11.7344 5.2334 -22.0566 9.83008 -28.3145c3.89844 -5.31055 8.10742 -9.96191 12.6875 -14.3262l23.082 -16.5361l-0.918945 -1.2793c2.1377 -1.53906 4.3418 -3.09473 6.62305 -4.69531l1.04102 -0.725586c17.5332 -12.2939 37.3975 -26.2217 54.46 -48.1016
c20.3125 -26.0498 32.4297 -58.8057 34.124 -92.2158c1.46777 -29.0293 -6.77832 -83.8203 -42.9072 -126.296c4.36914 -6.33008 8.56641 -13.042 12.4043 -20.4404c10.0732 -19.4043 17.6104 -42.3252 21.7803 -66.2705
c3.69922 -21.2373 6.48438 -53.1846 -1.23535 -84.8164c-17.5381 -71.8477 -60.8164 -96.6133 -96.0869 -96.6133c-3.04004 0 -6.01953 0.188477 -8.9209 0.537109c-46.8721 5.7207 -94.0264 56.0264 -93.6826 155.53l0.105469 30.458l60.916 -0.205078l-0.105469 -30.458
c-0.209961 -62.0234 23.3535 -92.8086 40.1494 -94.8574c12.2168 -1.37305 29.5391 13.5234 38.4492 50.0508c4.08105 16.708 4.21973 37.9902 0.404297 59.9258c-3.11816 17.8818 -8.58984 34.7061 -15.833 48.6562c-12.7588 24.5771 -30.4297 40.1934 -50.8916 58.2803
c-15.4121 13.6172 -31.3496 27.7002 -45.958 46.501c-12.167 15.6494 -20.3516 31.333 -25.0254 47.9463c-6.28516 22.3398 -6.84961 49.459 -1.60547 76.3564c4.12598 21.1328 15.4512 53.2305 32.0039 82.2764c-1.39551 1.7334 -2.80176 3.42773 -4.15332 5.27148
c-13.4736 18.3633 -18.8789 40.5146 -21.0439 55.8604c-14.5088 102.938 31.25 146.709 51.5957 160.747c29.5889 20.418 66.7588 22.7773 97.0117 6.1416c35.5361 -19.5322 54.8018 -59.5762 52.8633 -109.859zM132.221 441.392
c-9.84668 -19.9307 -16.585 -40.1992 -18.8662 -51.9229c-3.41113 -17.4775 -3.24512 -35.0488 0.454102 -48.2012c2.53613 -9.00977 7.1377 -17.6104 14.4805 -27.0576c11.1143 -14.3096 24.2725 -25.9336 38.2061 -38.2441
c3.51074 -3.10645 7.11621 -6.32422 10.7432 -9.6084c18.4854 25.7012 24.5049 58.2246 23.5361 77.4023c-1.04688 20.7227 -8.82227 41.8057 -21.3271 57.8428c-11.4521 14.6914 -25.9941 24.8809 -41.3838 35.6689l-1.05176 0.742188
c-1.55078 1.08496 -3.17383 2.23145 -4.79102 3.37793z" />
    <glyph glyph-name="copyright" unicode="&#xa9;" horiz-adv-x="502" 
d="M451.292 402.854c5.62598 -119.667 -10.8398 -237.162 -45.1689 -322.373c-3.8877 -9.64648 -8.01367 -18.9941 -12.2773 -27.7939c-15.334 -31.6436 -32.6455 -56.7295 -51.4629 -74.5723c-25.4238 -24.1006 -55.0127 -36.4883 -85.9189 -36.4883
c-13.0693 0 -26.377 2.21484 -39.7061 6.7002c-42.3252 14.2373 -79.96 49.6016 -108.829 102.294c-28.7852 52.5371 -47.9131 120.049 -53.8604 190.091c-25.4072 299.187 72.2354 513.551 179.376 526.05c37.3857 4.3418 71.5156 -6.38477 101.575 -31.8975
c82.7734 -70.2637 112.03 -241.754 116.272 -332.01zM349.621 103.241c31.1729 77.3691 46.0488 185.536 40.8213 296.752c-4.08691 87.0488 -32.7178 235.695 -94.8467 288.432c-14.4814 12.2939 -29.7822 18.3408 -46.5449 18.3408
c-2.80762 0 -5.6543 -0.171875 -8.53906 -0.509766c-55.4004 -6.46289 -149.992 -174.829 -125.736 -460.388c5.24414 -61.7803 21.7852 -120.725 46.5781 -165.985c21.082 -38.4658 47.6582 -64.6875 74.832 -73.8252c23.082 -7.74219 44.7188 -2.29297 64.2891 16.2588
c13.2793 12.5879 26.6084 32.2695 38.5479 56.918c3.66016 7.55957 7.22656 15.6338 10.5986 24.0068zM267.513 250.034l7.88574 29.4121l58.8447 -15.7666l-7.88574 -29.4229c-15.002 -55.9814 -44.6348 -75.1201 -69.5381 -75.1201
c-4.04785 0 -7.96875 0.503906 -11.6846 1.43945c-44.1201 11.1309 -60.0527 76.8486 -64.8486 104.588c-7.49805 43.3057 -7.1377 95.7881 0.986328 143.983c5.39355 32.0361 13.3125 57.6377 23.541 76.0898c21.8467 39.4072 52.7314 41.8164 72.5293 31.9258
c12.4268 -6.21387 22.6055 -17.9873 29.4336 -34.0527c6.73926 -15.8379 10.9199 -37.0088 12.7695 -64.7256l2.03223 -30.3857l-60.7832 -4.05957l-2.02734 30.3916c-1.03027 15.3066 -2.76953 26.0498 -4.49707 33.4316
c-5.11133 -12.1221 -9.6084 -29.0068 -12.9307 -48.7324c-7.02734 -41.6777 -7.4043 -86.6836 -1.04102 -123.472c4.43066 -25.5791 11.6572 -42.2871 16.9463 -50.71c3.0957 4.87305 6.98926 12.9473 10.2676 25.1855z" />
    <glyph glyph-name="softhyphen" unicode="&#xad;" 
 />
    <glyph glyph-name="registered" unicode="&#xae;" horiz-adv-x="502" 
d="M451.292 402.854c5.62598 -119.667 -10.8379 -237.162 -45.167 -322.373c-3.8877 -9.64648 -8.01367 -18.9941 -12.2773 -27.7939l-0.00585938 -0.00585938c-15.3398 -31.6484 -32.6514 -56.7344 -51.458 -74.5664
c-25.4238 -24.1006 -55.0127 -36.4883 -85.9189 -36.4883c-13.0693 0 -26.377 2.21484 -39.7061 6.7002c-42.3252 14.2373 -79.96 49.6016 -108.829 102.294c-28.7852 52.5371 -47.9131 120.049 -53.8604 190.091c-25.4072 299.187 72.2354 513.551 179.376 526.05
c37.3799 4.3418 71.5098 -6.38477 101.574 -31.8975c82.7734 -70.2637 112.03 -241.754 116.272 -332.01zM349.623 103.241c31.1729 77.3691 46.0479 185.537 40.8203 296.753c-4.08691 87.0488 -32.7178 235.695 -94.8467 288.432
c-14.4814 12.2939 -29.7822 18.3408 -46.5449 18.3408c-2.80762 0 -5.6543 -0.171875 -8.53906 -0.509766c-55.4004 -6.46289 -149.992 -174.829 -125.736 -460.388c5.24414 -61.7803 21.7852 -120.725 46.5781 -165.985c21.082 -38.4658 47.6582 -64.6875 74.832 -73.8252
c23.082 -7.74219 44.7188 -2.29297 64.2891 16.2588c13.2744 12.5762 26.6035 32.2627 38.5537 56.9229c3.66016 7.55957 7.22656 15.6279 10.5938 24.001zM287.627 268.05c9.02637 -18.6348 18.3613 -37.9072 30.5664 -58.7852l15.373 -26.2939l-52.5928 -30.7461
l-15.3672 26.2988c-6.42383 10.9756 -12.0166 21.3535 -17.1611 31.3604c0.0996094 -7.02734 0.176758 -13.9658 0.292969 -21.0596l0.487305 -30.4521l-60.9102 -0.96875l-0.481445 30.458c-1.62305 102.112 -1.81152 196.526 -0.592773 297.115l0.188477 15.5781
l12.748 8.96582c24.0176 16.8848 45.3164 15.251 58.9395 10.9258c35.9072 -11.4355 52.748 -51.8779 57.0566 -63.9951c8.45605 -23.7959 11.1865 -52.8252 7.31543 -77.6455c-3.9707 -25.3574 -14.7529 -47.5029 -32.0645 -65.833
c-5.79785 -6.13574 -11.8115 -11.5078 -17.9971 -16.1924c5.01172 -9.80762 9.66895 -19.3828 14.1992 -28.7305zM263.303 388.203c2.30957 14.8086 0.53125 33.5986 -4.53027 47.8525c-2.85156 8.01855 -7.08789 15.1621 -10.9199 19.9912
c-0.327148 -34.0469 -0.487305 -67.5342 -0.476562 -100.999c8.79395 9.39258 13.8613 19.9424 15.9268 33.1553z" />
    <glyph glyph-name="mu" unicode="&#xb5;" horiz-adv-x="393" 
d="M342.026 -48.9727l0.942383 -30.4453l-60.8887 -1.90527l-0.952148 30.4414c-1.27344 40.7529 -2.2373 98.7783 -2.97363 162.446c-24.6982 -76.1621 -55.915 -112.063 -96.6348 -113.548c-29.1846 -1.10156 -52.1611 17.04 -70.3311 59.3652
c-0.105469 -31.8369 -0.182617 -61.6973 -0.232422 -88.6387c-0.110352 -57.0947 -0.104492 -112.889 1.14746 -167.675c0.692383 -30.4414 1.83887 -62.4609 7.48145 -90.0059l6.11328 -29.8438l-59.6758 -12.2168l-6.11328 29.8379
c-6.65137 32.4961 -7.94727 67.6338 -8.7002 100.844c-1.2627 55.4775 -1.26855 111.681 -1.1582 169.18c0.271484 143.407 1.24609 369.473 3.07324 535.607l-2.1377 29.1182l2.46387 0.182617l0.0273438 2.46973l29.1514 -0.327148l29.1123 2.14355l0.182617 -2.46387
l2.46973 -0.0273438l-0.327148 -29.2178c0.647461 -9.2041 1.32324 -23.082 2.16504 -40.5039c2.86328 -58.9004 7.64258 -157.484 19.3662 -245.591c17.3721 -130.615 39.5176 -156.516 44.79 -160.946c6.42969 3.05664 40.3711 27.2676 68.7578 198.453
c19.46 117.363 26.0391 240.536 26.7314 267.096l60.9053 -0.775391c0 -4.14746 0.365234 -416.915 5.24414 -573.054z" />
    <glyph glyph-name="paragraph" unicode="&#xb6;" horiz-adv-x="440" 
d="M389.059 -46.2432l0.487305 -30.457l-60.9102 -0.96875l-0.487305 30.4521c-1.41797 89.2031 -2.58691 229.294 -3.62207 361.626c-26.5371 -18.5957 -53.4561 -32.6895 -79.4561 -41.7324c0.891602 -115.763 1.92188 -235.496 3.25098 -318.918l0.481445 -30.458
l-60.9102 -0.96875l-0.487305 30.4521c-1.29004 80.9404 -2.29199 195.812 -3.16699 308.157c-1.13574 -0.0273438 -2.29883 -0.116211 -3.42285 -0.116211c-8.21289 0 -16.1709 0.669922 -23.8242 2.03809c-15.8604 2.83008 -39.3906 8.92188 -60.5449 29.1133
c-19.9971 19.083 -34.7832 48.3896 -41.6387 82.5303c-5.78125 28.8076 -6.36816 63.7461 -1.64453 98.3799c4.06445 29.8105 11.4189 59.4541 21.2539 85.7148c24.1895 64.5654 61.1104 110.33 104.903 131.883l-0.0556641 1.72266l4.03711 0.126953
c14.0713 6.39062 28.7959 10.3945 44.0361 11.6572c33.4707 2.75195 66.0938 -8.15234 93.8877 -30.2764c-0.244141 15.5391 -0.493164 27.7939 -0.748047 35.918l-0.958008 30.4414l60.8887 1.91602l0.952148 -30.4414c1.32324 -42.1543 2.41406 -183.059 3.68262 -346.209
c1.12988 -145.861 2.41504 -311.177 4.01562 -411.583zM167.7 322.832c5.02246 -0.891602 10.4111 -1.2168 16.0762 -1.05078c-0.0556641 7.40918 -0.111328 14.7969 -0.166992 22.1123c-0.819336 108.503 -1.60059 212.365 -2.50293 273.868
c-19.4268 -18.3691 -36.6602 -45.8867 -49.6406 -80.5371c-8.26758 -22.085 -14.4756 -47.1768 -17.9365 -72.5674c-3.83203 -28.0771 -3.47168 -55.833 1.01367 -78.1562c6.18066 -30.7852 18.8232 -45.5322 23.9678 -50.4443
c7.42578 -7.09375 15.6104 -10.7988 29.1895 -13.2246zM319.857 388.02l4.06543 3.53809c-0.509766 66.1387 -1.01953 129.646 -1.5293 182.987l-8.92676 15.4668c-18.8672 32.6895 -44.668 51.5898 -71.8643 53.2959c1.08008 -55.0234 1.94434 -169.274 2.9248 -298.954
c0.0107422 -2.02148 0.0273438 -4.08203 0.0439453 -6.1084c24.6543 11.4082 50.6211 28.3262 75.2861 49.7744z" />
    <glyph glyph-name="questiondown" unicode="&#xbf;" horiz-adv-x="301" 
d="M190.766 115.65l60.0225 -10.3379l-5.16699 -30.0146c-15.9268 -92.5596 -62.793 -153.614 -116.111 -153.614c-3.48926 0 -6.98926 0.260742 -10.5283 0.791992c-23.2363 3.48926 -42.3643 18.3975 -53.8662 41.9834
c-13.1191 26.9023 -15.1016 62.0234 -15.1123 80.5645c-0.0166016 28.3311 3.89355 54.8965 7.71973 77.1533c7.0332 40.8467 16.2041 79.999 25.0762 117.872c4.50195 19.2051 9.15918 39.0752 13.4287 58.7568c10.4502 48.124 22.4619 111.976 22.5674 179.172
l0.0439453 30.458l60.916 -0.0996094l-0.0439453 -30.458c-0.110352 -72.9443 -12.8584 -140.921 -23.9502 -191.996c-4.375 -20.1631 -9.08789 -40.2764 -13.6455 -59.7305c-8.66699 -36.998 -17.6328 -75.2529 -24.3506 -114.306
c-3.38867 -19.709 -6.84961 -43.0566 -6.83301 -66.7803c0.0107422 -21.957 3.44434 -42.6191 8.94922 -53.9053c3.79297 -7.78613 6.95508 -8.25684 8.14551 -8.43359c13.6289 -2.23145 45.2891 31.5215 57.5723 102.909zM120.129 618.326l-2.58789 30.3477
c-1.3125 15.4502 -1.94336 23.9062 -1.94336 47.0596v30.458h60.916v-30.458c0 -21.5918 0.576172 -28.3809 1.72852 -41.8984l2.58105 -30.3477z" />
    <glyph glyph-name="Agrave" unicode="&#xc0;" horiz-adv-x="351" 
d="M83.3926 762.681l-27.5566 -12.9795l-25.9609 55.1074l27.5566 12.9805c66.9307 31.5264 127.204 53.4395 195.441 71.0498l29.4941 7.61426l15.2236 -58.9834l-29.4893 -7.60938c-64.3994 -16.6191 -121.367 -37.3359 -184.709 -67.1797zM333.037 11.4141
l1.14062 -30.4443l-60.8721 -2.29297l-1.14648 30.4355c-1.15723 30.7129 -1.77734 67.7061 -2.44141 106.864c-0.858398 50.8037 -1.83301 107.312 -4.14258 164.102c-37.4414 0.21582 -89.3584 0.0722656 -136.181 -0.0546875
c-16.2148 -0.0439453 -31.8701 -0.0878906 -46.2246 -0.115234c-4.34766 -92.0439 -4.29199 -183.424 -4.24219 -251.971l0.00585938 -50.0615h-60.916l-0.00585938 50.0176c-0.0722656 106.653 -0.182617 267.815 16.1094 404.052
c13.834 115.641 43.7383 269.376 143.275 269.376c132.57 0 147.827 -264.625 153.232 -584.312c0.65332 -38.8311 1.27344 -75.5137 2.4082 -105.595zM129.223 340.945c45.543 0.12207 95.8584 0.265625 133.306 0.0722656
c-2.81836 46.125 -6.84961 91.1416 -12.7803 132.055c-21.8965 151.027 -57.8975 167.331 -72.3564 167.331c-13.3682 0 -58.8447 -15.5498 -82.7852 -215.687c-3.23926 -27.0859 -5.80371 -55.2793 -7.84766 -83.8818
c13.3184 0.0273438 27.6445 0.0664062 42.4639 0.110352z" />
    <glyph glyph-name="AE" unicode="&#xc6;" horiz-adv-x="473" 
d="M436.31 35.5635l30.4277 1.40039l2.83008 -60.8496l-30.4248 -1.41211c-9.38672 -0.4375 -25.0146 -0.576172 -42.6914 -0.576172c-20.6562 0 -44.1143 0.193359 -63.6797 0.359375c-11.8955 0.0996094 -21.6699 0.182617 -27.1963 0.182617h-30.458v0.0166016
l-2.58105 -0.0439453l-0.509766 30.4521c-0.0830078 4.97852 -0.160156 9.91309 -0.237305 14.875c-0.918945 28.4033 -1.47852 61.3369 -2.06543 95.9922c-0.858398 50.8037 -1.83301 107.317 -4.14258 164.107c-37.4414 0.21582 -89.3584 0.0722656 -136.187 -0.0546875
c-16.2148 -0.0439453 -31.8701 -0.0878906 -46.2246 -0.115234c-4.34766 -92.0439 -4.29199 -183.424 -4.24219 -251.971l0.00585938 -50.0615h-60.916l-0.00585938 50.0176c-0.0722656 106.653 -0.182617 267.815 16.1094 404.052
c13.833 115.641 43.7314 269.376 143.269 269.376c41.3066 0 71.2217 -25.7012 93.002 -70.7461c0.105469 8.89355 0.210938 17.7988 0.327148 26.7314v39.2188h30.458c5.6875 0 15.3564 0.0771484 27.1406 0.176758c34.0352 0.288086 85.4648 0.731445 111.388 -0.199219
l30.4414 -1.07422l-2.16016 -60.877l-30.4414 1.08008c-23.9844 0.852539 -72.6953 0.470703 -106.172 0.182617c-1.20215 -99.8691 -1.7334 -197.103 -1.58398 -294.419c26.5488 -0.271484 65.7285 -0.609375 83.3389 0.21582l30.4248 1.42871l2.85742 -60.8496
l-30.4248 -1.42871c-9.44238 -0.443359 -23.5967 -0.586914 -38.9199 -0.586914c-15.7441 0 -32.7119 0.160156 -47.0879 0.303711c0.360352 -80.6582 1.18555 -161.837 2.48145 -245.048c0.277344 0 0.542969 -0.00585938 0.825195 -0.00585938
c33.5811 -0.288086 84.335 -0.708984 103.025 0.149414zM129.218 340.946c45.5488 0.12207 95.8584 0.265625 133.306 0.0722656c-2.81836 46.125 -6.84473 91.1416 -12.7754 132.055c-21.9023 151.027 -57.9033 167.331 -72.3623 167.331
c-13.3682 0 -58.8447 -15.5498 -82.7852 -215.687c-3.23926 -27.0859 -5.80371 -55.2793 -7.84668 -83.8818c13.3184 0.0273438 27.6445 0.0664062 42.4639 0.110352z" />
    <glyph glyph-name="Ccedilla" unicode="&#xc7;" horiz-adv-x="292" 
d="M286.104 130.504c-9.54688 -86.9492 -43.9326 -124.823 -74.0254 -141.243c4.93457 -26.3818 10.9707 -53.0742 18.4248 -81.1514l7.81348 -29.4395l-58.8779 -15.6221l-7.81348 29.4336c-7.80859 29.4229 -14.1494 57.4336 -19.3438 85.123
c-62.1846 7.57031 -104.543 74.168 -126.046 198.403c-15.7109 90.7871 -14.9131 201.067 2.1875 302.576c5.99219 35.5635 40.7695 212.974 137.283 213.007h0.0322266c54.3154 0 93.6172 -51.8838 105.152 -138.806l4.00977 -30.1924l-60.3896 -8.01367l-4.00391 30.1924
c-6.60156 49.7852 -25.4297 85.9082 -44.7676 85.9082h-0.00585938c-26.5928 -0.0107422 -62.6826 -75.8066 -77.2363 -162.213c-16.0039 -94.9902 -16.8184 -197.795 -2.23145 -282.059c12.4043 -71.6875 31.9863 -120.104 55.3779 -139.32
c-1.94922 16.5361 -3.5332 33.2656 -4.76855 50.4277l-2.1875 30.375l60.7607 4.375l2.1875 -30.3809c1.01367 -14.0771 2.32617 -27.8223 3.84375 -41.4395c11.9062 17.2559 20.4346 43.6211 24.0674 76.71l3.32227 30.2754l60.5566 -6.64551z" />
    <glyph glyph-name="Egrave" unicode="&#xc8;" horiz-adv-x="232" 
d="M248.492 925.139l15.2236 -58.9824l-29.4893 -7.60938c-64.3994 -16.6191 -121.367 -37.3359 -184.709 -67.1797l-27.5566 -12.9805l-25.9609 55.1074l27.5566 12.9805c66.9307 31.5264 127.204 53.4395 195.441 71.0498zM197.478 635.633
c-23.9844 0.852539 -72.7002 0.472656 -106.182 0.173828c-1.20215 -99.8633 -1.7334 -197.091 -1.58398 -294.424c26.5488 -0.271484 65.7344 -0.603516 83.3389 0.22168l30.4248 1.42871l2.85742 -60.8496l-30.4248 -1.42871
c-9.44238 -0.443359 -23.5967 -0.586914 -38.9141 -0.586914c-15.7441 0 -32.7119 0.160156 -47.0879 0.303711c0.360352 -80.6533 1.18555 -161.827 2.48145 -245.05c0.282227 0 0.542969 -0.00585938 0.825195 -0.00585938
c33.5811 -0.288086 84.335 -0.708984 103.025 0.149414l30.4248 1.41211l2.83008 -60.8496l-30.4248 -1.41211c-9.38672 -0.4375 -25.0195 -0.576172 -42.6904 -0.576172c-20.6621 0 -44.1201 0.193359 -63.6855 0.359375
c-11.8955 0.0996094 -21.6699 0.182617 -27.1963 0.182617h-30.458v0.0166016l-2.58105 -0.0439453l-0.509766 30.4521c-3.74902 223.468 -4.15918 430.898 -1.30176 652.201v39.2188h30.458c5.69336 0 15.3623 0.0771484 27.1465 0.176758
c34.0352 0.288086 85.4707 0.731445 111.388 -0.199219l30.4414 -1.07422l-2.16016 -60.877z" />
    <glyph glyph-name="Igrave" unicode="&#xcc;" horiz-adv-x="122" 
d="M159.492 925.139l15.2236 -58.9824l-29.4893 -7.60938c-64.3994 -16.6191 -121.367 -37.3359 -184.709 -67.1797l-27.5566 -12.9805l-25.9609 55.1074l27.5566 12.9805c66.9307 31.5264 127.204 53.4395 195.441 71.0498zM92.2021 662.403
c-2.93457 -225.971 -2.54688 -437.317 1.22949 -665.11l0.503906 -30.4521l-60.9102 -1.00781l-0.503906 30.4521c-3.78223 228.408 -4.17578 440.33 -1.22949 666.91l0.393555 30.458l60.9102 -0.797852z" />
    <glyph glyph-name="Ntilde" unicode="&#xd1;" horiz-adv-x="338" 
d="M104.475 828.16l-27.5566 -12.9766l-25.9609 55.1074l27.5449 12.9697c41.7832 19.6924 76.0342 8.7168 103.562 -0.116211c22.4443 -7.19922 41.8271 -13.3906 67.6279 -6.75586l29.4941 7.61426l15.2236 -58.9834l-29.4893 -7.60938
c-13.291 -3.42773 -25.585 -4.7959 -36.998 -4.7959c-25.3906 0 -46.4346 6.75098 -64.4434 12.5215c-26.2988 8.43457 -39.7891 12.0732 -59.0049 3.02441zM308.682 -12.7051l0.438477 -30.9023h-30.8955c-77.4248 0 -108.071 145.02 -155.586 401.327
c-9.54199 51.4795 -20.751 111.947 -32.2803 163.543c-1.01367 -174.586 -0.288086 -344.193 2.2041 -524.073l0.420898 -30.458l-60.9102 -0.835938l-0.420898 30.4521c-3.16797 228.79 -3.48926 441 -1.01367 667.846l0.327148 29.8105l29.8047 0.321289h0.547852
c58.4131 0 79.4238 -100.041 121.218 -325.497c15.5557 -83.9316 31.6426 -170.721 49.8672 -238.979c5.01172 -18.7783 9.75195 -34.4453 14.1602 -47.5146c-2.13184 196.371 -2.10938 383.245 0.0390625 580.785l0.332031 30.458l60.916 -0.664062l-0.332031 -30.4521
c-2.49219 -228.906 -2.12109 -443.441 1.16309 -675.166z" />
    <glyph glyph-name="Ograve" unicode="&#xd2;" horiz-adv-x="322" 
d="M58.5186 791.366l-27.5566 -12.9795l-25.9609 55.1074l27.5566 12.9805c66.9307 31.5264 127.204 53.4395 195.441 71.0498l29.4941 7.61426l15.2236 -58.9834l-29.4893 -7.60938c-64.3994 -16.6191 -121.367 -37.3359 -184.709 -67.1797zM306.037 376.828
c3.78809 -101.984 -7.31445 -202.159 -30.4629 -274.815c-2.65234 -8.30078 -5.44336 -16.292 -8.30664 -23.7676c-10.4775 -27.3398 -22.4111 -49.1367 -35.4639 -64.7754c-19.0449 -22.832 -43.0127 -34.8379 -67.7275 -34.8379
c-10.5498 0 -21.2324 2.1875 -31.7324 6.65137c-30.9395 13.1582 -57.9365 44.6738 -78.0723 91.1475c-19.4492 44.8623 -32.3691 102.456 -36.3789 162.148c-10.1729 151.51 8.82227 254.796 26.5547 314.76c24.6377 83.3447 61.0264 132.609 102.46 138.723
c24.665 3.60547 48.4277 -3.36621 68.7354 -20.251c79.6621 -66.2266 89.5303 -271.763 90.3945 -294.982zM217.527 120.514c21.1045 66.2158 31.1777 158.815 27.6338 254.055c-3.59961 96.79 -28.8193 217.442 -68.4648 250.403
c-6.90039 5.73145 -12.582 7.12109 -17.1172 7.12109c-1.36816 0 -2.63086 -0.126953 -3.78809 -0.298828c-5.25586 -1.05176 -31.417 -21.752 -53.502 -97.6475c-22.6387 -77.7842 -31.0283 -181.303 -23.624 -291.489c3.55566 -52.9248 14.7363 -103.357 31.4883 -142.006
c19.0557 -43.9707 38.5322 -56.126 46.0195 -59.3105c4.67969 -1.98828 14.4316 -6.11914 28.8525 11.1533c8.62207 10.3389 17.3887 26.7803 25.3525 47.5469c2.45312 6.39062 4.85645 13.2793 7.14941 20.4727z" />
    <glyph glyph-name="Oslash" unicode="&#xd8;" horiz-adv-x="323" 
d="M305.999 376.827c3.78809 -101.996 -7.31445 -202.162 -30.4678 -274.812c-2.65234 -8.30078 -5.44336 -16.292 -8.30664 -23.7686c-10.4775 -27.3398 -22.4111 -49.1367 -35.4639 -64.7754c-19.0449 -22.832 -43.0127 -34.8379 -67.7285 -34.8379
c-10.2783 0 -20.6729 2.11523 -30.9121 6.3457c-13.5566 -62.334 -25.502 -107.75 -35.0938 -129.514l-12.2832 -27.8721l-55.7441 24.5654l12.2832 27.8721c9.72949 22.0908 23.0703 76.8877 38.083 149.61c-9.61328 13.2578 -18.3906 28.9072 -26.1377 46.7891
c-19.4434 44.8564 -32.3633 102.444 -36.3779 162.143c-10.1729 151.515 8.82227 254.801 26.5547 314.765c24.6377 83.3447 61.0264 132.609 102.46 138.723c16.6084 2.42578 32.79 -0.0605469 47.8086 -7.02734c3.85449 24.0566 7.34863 45.9531 10.3887 64.998
c8.53906 53.4844 14.1768 88.8271 16.0703 98.7568l5.7041 29.9209l59.8418 -11.4082l-5.7041 -29.915c-1.72266 -9.03809 -7.60938 -45.9141 -15.7559 -96.9561c-5.74805 -36.0176 -11.5459 -72.207 -17.3721 -108.286c50.2559 -85.9307 57.4219 -235.695 58.1533 -255.315
zM99.7764 128.358c28.9355 153.243 60.7061 344.941 84.0869 489.501c-2.34277 2.69141 -4.74609 5.07227 -7.19922 7.11523c-6.90039 5.73145 -12.582 7.12109 -17.1172 7.12109c-1.36816 0 -2.63086 -0.126953 -3.78809 -0.298828
c-5.25586 -1.05176 -31.417 -21.752 -53.502 -97.6475c-22.6387 -77.7842 -31.0283 -181.303 -23.624 -291.489c2.75781 -41.0801 10.1621 -80.5762 21.1436 -114.302zM217.488 120.518c21.1045 66.2051 31.1768 158.811 27.6328 254.05
c-1.61719 43.4551 -7.60352 91.7119 -17.2891 134.696c-28.7471 -174.841 -57.1895 -339.558 -81.6943 -461.728c4.23047 -3.36133 7.68652 -5.21094 9.99609 -6.19141c4.67969 -1.98828 14.4316 -6.11914 28.8525 11.1533c8.62207 10.3389 17.3887 26.7803 25.3525 47.5469
c2.45312 6.39062 4.85645 13.2793 7.14941 20.4727z" />
    <glyph glyph-name="Ugrave" unicode="&#xd9;" horiz-adv-x="347" 
d="M90.7979 791.366l-27.5566 -12.9795l-25.9609 55.1074l27.5566 12.9805c66.9307 31.5264 127.204 53.4395 195.441 71.0498l29.4941 7.61426l15.2236 -58.9834l-29.4893 -7.60938c-64.3994 -16.6191 -121.367 -37.3359 -184.709 -67.1797zM324.14 683.756
c6.6123 -409.068 -19.9648 -621.488 -86.1748 -688.772c-16.3809 -16.6465 -36.123 -25.4463 -57.1055 -25.4463c-25.8613 0 -49.9951 11.0586 -69.7871 31.9805c-108.348 114.539 -93.2021 547.254 -85.9805 677.149l1.69434 30.4082l60.8223 -3.37793l-1.68945 -30.4141
c-10.8926 -195.923 -8.5332 -549.497 69.4121 -631.9c10.9648 -11.5908 19.8252 -12.9307 25.5352 -12.9307c1.79395 0 6.55078 0 13.6895 7.25488c17.2334 17.5166 48.2393 76.2178 62.25 272.545c8.99316 125.991 8.15723 265.262 6.42383 372.519l-0.493164 30.4521
l60.9102 0.985352z" />
    <glyph glyph-name="germandbls" unicode="&#xdf;" horiz-adv-x="311" 
d="M231.686 326.244c42.4248 -38.4434 61.8184 -102.439 57.6592 -190.197c-3.51074 -73.8525 -38.543 -113.437 -67.3115 -133.633c-32.9941 -23.165 -73.2598 -32.3965 -110.131 -32.3965c-21.2158 0 -41.3125 3.0625 -58.2471 8.2793l-21.1104 6.50684l-0.371094 22.085
c-3.78223 224.93 -4.17578 433.528 -1.22949 656.465l0.249023 18.9668l17.1289 8.14648c39.1689 18.6182 111.587 17.7705 164.988 -15.877c48.1016 -30.3027 76.915 -78.1387 81.1406 -134.696c3.60547 -48.3232 -11.5957 -99.7139 -42.8125 -144.714
c-14.0996 -20.335 -31.4551 -35.957 -49.9678 -48.1074c10.417 -5.40527 20.5342 -12.2334 30.0146 -20.8281zM91.5674 640.299c-1.13477 -92.4375 -1.68555 -182.587 -1.65234 -272.627c35.542 8.24023 85.0225 23.7959 111.671 62.2178
c23.2812 33.5703 34.6836 71.0176 32.1143 105.463c-2.79102 37.3301 -21.0654 67.6553 -52.8633 87.6914c-27.6611 17.4219 -64.6318 21.1816 -89.2695 17.2549zM228.481 138.927c3.26758 68.7139 -9.41992 116.543 -37.7129 142.172
c-29.334 26.5869 -71.8926 25.7393 -100.745 22.4668c0.310547 -89.292 1.18555 -179.032 2.64746 -271.359c27.6445 -3.32227 65.457 -0.21582 94.3428 20.0586c25.6406 18.0039 39.5908 47.1553 41.4678 86.6621z" />
    <glyph glyph-name="agrave" unicode="&#xe0;" horiz-adv-x="353" 
d="M84.3926 762.681l-27.5566 -12.9795l-25.9609 55.1074l27.5566 12.9805c66.9307 31.5264 127.204 53.4395 195.441 71.0498l29.4941 7.61426l15.2236 -58.9834l-29.4893 -7.60938c-64.3994 -16.6191 -121.367 -37.3359 -184.709 -67.1797zM334.037 11.4141
l1.14062 -30.4443l-60.8721 -2.29297l-1.14648 30.4355c-1.15723 30.7129 -1.77734 67.7061 -2.44141 106.864c-0.858398 50.8037 -1.83301 107.312 -4.14258 164.102c-37.4414 0.21582 -89.3584 0.0722656 -136.181 -0.0546875
c-16.2148 -0.0439453 -31.8701 -0.0878906 -46.2246 -0.115234c-4.34766 -92.0439 -4.29199 -183.424 -4.24219 -251.971l0.00585938 -50.0615h-60.916l-0.00585938 50.0176c-0.0722656 106.653 -0.182617 267.815 16.1094 404.052
c13.834 115.641 43.7383 269.376 143.275 269.376c132.57 0 147.827 -264.625 153.232 -584.312c0.65332 -38.8311 1.27344 -75.5137 2.4082 -105.595zM130.223 340.945c45.543 0.12207 95.8584 0.265625 133.306 0.0722656
c-2.81836 46.125 -6.84961 91.1416 -12.7803 132.055c-21.8965 151.027 -57.8975 167.331 -72.3564 167.331c-13.3682 0 -58.8447 -15.5498 -82.7852 -215.687c-3.23926 -27.0859 -5.80371 -55.2793 -7.84766 -83.8818
c13.3184 0.0273438 27.6445 0.0664062 42.4639 0.110352z" />
    <glyph glyph-name="ae" unicode="&#xe6;" horiz-adv-x="474" 
d="M437.31 35.5635l30.4277 1.40039l2.83008 -60.8496l-30.4248 -1.41211c-9.38672 -0.4375 -25.0146 -0.576172 -42.6914 -0.576172c-20.6562 0 -44.1143 0.193359 -63.6797 0.359375c-11.8955 0.0996094 -21.6699 0.182617 -27.1963 0.182617h-30.458v0.0166016
l-2.58105 -0.0439453l-0.509766 30.4521c-0.0830078 4.97852 -0.160156 9.91309 -0.237305 14.875c-0.918945 28.4033 -1.47852 61.3369 -2.06543 95.9922c-0.858398 50.8037 -1.83301 107.317 -4.14258 164.107c-37.4414 0.21582 -89.3584 0.0722656 -136.187 -0.0546875
c-16.2148 -0.0439453 -31.8701 -0.0878906 -46.2246 -0.115234c-4.34766 -92.0439 -4.29199 -183.424 -4.24219 -251.971l0.00585938 -50.0615h-60.916l-0.00585938 50.0176c-0.0722656 106.653 -0.182617 267.815 16.1094 404.052
c13.833 115.641 43.7314 269.376 143.269 269.376c41.3066 0 71.2217 -25.7012 93.002 -70.7461c0.105469 8.89355 0.210938 17.7988 0.327148 26.7314v39.2188h30.458c5.6875 0 15.3564 0.0771484 27.1406 0.176758c34.0352 0.288086 85.4648 0.731445 111.388 -0.199219
l30.4414 -1.07422l-2.16016 -60.877l-30.4414 1.08008c-23.9844 0.852539 -72.6953 0.470703 -106.172 0.182617c-1.20215 -99.8691 -1.7334 -197.103 -1.58398 -294.419c26.5488 -0.271484 65.7285 -0.609375 83.3389 0.21582l30.4248 1.42871l2.85742 -60.8496
l-30.4248 -1.42871c-9.44238 -0.443359 -23.5967 -0.586914 -38.9199 -0.586914c-15.7441 0 -32.7119 0.160156 -47.0879 0.303711c0.360352 -80.6582 1.18555 -161.837 2.48145 -245.048c0.277344 0 0.542969 -0.00585938 0.825195 -0.00585938
c33.5811 -0.288086 84.335 -0.708984 103.025 0.149414zM130.218 340.946c45.5488 0.12207 95.8584 0.265625 133.306 0.0722656c-2.81836 46.125 -6.84473 91.1416 -12.7754 132.055c-21.9023 151.027 -57.9033 167.331 -72.3623 167.331
c-13.3682 0 -58.8447 -15.5498 -82.7852 -215.687c-3.23926 -27.0859 -5.80371 -55.2793 -7.84668 -83.8818c13.3184 0.0273438 27.6445 0.0664062 42.4639 0.110352z" />
    <glyph glyph-name="ccedilla" unicode="&#xe7;" horiz-adv-x="294" 
d="M287.104 130.504c-9.54688 -86.9492 -43.9326 -124.823 -74.0254 -141.243c4.93457 -26.3818 10.9707 -53.0742 18.4248 -81.1514l7.81348 -29.4395l-58.8779 -15.6221l-7.81348 29.4336c-7.80859 29.4229 -14.1494 57.4336 -19.3438 85.123
c-62.1846 7.57031 -104.543 74.168 -126.046 198.403c-15.7109 90.7871 -14.9131 201.067 2.1875 302.576c5.99219 35.5635 40.7695 212.974 137.283 213.007h0.0322266c54.3154 0 93.6172 -51.8838 105.152 -138.806l4.00977 -30.1924l-60.3896 -8.01367l-4.00391 30.1924
c-6.60156 49.7852 -25.4297 85.9082 -44.7676 85.9082h-0.00585938c-26.5928 -0.0107422 -62.6826 -75.8066 -77.2363 -162.213c-16.0039 -94.9902 -16.8184 -197.795 -2.23145 -282.059c12.4043 -71.6875 31.9863 -120.104 55.3779 -139.32
c-1.94922 16.5361 -3.5332 33.2656 -4.76855 50.4277l-2.1875 30.375l60.7607 4.375l2.1875 -30.3809c1.01367 -14.0771 2.32617 -27.8223 3.84375 -41.4395c11.9062 17.2559 20.4346 43.6211 24.0674 76.71l3.32227 30.2754l60.5566 -6.64551z" />
    <glyph glyph-name="egrave" unicode="&#xe8;" horiz-adv-x="234" 
d="M249.492 925.139l15.2236 -58.9824l-29.4893 -7.60938c-64.3994 -16.6191 -121.367 -37.3359 -184.709 -67.1797l-27.5566 -12.9805l-25.9609 55.1074l27.5566 12.9805c66.9307 31.5264 127.204 53.4395 195.441 71.0498zM198.478 635.633
c-23.9844 0.852539 -72.7002 0.472656 -106.182 0.173828c-1.20215 -99.8633 -1.7334 -197.091 -1.58398 -294.424c26.5488 -0.271484 65.7344 -0.603516 83.3389 0.22168l30.4248 1.42871l2.85742 -60.8496l-30.4248 -1.42871
c-9.44238 -0.443359 -23.5967 -0.586914 -38.9141 -0.586914c-15.7441 0 -32.7119 0.160156 -47.0879 0.303711c0.360352 -80.6533 1.18555 -161.827 2.48145 -245.05c0.282227 0 0.542969 -0.00585938 0.825195 -0.00585938
c33.5811 -0.288086 84.335 -0.708984 103.025 0.149414l30.4248 1.41211l2.83008 -60.8496l-30.4248 -1.41211c-9.38672 -0.4375 -25.0195 -0.576172 -42.6904 -0.576172c-20.6621 0 -44.1201 0.193359 -63.6855 0.359375
c-11.8955 0.0996094 -21.6699 0.182617 -27.1963 0.182617h-30.458v0.0166016l-2.58105 -0.0439453l-0.509766 30.4521c-3.74902 223.468 -4.15918 430.898 -1.30176 652.201v39.2188h30.458c5.69336 0 15.3623 0.0771484 27.1465 0.176758
c34.0352 0.288086 85.4707 0.731445 111.388 -0.199219l30.4414 -1.07422l-2.16016 -60.877z" />
    <glyph glyph-name="igrave" unicode="&#xec;" horiz-adv-x="122" 
d="M159.492 925.139l15.2236 -58.9824l-29.4893 -7.60938c-64.3994 -16.6191 -121.367 -37.3359 -184.709 -67.1797l-27.5566 -12.9805l-25.9609 55.1074l27.5566 12.9805c66.9307 31.5264 127.204 53.4395 195.441 71.0498zM92.2021 662.403
c-2.93457 -225.971 -2.54688 -437.317 1.22949 -665.11l0.503906 -30.4521l-60.9102 -1.00781l-0.503906 30.4521c-3.78223 228.408 -4.17578 440.33 -1.22949 666.91l0.393555 30.458l60.9102 -0.797852z" />
    <glyph glyph-name="ntilde" unicode="&#xf1;" horiz-adv-x="339" 
d="M105.475 828.16l-27.5566 -12.9766l-25.9609 55.1074l27.5449 12.9697c41.7832 19.6924 76.0342 8.7168 103.562 -0.116211c22.4443 -7.19922 41.8271 -13.3906 67.6279 -6.75586l29.4941 7.61426l15.2236 -58.9834l-29.4893 -7.60938
c-13.291 -3.42773 -25.585 -4.7959 -36.998 -4.7959c-25.3906 0 -46.4346 6.75098 -64.4434 12.5215c-26.2988 8.43457 -39.7891 12.0732 -59.0049 3.02441zM309.682 -12.7051l0.438477 -30.9023h-30.8955c-77.4248 0 -108.071 145.02 -155.586 401.327
c-9.54199 51.4795 -20.751 111.947 -32.2803 163.543c-1.01367 -174.586 -0.288086 -344.193 2.2041 -524.073l0.420898 -30.458l-60.9102 -0.835938l-0.420898 30.4521c-3.16797 228.79 -3.48926 441 -1.01367 667.846l0.327148 29.8105l29.8047 0.321289h0.547852
c58.4131 0 79.4238 -100.041 121.218 -325.497c15.5557 -83.9316 31.6426 -170.721 49.8672 -238.979c5.01172 -18.7783 9.75195 -34.4453 14.1602 -47.5146c-2.13184 196.371 -2.10938 383.245 0.0390625 580.785l0.332031 30.458l60.916 -0.664062l-0.332031 -30.4521
c-2.49219 -228.906 -2.12109 -443.441 1.16309 -675.166z" />
    <glyph glyph-name="ograve" unicode="&#xf2;" horiz-adv-x="324" 
d="M59.5186 791.366l-27.5566 -12.9795l-25.9609 55.1074l27.5566 12.9805c66.9307 31.5264 127.204 53.4395 195.441 71.0498l29.4941 7.61426l15.2236 -58.9834l-29.4893 -7.60938c-64.3994 -16.6191 -121.367 -37.3359 -184.709 -67.1797zM307.037 376.828
c3.78809 -101.984 -7.31445 -202.159 -30.4629 -274.815c-2.65234 -8.30078 -5.44336 -16.292 -8.30664 -23.7676c-10.4775 -27.3398 -22.4111 -49.1367 -35.4639 -64.7754c-19.0449 -22.832 -43.0127 -34.8379 -67.7275 -34.8379
c-10.5498 0 -21.2324 2.1875 -31.7324 6.65137c-30.9395 13.1582 -57.9365 44.6738 -78.0723 91.1475c-19.4492 44.8623 -32.3691 102.456 -36.3789 162.148c-10.1729 151.51 8.82227 254.796 26.5547 314.76c24.6377 83.3447 61.0264 132.609 102.46 138.723
c24.665 3.60547 48.4277 -3.36621 68.7354 -20.251c79.6621 -66.2266 89.5303 -271.763 90.3945 -294.982zM218.527 120.514c21.1045 66.2158 31.1777 158.815 27.6338 254.055c-3.59961 96.79 -28.8193 217.442 -68.4648 250.403
c-6.90039 5.73145 -12.582 7.12109 -17.1172 7.12109c-1.36816 0 -2.63086 -0.126953 -3.78809 -0.298828c-5.25586 -1.05176 -31.417 -21.752 -53.502 -97.6475c-22.6387 -77.7842 -31.0283 -181.303 -23.624 -291.489c3.55566 -52.9248 14.7363 -103.357 31.4883 -142.006
c19.0557 -43.9707 38.5322 -56.126 46.0195 -59.3105c4.67969 -1.98828 14.4316 -6.11914 28.8525 11.1533c8.62207 10.3389 17.3887 26.7803 25.3525 47.5469c2.45312 6.39062 4.85645 13.2793 7.14941 20.4727z" />
    <glyph glyph-name="divide" unicode="&#xf7;" horiz-adv-x="369" 
d="M288.16 360.084l30.376 -2.23633l-4.48047 -60.7559l-30.375 2.2373c-66.3486 4.88477 -126.938 3.5166 -196.488 -4.44727l-30.2588 -3.47266l-6.93359 60.5225l30.2588 3.4668c73.4873 8.42871 137.609 9.86328 207.901 4.68555zM210.232 411.104l-7.08691 -29.6211
l-59.2441 14.166l7.08301 29.627c2.90137 12.1221 5.21582 24.9922 6.88281 38.2607l3.79883 30.2197l60.4395 -7.60352l-3.79883 -30.2197c-1.94336 -15.4619 -4.65723 -30.5469 -8.07422 -44.8291zM157.868 258.76l3.79883 30.2197l60.4395 -7.60352l-3.80469 -30.2197
c-1.94336 -15.4668 -4.66211 -30.5518 -8.07324 -44.8281l-7.08301 -29.6221l-59.2441 14.166l7.08301 29.627c2.89648 12.1172 5.2168 24.9922 6.88379 38.2607z" />
    <glyph glyph-name="oslash" unicode="&#xf8;" horiz-adv-x="324" 
d="M306.999 376.827c3.78809 -101.996 -7.31445 -202.162 -30.4678 -274.812c-2.65234 -8.30078 -5.44336 -16.292 -8.30664 -23.7686c-10.4775 -27.3398 -22.4111 -49.1367 -35.4639 -64.7754c-19.0449 -22.832 -43.0127 -34.8379 -67.7285 -34.8379
c-10.2783 0 -20.6729 2.11523 -30.9121 6.3457c-13.5566 -62.334 -25.502 -107.75 -35.0938 -129.514l-12.2832 -27.8721l-55.7441 24.5654l12.2832 27.8721c9.72949 22.0908 23.0703 76.8877 38.083 149.61c-9.61328 13.2578 -18.3906 28.9072 -26.1377 46.7891
c-19.4434 44.8564 -32.3633 102.444 -36.3779 162.143c-10.1729 151.515 8.82227 254.801 26.5547 314.765c24.6377 83.3447 61.0264 132.609 102.46 138.723c16.6084 2.42578 32.79 -0.0605469 47.8086 -7.02734c3.85449 24.0566 7.34863 45.9531 10.3887 64.998
c8.53906 53.4844 14.1768 88.8271 16.0703 98.7568l5.7041 29.9209l59.8418 -11.4082l-5.7041 -29.915c-1.72266 -9.03809 -7.60938 -45.9141 -15.7559 -96.9561c-5.74805 -36.0176 -11.5459 -72.207 -17.3721 -108.286c50.2559 -85.9307 57.4219 -235.695 58.1533 -255.315
zM100.776 128.358c28.9355 153.243 60.7061 344.941 84.0869 489.501c-2.34277 2.69141 -4.74609 5.07227 -7.19922 7.11523c-6.90039 5.73145 -12.582 7.12109 -17.1172 7.12109c-1.36816 0 -2.63086 -0.126953 -3.78809 -0.298828
c-5.25586 -1.05176 -31.417 -21.752 -53.502 -97.6475c-22.6387 -77.7842 -31.0283 -181.303 -23.624 -291.489c2.75781 -41.0801 10.1621 -80.5762 21.1436 -114.302zM218.488 120.518c21.1045 66.2051 31.1768 158.811 27.6328 254.05
c-1.61719 43.4551 -7.60352 91.7119 -17.2891 134.696c-28.7471 -174.841 -57.1895 -339.558 -81.6943 -461.728c4.23047 -3.36133 7.68652 -5.21094 9.99609 -6.19141c4.67969 -1.98828 14.4316 -6.11914 28.8525 11.1533c8.62207 10.3389 17.3887 26.7803 25.3525 47.5469
c2.45312 6.39062 4.85645 13.2793 7.14941 20.4727z" />
    <glyph glyph-name="ugrave" unicode="&#xf9;" horiz-adv-x="349" 
d="M91.7979 791.366l-27.5566 -12.9795l-25.9609 55.1074l27.5566 12.9805c66.9307 31.5264 127.204 53.4395 195.441 71.0498l29.4941 7.61426l15.2236 -58.9834l-29.4893 -7.60938c-64.3994 -16.6191 -121.367 -37.3359 -184.709 -67.1797zM325.14 683.756
c6.6123 -409.068 -19.9648 -621.488 -86.1748 -688.772c-16.3809 -16.6465 -36.123 -25.4463 -57.1055 -25.4463c-25.8613 0 -49.9951 11.0586 -69.7871 31.9805c-108.348 114.539 -93.2021 547.254 -85.9805 677.149l1.69434 30.4082l60.8223 -3.37793l-1.68945 -30.4141
c-10.8926 -195.923 -8.5332 -549.497 69.4121 -631.9c10.9648 -11.5908 19.8252 -12.9307 25.5352 -12.9307c1.79395 0 6.55078 0 13.6895 7.25488c17.2334 17.5166 48.2393 76.2178 62.25 272.545c8.99316 125.991 8.15723 265.262 6.42383 372.519l-0.493164 30.4521
l60.9102 0.985352z" />
    <glyph glyph-name="OE" unicode="&#x152;" horiz-adv-x="500" 
d="M463.426 35.5635l30.4199 1.4043l2.83008 -60.8496l-30.4248 -1.41211c-9.38672 -0.4375 -25.0195 -0.576172 -42.6904 -0.576172c-20.6621 0 -44.1201 0.193359 -63.6855 0.359375c-11.8955 0.0996094 -21.6699 0.182617 -27.1963 0.182617h-30.458v0.0166016
l-2.58105 -0.0439453l-0.509766 30.4521c-1.09082 64.9473 -1.89355 128.521 -2.41992 191.492c-5.17773 -34.6113 -12.2773 -66.6426 -21.1826 -94.5811c-2.65234 -8.3125 -5.44336 -16.3037 -8.30664 -23.7686c-10.4717 -27.3398 -22.4053 -49.1367 -35.4639 -64.7812
c-19.0391 -22.8271 -43.0068 -34.833 -67.7227 -34.833c-10.5498 0 -21.2324 2.18164 -31.7324 6.65039c-30.9395 13.1582 -57.9365 44.6738 -78.0771 91.1475c-19.4434 44.8672 -32.3633 102.455 -36.373 162.147c-10.1787 151.51 8.81641 254.796 26.5488 314.765
c24.6436 83.3389 61.0322 132.604 102.466 138.717c24.6602 3.60547 48.4287 -3.36621 68.7363 -20.251c47.0215 -39.0918 69.7158 -126.694 80.6035 -196.715c0.288086 60.0908 0.825195 120.613 1.62305 182.211v39.2188h30.458
c5.69336 0 15.3623 0.0771484 27.1465 0.176758c34.0352 0.288086 85.4707 0.731445 111.388 -0.199219l30.4414 -1.07422l-2.16016 -60.877l-30.4414 1.08008c-23.9902 0.852539 -72.7012 0.470703 -106.178 0.182617
c-1.20215 -99.8633 -1.7334 -197.091 -1.58398 -294.424c26.5537 -0.271484 65.7285 -0.603516 83.3389 0.22168l30.4248 1.42871l2.85742 -60.8496l-30.4248 -1.42871c-9.44238 -0.443359 -23.5967 -0.586914 -38.9141 -0.586914
c-15.7441 0 -32.7119 0.160156 -47.0879 0.303711c0.360352 -80.6533 1.18555 -161.827 2.48145 -245.05c0.282227 0 0.542969 -0.00585938 0.825195 -0.00585938c33.5811 -0.288086 84.335 -0.708984 103.025 0.149414zM217.497 120.522
c21.1045 66.2158 31.1777 158.813 27.6338 254.053c-3.59375 96.79 -28.8135 217.438 -68.459 250.404c-6.90039 5.73145 -12.582 7.12109 -17.1172 7.12109c-1.36816 0 -2.63086 -0.126953 -3.78809 -0.298828c-5.26074 -1.05176 -31.416 -21.752 -53.5068 -97.6475
c-22.6387 -77.7842 -31.0283 -181.303 -23.624 -291.483c3.55566 -52.9307 14.7422 -103.363 31.4883 -142.018c19.0557 -43.9648 38.5264 -56.1201 46.0195 -59.3047c4.67383 -1.98828 14.4258 -6.11914 28.8467 11.1533c8.63379 10.3389 17.3945 26.7803 25.3525 47.5469
l0.00585938 0.0107422c2.44727 6.37402 4.85059 13.2578 7.14844 20.4629z" />
    <glyph glyph-name="oe" unicode="&#x153;" horiz-adv-x="501" 
d="M464.426 35.5635l30.4199 1.4043l2.83008 -60.8496l-30.4248 -1.41211c-9.38672 -0.4375 -25.0195 -0.576172 -42.6904 -0.576172c-20.6621 0 -44.1201 0.193359 -63.6855 0.359375c-11.8955 0.0996094 -21.6699 0.182617 -27.1963 0.182617h-30.458v0.0166016
l-2.58105 -0.0439453l-0.509766 30.4521c-1.09082 64.9473 -1.89355 128.521 -2.41992 191.492c-5.17773 -34.6113 -12.2773 -66.6426 -21.1826 -94.5811c-2.65234 -8.3125 -5.44336 -16.3037 -8.30664 -23.7686c-10.4717 -27.3398 -22.4053 -49.1367 -35.4639 -64.7812
c-19.0391 -22.8271 -43.0068 -34.833 -67.7227 -34.833c-10.5498 0 -21.2324 2.18164 -31.7324 6.65039c-30.9395 13.1582 -57.9365 44.6738 -78.0771 91.1475c-19.4434 44.8672 -32.3633 102.455 -36.373 162.147c-10.1787 151.51 8.81641 254.796 26.5488 314.765
c24.6436 83.3389 61.0322 132.604 102.466 138.717c24.6602 3.60547 48.4287 -3.36621 68.7363 -20.251c47.0215 -39.0918 69.7158 -126.694 80.6035 -196.715c0.288086 60.0908 0.825195 120.613 1.62305 182.211v39.2188h30.458
c5.69336 0 15.3623 0.0771484 27.1465 0.176758c34.0352 0.288086 85.4707 0.731445 111.388 -0.199219l30.4414 -1.07422l-2.16016 -60.877l-30.4414 1.08008c-23.9902 0.852539 -72.7012 0.470703 -106.178 0.182617
c-1.20215 -99.8633 -1.7334 -197.091 -1.58398 -294.424c26.5537 -0.271484 65.7285 -0.603516 83.3389 0.22168l30.4248 1.42871l2.85742 -60.8496l-30.4248 -1.42871c-9.44238 -0.443359 -23.5967 -0.586914 -38.9141 -0.586914
c-15.7441 0 -32.7119 0.160156 -47.0879 0.303711c0.360352 -80.6533 1.18555 -161.827 2.48145 -245.05c0.282227 0 0.542969 -0.00585938 0.825195 -0.00585938c33.5811 -0.288086 84.335 -0.708984 103.025 0.149414zM218.497 120.522
c21.1045 66.2158 31.1777 158.813 27.6338 254.053c-3.59375 96.79 -28.8135 217.438 -68.459 250.404c-6.90039 5.73145 -12.582 7.12109 -17.1172 7.12109c-1.36816 0 -2.63086 -0.126953 -3.78809 -0.298828c-5.26074 -1.05176 -31.416 -21.752 -53.5068 -97.6475
c-22.6387 -77.7842 -31.0283 -181.303 -23.624 -291.483c3.55566 -52.9307 14.7422 -103.363 31.4883 -142.018c19.0557 -43.9648 38.5264 -56.1201 46.0195 -59.3047c4.67383 -1.98828 14.4258 -6.11914 28.8467 11.1533c8.63379 10.3389 17.3945 26.7803 25.3525 47.5469
l0.00585938 0.0107422c2.44727 6.37402 4.85059 13.2578 7.14844 20.4629z" />
    <glyph glyph-name="perthousand" unicode="&#x2030;" horiz-adv-x="828" 
d="M407.505 706.476l-7.23828 -29.5889c-22.1572 -90.5879 -40.4268 -172.604 -59.7705 -259.437c-29.1064 -130.665 -59.1992 -265.782 -103.734 -433.053l-7.83594 -29.4277l-58.8672 15.6719l7.83594 29.4277c44.209 166.062 74.1738 300.56 103.143 430.627
c19.4102 87.1436 37.751 169.464 60.0576 260.661l7.23828 29.5889zM191.108 308.731c-13.0586 -15.6504 -29.6289 -23.8564 -46.874 -23.8564c-7.55957 0 -15.2461 1.57227 -22.8223 4.79492c-19.9805 8.49512 -37.0205 27.9385 -49.2812 56.2256
c-11.0479 25.4961 -18.374 58.0195 -20.6279 91.5791c-9.33105 138.861 25.5742 249.768 81.1855 257.975c17.2891 2.56934 33.875 -2.27637 47.9355 -13.9668c46.4238 -38.6045 52.7373 -147.085 53.5352 -168.438c2.09375 -56.2197 -4.09766 -111.659 -16.9844 -152.097
c-1.49512 -4.68457 -3.08398 -9.23145 -4.71777 -13.501v-0.0107422c-6.1748 -16.1035 -13.3574 -29.1289 -21.3486 -38.7041zM159.138 379.45c10.832 33.9971 15.9873 81.8613 14.1543 131.336c-2.34277 62.9707 -19.0508 112.944 -30.4697 123.101
c-12.8203 -14.792 -38.2559 -77.4521 -30.5361 -192.323c1.77734 -26.4043 7.51465 -52.4434 15.7441 -71.4434c5.97559 -13.7891 11.9893 -20.7002 15.4619 -23.3145c0.254883 0.265625 0.532227 0.581055 0.842773 0.946289
c2.07129 2.48633 6.29102 8.58887 11.2363 21.4863c1.25684 3.26172 2.44238 6.67285 3.56641 10.2119zM487.304 380.764c46.4287 -38.5986 52.7432 -147.08 53.5352 -168.434c2.09375 -56.2256 -4.09766 -111.665 -16.9844 -152.103
c-1.48926 -4.67383 -3.0791 -9.23145 -4.72363 -13.5117c-6.16895 -16.0986 -13.3516 -29.124 -21.3486 -38.7041c-13.0586 -15.6504 -29.6279 -23.8574 -46.8672 -23.8574c-7.56445 0 -15.2451 1.57227 -22.8213 4.79492
c-19.9746 8.49512 -37.0205 27.9385 -49.2812 56.2314c-11.0537 25.4961 -18.3799 58.0146 -20.6338 91.5742c-9.32617 138.872 25.584 249.778 81.1953 257.975c17.2891 2.54785 33.8691 -2.27539 47.9297 -13.9658zM465.807 78.7129
c10.8379 34.002 15.9932 81.877 14.1543 131.352c-2.33691 62.9707 -19.0449 112.944 -30.4639 123.101c-12.8203 -14.7803 -38.2559 -77.4404 -30.5361 -192.328c1.77734 -26.3984 7.51465 -52.4316 15.7441 -71.4268c5.97559 -13.7949 11.9893 -20.7061 15.4619 -23.3252
c0.254883 0.271484 0.537109 0.586914 0.841797 0.952148c2.07715 2.48633 6.30273 8.58887 11.2422 21.4805v0.0107422c1.24609 3.25098 2.43164 6.65723 3.55566 10.1846zM777.753 212.324c2.08789 -56.2256 -4.09863 -111.665 -16.9902 -152.097
c-1.49512 -4.69043 -3.08398 -9.23145 -4.71777 -13.501v-0.00585938c-6.16895 -16.1045 -13.3516 -29.1348 -21.3486 -38.7148c-13.0586 -15.6504 -29.6279 -23.8574 -46.8672 -23.8574c-7.55957 0 -15.2461 1.57227 -22.8223 4.79492
c-19.9746 8.49512 -37.0205 27.9385 -49.2812 56.2314c-11.0479 25.4902 -18.374 58.0088 -20.6279 91.5732c-9.33105 138.872 25.5742 249.778 81.1904 257.975c17.2891 2.54785 33.8691 -2.27539 47.9297 -13.9658c46.4238 -38.5928 52.7373 -147.079 53.5352 -168.433z
M702.726 78.7236c10.832 33.9912 15.9932 81.8652 14.1602 131.335c-2.34277 62.9707 -19.0508 112.944 -30.4697 123.101c-12.8203 -14.7803 -38.2559 -77.4404 -30.5361 -192.322c1.77246 -26.4102 7.50977 -52.4434 15.7393 -71.4326
c5.97559 -13.7949 11.9951 -20.7061 15.4619 -23.3252c0.254883 0.265625 0.537109 0.586914 0.841797 0.952148c2.07715 2.48633 6.30273 8.58887 11.2422 21.4805c1.24609 3.26172 2.43652 6.67285 3.56055 10.2119z" />
    <glyph glyph-name="Euro" unicode="&#x20ac;" horiz-adv-x="457" 
d="M347.664 164.106l58.8633 -15.7598l-7.87988 -29.4229c-23.0371 -86.0078 -67.4561 -137.599 -116.277 -137.599c-5.80371 0 -11.668 0.725586 -17.5654 2.21484c-78.0166 19.6484 -107.738 157.851 -114.987 199.733
c-6.27441 36.2285 -9.86816 75.5859 -10.8926 116.229c-16.957 -0.958008 -34.0635 -2.39746 -51.5635 -4.45801l-30.248 -3.56055l-7.11621 60.501l30.248 3.55566c20.0693 2.35938 39.6562 3.96582 59.0771 4.98438c0.21582 5.80957 0.487305 11.624 0.808594 17.4443
c-17.3496 -0.958008 -34.8545 -2.41992 -52.7695 -4.52441l-30.248 -3.56055l-7.11621 60.501l30.248 3.55566c22.1621 2.6084 43.749 4.3418 65.1582 5.31055c1.83887 15.667 4.00977 31.2393 6.5957 46.6016c11.1143 65.9941 27.0742 118.077 47.4316 154.804
c35.3262 63.7178 80.4043 70.1973 110.796 54.9844c19.3662 -9.67969 35.708 -29.123 47.249 -56.2363c12.9424 -30.4082 21.3936 -74.0576 25.126 -129.757l2.03809 -30.3857l-60.7832 -4.07031l-2.03809 30.3916c-3.22852 48.1738 -10.2842 86.1963 -20.3965 109.959
c-6.54004 15.3564 -13.8164 23.3037 -18.4404 25.6182c-4.50195 2.27637 -17.4883 -6.96582 -30.2803 -30.0361c-16.7578 -30.2422 -30.8125 -77.0586 -40.6426 -135.395c-2.00488 -11.8838 -3.76562 -23.8896 -5.29395 -35.9678
c19.0664 -0.53125 38.249 -1.62207 57.8477 -3.43262l30.3311 -2.80762l-5.62109 -60.6562l-30.3311 2.80762c-19.6035 1.81641 -38.7754 2.87988 -57.8369 3.31152c-0.348633 -5.82031 -0.647461 -11.6348 -0.885742 -17.4443
c21.2041 -0.420898 42.5244 -1.59473 64.3438 -3.61035l30.3311 -2.80762l-5.62109 -60.6562l-30.3311 2.80762c-20.0801 1.85547 -39.7002 2.94043 -59.2207 3.34473c0.96875 -37.4521 4.28613 -73.6582 10.0508 -106.946
c16.6582 -96.2529 50.8711 -146.281 69.8438 -151.061c11.585 -2.83496 41.1074 21.1055 60.1191 92.0723z" />
  </font>
</defs>
</svg>
