<?xml version="1.0" standalone="no"?>
<!DOCTYPE svg PUBLIC "-//W3C//DTD SVG 1.1//EN" "http://www.w3.org/Graphics/SVG/1.1/DTD/svg11.dtd" >
<svg xmlns="http://www.w3.org/2000/svg" xmlns:xlink="http://www.w3.org/1999/xlink" version="1.1">
<metadata>
Created by FontForge 20170812 at Wed Jul  6 08:22:18 2022
 By www-data
</metadata>
<defs>
<font id="CompanyRegular" horiz-adv-x="0" >
  <font-face 
    font-family="Company"
    font-weight="400"
    font-stretch="normal"
    units-per-em="1000"
    panose-1="0 0 0 0 0 0 0 0 0 0"
    ascent="800"
    descent="-200"
    x-height="689.073"
    cap-height="674.753"
    bbox="-81 -319.121 1479.19 933.042"
    underline-thickness="50"
    underline-position="-100"
    unicode-range="U+000A-20AC"
  />
<missing-glyph horiz-adv-x="527" 
d="M50 700h427v-700h-427v700zM78 680l185 -309l186 309h-371zM251 350l-180 300v-601zM264 329l-185 -308h370zM276 350l181 -303v605z" />
    <glyph glyph-name=".notdef" horiz-adv-x="527" 
d="M50 700h427v-700h-427v700zM78 680l185 -309l186 309h-371zM251 350l-180 300v-601zM264 329l-185 -308h370zM276 350l181 -303v605z" />
    <glyph glyph-name=".null" 
 />
    <glyph glyph-name=".null" 
 />
    <glyph glyph-name="LF" unicode="&#xa;" 
 />
    <glyph glyph-name="controlCR" unicode="&#xd;" 
 />
    <glyph glyph-name="space" unicode=" " horiz-adv-x="307" 
 />
    <glyph glyph-name="exclam" unicode="!" horiz-adv-x="216" 
d="M157.83 224.876c-0.918945 -25.9668 -93.8789 -24.3496 -93.0215 0c6.4043 181.247 1.46582 362.623 -14.7705 543.255c-2.11426 23.5039 90.6426 26.4746 93.0215 0c16.2363 -180.632 21.1689 -362.008 14.7705 -543.255zM163.98 34.8447
c2.62109 -29.8682 2.24902 -59.5576 -1.09961 -89.3584c-3.04395 -27.0781 -95.5703 -22.6641 -93.0225 0c3.34863 29.8008 3.7207 59.4893 1.09961 89.3574c-2.06348 23.5547 90.7051 26.4473 93.0225 0.000976562z" />
    <glyph glyph-name="quotedbl" unicode="&#x22;" horiz-adv-x="411" 
d="M66.4453 815.049c6.15039 28.042 97.4141 20.0078 93.0225 0c-12.5215 -57.0479 -17.8662 -114.643 -16.124 -173.021c0.738281 -24.7773 -92.2617 -25.5557 -93.0225 0c-1.74219 58.3789 3.60254 115.968 16.124 173.021zM267.396 815.049
c6.15625 28.042 97.4141 20.0078 93.0225 0c-12.5215 -57.0479 -17.8662 -114.643 -16.124 -173.021c0.738281 -24.7773 -92.2617 -25.5557 -93.0225 0c-1.74219 58.3789 3.60254 115.968 16.124 173.021z" />
    <glyph glyph-name="quotedbl" unicode="&#x201d;" horiz-adv-x="411" 
d="M66.4453 815.049c6.15039 28.042 97.4141 20.0078 93.0225 0c-12.5215 -57.0479 -17.8662 -114.643 -16.124 -173.021c0.738281 -24.7773 -92.2617 -25.5557 -93.0225 0c-1.74219 58.3789 3.60254 115.968 16.124 173.021zM267.396 815.049
c6.15625 28.042 97.4141 20.0078 93.0225 0c-12.5215 -57.0479 -17.8662 -114.643 -16.124 -173.021c0.738281 -24.7773 -92.2617 -25.5557 -93.0225 0c-1.74219 58.3789 3.60254 115.968 16.124 173.021z" />
    <glyph glyph-name="quotedbl" unicode="&#x201c;" horiz-adv-x="411" 
d="M66.4453 815.049c6.15039 28.042 97.4141 20.0078 93.0225 0c-12.5215 -57.0479 -17.8662 -114.643 -16.124 -173.021c0.738281 -24.7773 -92.2617 -25.5557 -93.0225 0c-1.74219 58.3789 3.60254 115.968 16.124 173.021zM267.396 815.049
c6.15625 28.042 97.4141 20.0078 93.0225 0c-12.5215 -57.0479 -17.8662 -114.643 -16.124 -173.021c0.738281 -24.7773 -92.2617 -25.5557 -93.0225 0c-1.74219 58.3789 3.60254 115.968 16.124 173.021z" />
    <glyph glyph-name="numbersign" unicode="#" horiz-adv-x="855" 
d="M758.062 399.955c-49.4258 1.28516 -98.8506 2.18457 -148.299 2.80469c-4.54395 -29.4004 -8.88477 -58.8232 -13.04 -88.2803c44.7461 -0.597656 89.4922 -1.41504 134.238 -2.58203c9.00879 -0.236328 46.5107 -1.34668 46.5107 -17.6738
c0 -16.1855 -36.1494 -17.9385 -46.5117 -17.6738c-46.3867 1.20605 -92.7686 2.05762 -139.155 2.65527c-12.4932 -92.1143 -23.165 -184.477 -31.8242 -277.064c-2.50879 -26.8359 -95.1816 -23.0977 -93.0225 0c8.6875 92.8643 19.4043 185.503 31.9424 277.888
c-37.7393 0.158203 -75.4834 0.0683594 -113.223 -0.167969c-12.5273 -92.3291 -23.2334 -184.917 -31.915 -277.725c-2.50879 -26.8359 -95.1816 -23.0977 -93.0225 0c8.64844 92.4697 19.3096 184.72 31.7803 276.722
c-65.3408 -0.986328 -130.676 -2.48633 -196.006 -4.65137c-8.97559 -0.298828 -46.5117 1.71387 -46.5117 17.6738c0 16.6035 36.1094 17.3252 46.5107 17.6748c66.9756 2.21582 133.957 3.74316 200.944 4.71875c4.13281 29.3164 8.45703 58.6045 12.9785 87.8643
c-62.2803 -0.992188 -124.555 -2.45215 -186.829 -4.51562c-8.96973 -0.298828 -46.5107 1.71387 -46.5107 17.6738c0 16.6035 36.1094 17.3311 46.5107 17.6748c64.1006 2.125 128.201 3.61328 192.308 4.59375c13.4004 83.7881 28.3574 167.333 44.9268 250.585
c5.55273 27.9121 97.1094 20.5381 93.0225 0c-16.502 -82.9141 -31.3965 -166.115 -44.7578 -249.559c37.7441 0.253906 75.4883 0.37207 113.232 0.225586c13.3555 83.3701 28.2334 166.498 44.7236 249.333c5.55273 27.9121 97.1094 20.5381 93.0225 0
c-16.541 -83.1055 -31.4697 -166.504 -44.8535 -250.14c47.6104 -0.597656 95.2207 -1.47168 142.831 -2.70605c9.00879 -0.231445 46.5107 -1.34766 46.5107 -17.6748c0 -16.1855 -36.1494 -17.9443 -46.5117 -17.6738zM503.843 315.324
c4.14941 29.4121 8.48828 58.7959 13.0322 88.1572c-37.7441 0.124023 -75.4941 -0.0117188 -113.238 -0.282227c-4.53223 -29.2939 -8.8623 -58.6152 -13.0059 -87.9707c37.7334 0.219727 75.4727 0.270508 113.212 0.0957031z" />
    <glyph glyph-name="dollar" unicode="$" horiz-adv-x="657" 
d="M582.493 262.711c28.3467 -46.1221 34.6152 -104.519 2.77344 -150.641c-31.8193 -46.0879 -89.7412 -69.3994 -142.353 -81.4697c-18.4688 -4.23926 -38.167 -7.40234 -58.5078 -9.34766c0.558594 -31.4863 1.13965 -62.9727 1.82227 -94.459
c0.541016 -24.9355 -92.4697 -25.415 -93.0225 0c-0.682617 31.5713 -1.26855 63.1484 -1.82715 94.7256c-71.0576 7.46387 -140.103 32.5742 -185.593 83.3027c-12.0703 13.457 26.4912 21.0566 32.4844 21.7393c17.4717 1.98438 44.4316 1.91113 57.2119 -12.3408
c24.3945 -27.208 58.7568 -44.5498 95.2217 -52.9785c-1.82129 113.29 -2.8418 226.58 -3.04492 339.875c-9.64062 4.44824 -18.8418 8.66504 -27.3721 12.6562c-78.3643 36.6904 -280.583 113.82 -185.267 230.014c49.1328 59.8896 138.191 80.0781 214.317 87.2207
c0.457031 37.541 0.998047 75.082 1.63477 112.623c0.43457 25.6514 93.4395 24.71 93.0225 0c-0.631836 -37.2988 -1.16699 -74.5918 -1.62402 -111.891c32.1748 -3.41602 63.7012 -11.2354 93.6934 -25.127c42.2773 -19.5801 86.1777 -50.0459 96.8213 -98.2031
c4.48242 -20.2842 -86.8877 -27.7598 -93.0215 0c-9.20117 41.6123 -54.8438 72.7998 -97.876 85.0391c-0.980469 -92.9775 -1.41992 -185.955 -1.30762 -278.927c79.1084 -36.7236 157.483 -79.6943 201.812 -151.812zM287.657 457.008
c0.0390625 78.8096 0.473633 157.619 1.30273 236.423c-17.5449 -2.92578 -34.999 -7.03027 -51.7373 -12.9668c-39.2607 -13.9199 -81.2676 -39.7012 -92.2666 -82.8975c-16.9639 -66.626 71.5254 -104.709 118.341 -128.596
c7.92676 -4.04785 16.0732 -8.02246 24.3604 -11.9629zM513.222 166.598c10.7676 84.7295 -57.2451 144.127 -132.396 187.549c0.37207 -98.5078 1.3418 -197.01 2.93164 -295.506c58.0566 10.2832 121.368 44.2617 129.464 107.957z" />
    <glyph glyph-name="percent" unicode="%" horiz-adv-x="1061" 
d="M646.253 701.161c11.3379 23.0186 101.264 14.0771 89.7012 -9.39844c-114.998 -233.503 -212.57 -474.734 -335.652 -704.369c-12.3066 -22.957 -101.743 -13.0742 -89.7012 9.39746c123.082 229.635 220.654 470.867 335.652 704.37zM353.706 358.118
c-69.3828 -81.1494 -215.395 -71.0234 -273.599 19.3262c-43.6016 67.6865 -37.1807 169.419 2.13672 237.838c33.668 58.5986 92.582 84.4814 158.933 79.2891c159.925 -12.5215 197.788 -221.331 114.282 -334.469
c-0.512695 -0.693359 -1.10449 -1.3584 -1.75293 -1.98438zM265.763 369.502c41.6572 56.4443 49.9277 135.345 29.0234 201.649c-8.25391 26.1816 -22.2188 53.7666 -42.9434 72.3428c-6.98535 6.26367 -21.0742 9.77051 -26.5029 15.9717
c-0.366211 0.135742 -0.744141 0.198242 -1.11621 0.283203c-1.12793 -0.670898 -2.48633 -1.55078 -3.08984 -1.97949c-51.2803 -36.2227 -74.1924 -92.6787 -76.6221 -154.913c-1.63477 -41.832 3.51855 -84.5381 27.7324 -119.796
c11.2246 -16.3496 29.9473 -37.5303 50.5244 -42.3164c13.8916 -3.22461 30.7373 13.8799 42.9941 28.7578zM853.821 388.429c159.925 -12.5156 197.787 -221.33 114.281 -334.468c-0.512695 -0.693359 -1.10449 -1.3584 -1.75293 -1.98438
c-69.3828 -81.1553 -215.394 -71.0244 -273.598 19.3252c-43.6016 67.6865 -37.1807 169.419 2.13672 237.838c33.668 58.5986 92.582 84.4814 158.933 79.2891zM878.4 63.3594c41.6631 56.4395 49.9268 135.343 29.0225 201.653
c-8.25391 26.1816 -22.2188 53.7666 -42.9434 72.3428c-6.98535 6.26367 -21.0742 9.77051 -26.5029 15.9717c-0.366211 0.135742 -0.744141 0.198242 -1.11621 0.283203c-1.13281 -0.676758 -2.48633 -1.55664 -3.08984 -1.97949
c-51.2803 -36.2275 -74.1924 -92.6836 -76.6221 -154.918c-1.63477 -41.8262 3.51855 -84.5371 27.7324 -119.795c11.2246 -16.3496 29.9473 -37.5303 50.5254 -42.3164c13.8916 -3.23047 30.7373 13.8799 42.9941 28.7578z" />
    <glyph glyph-name="ampersand" unicode="&#x26;" horiz-adv-x="619" 
d="M475.547 284.399c9.09375 28.3408 98.5781 17.3125 93.0195 0.0107422c-23.0078 -71.7002 -63.2275 -143.896 -116.988 -201.457c23.791 -16.6875 48.7998 -31.3174 74.8125 -43.4502c16.3555 -7.63379 16.7158 -17.6523 0 -24.998
c-18.1816 -7.98828 -47.6611 -8.4502 -65.7754 0.000976562c-17.9219 8.35547 -35.3818 17.6855 -52.3682 27.8389c-56.3887 -45.9023 -123.787 -75.7197 -199.354 -76.9717c-62.8662 -1.03711 -166.843 25.4941 -158.403 108.363
c3.71484 36.4531 29.8115 66.1416 54.6006 90.9365c29.2539 29.2598 61.6709 55.1084 93.0332 82.0117c0.727539 0.614258 1.4375 1.25684 2.15918 1.87695c-27.5293 44.9268 -49.2178 93.3604 -63.7627 143.976c-21.1133 73.459 -24.6768 155.719 7.27734 226.681
c31.1934 69.2646 97.1602 101.761 171.257 99.0771c74.998 -2.71777 139.234 -41.9961 155.375 -118.376c15.0469 -71.1816 -11.6143 -148.232 -47.7295 -208.956c-33.1045 -55.6611 -77.5693 -102.595 -125.507 -145.582
c27.0889 -42.2549 59.6582 -81.4033 96.4326 -115.494c36.0703 46.1846 63.9883 98.6377 81.9219 154.513zM231.814 606.063c-30.6299 -72.4053 -20.75 -159.453 3.48047 -232.106c7.49219 -22.4551 16.5576 -44.6338 27.0322 -66.3164
c33.877 36.126 63.751 75.9512 85.7715 120.32c30.6182 61.6826 52.002 149.586 13.4629 212.79c-12.0986 19.8447 -38.2861 48.0898 -63.7012 40.1748c-31.5596 -9.82617 -53.9756 -46.3301 -66.0459 -74.8623zM157.129 26.7021
c51.0098 -67.0264 149.799 12.082 193.412 54.8438c-42.4121 32.5918 -80.6133 70.832 -113.289 113.295c-52.7969 -43.0215 -125.597 -108.385 -80.123 -168.139z" />
    <glyph glyph-name="quotesingle" unicode="'" horiz-adv-x="210" 
d="M66.4453 815.049c6.15039 28.042 97.4082 20.0078 93.0225 0c-12.5156 -57.0479 -17.8662 -114.643 -16.124 -173.021c0.738281 -24.7773 -92.2617 -25.5557 -93.0225 0c-1.74219 58.3789 3.60254 115.968 16.124 173.021z" />
    <glyph glyph-name="quotesingle" unicode="&#x2019;" horiz-adv-x="210" 
d="M66.4453 815.049c6.15039 28.042 97.4082 20.0078 93.0225 0c-12.5156 -57.0479 -17.8662 -114.643 -16.124 -173.021c0.738281 -24.7773 -92.2617 -25.5557 -93.0225 0c-1.74219 58.3789 3.60254 115.968 16.124 173.021z" />
    <glyph glyph-name="quotesingle" unicode="&#x2018;" horiz-adv-x="210" 
d="M66.4453 815.049c6.15039 28.042 97.4082 20.0078 93.0225 0c-12.5156 -57.0479 -17.8662 -114.643 -16.124 -173.021c0.738281 -24.7773 -92.2617 -25.5557 -93.0225 0c-1.74219 58.3789 3.60254 115.968 16.124 173.021z" />
    <glyph glyph-name="parenleft" unicode="(" horiz-adv-x="424" 
d="M361.22 -156.87c16.0615 -7.83594 16.9805 -17.5332 -0.00585938 -24.9971c-17.9502 -7.88672 -47.9541 -8.69336 -65.7754 0c-181.766 88.709 -247.045 303.855 -245.41 493.463c0.806641 93.5693 18.7402 186.574 53.04 273.638
c33.708 85.5752 85.8789 180.103 165.404 230.746c17.1328 10.915 44.7295 11.0732 63.6387 6.34277c9.82129 -2.45801 34.2607 -12.9893 16.6885 -24.1797c-72.8223 -46.3818 -120.737 -136.005 -152.641 -213.867c-34.1025 -83.2236 -51.123 -173.664 -52.9668 -263.456
c-3.5293 -172.176 48.6025 -395.001 218.027 -477.689z" />
    <glyph glyph-name="parenright" unicode=")" horiz-adv-x="423" 
d="M320.241 585.238c34.2939 -87.0684 52.2295 -180.068 53.0361 -273.638c1.62891 -189.602 -63.6445 -404.754 -245.41 -493.463c-17.1836 -8.38867 -48.6982 -7.77441 -65.7744 0c-16.502 7.51465 -15.7354 17.3184 -0.000976562 24.9971
c169.43 82.6885 221.556 305.514 218.026 477.689c-1.83789 89.8203 -18.9033 180.188 -52.9668 263.456c-31.8643 77.8965 -79.8125 167.485 -152.641 213.867c-17.8096 11.3428 6.68652 21.7334 16.6875 24.1797c19.3604 4.73535 46.3086 4.69629 63.6387 -6.34277
c79.5254 -50.6494 131.696 -145.177 165.404 -230.746z" />
    <glyph glyph-name="asterisk" unicode="*" horiz-adv-x="558" 
d="M507.094 610.783c7.03027 -15.8252 -22.125 -21.1934 -32.4932 -21.7344c-45.1523 -2.37305 -90.2988 -4.14844 -135.451 -5.34375c26.8867 -34.4863 54.4609 -68.4531 82.8018 -101.834c11.6982 -13.7783 -26.1475 -21.0225 -32.4844 -21.7383
c-17.082 -1.93945 -44.9434 -2.1084 -57.2109 12.3408c-18.2607 21.5078 -36.1943 43.2529 -53.8457 65.2178c-18.4297 -20.6562 -37.1191 -41.0928 -56.0898 -61.293c-13.1982 -14.0547 -39.6445 -14.3701 -57.2119 -12.3408
c-5.7002 0.654297 -45.0791 8.32715 -32.4844 21.7393c29.5977 31.5146 58.502 63.6045 86.7695 96.2295c-40.9463 -0.0849609 -81.9102 0.303711 -122.885 1.30762c-9.00879 0.219727 -46.5107 1.3584 -46.5107 17.6738c0 16.1973 36.1494 17.9277 46.5117 17.6738
c40.0273 -0.981445 80.0664 -1.45508 120.1 -1.46094c-26.2998 34.9873 -51.9062 70.5166 -76.7178 106.66c-13.3271 19.4219 74.6328 31.3564 89.7021 9.39746c17.4482 -25.4258 35.3145 -50.5195 53.5078 -75.3701c19.1738 23.5771 38.0547 47.4082 56.5635 71.5605
c16.7041 21.7949 103.04 8.00488 89.7012 -9.39844c-26.2432 -34.2607 -53.1973 -67.9014 -80.7881 -101c33.7754 0.969727 67.5449 2.2832 101.304 4.05859c12.0312 0.631836 50.3281 3.14648 57.2119 -12.3457z" />
    <glyph glyph-name="plus" unicode="+" horiz-adv-x="479" 
d="M395.809 284.731c9.61816 -0.541016 39.542 -5.9043 32.4951 -21.7461c-7.0918 -15.9375 -43.833 -13.0957 -57.2109 -12.3457c-28.375 1.58984 -56.7725 2.49707 -85.1748 2.875c0.636719 -59.9287 0.0839844 -119.88 -1.77051 -179.843
c-0.800781 -25.8936 -93.7783 -24.4336 -93.0225 0c1.84961 59.6699 2.39648 119.328 1.77637 178.964c-28.2168 -0.902344 -56.417 -2.31738 -84.5889 -4.34668c-11.9404 -0.862305 -50.4014 -2.98242 -57.2119 12.3408c-7.08691 15.9434 22.1611 20.9951 32.4834 21.7393
c36.2959 2.62109 72.5518 4.35742 108.802 5.32715c-1.08203 58.4971 -3.27539 116.972 -6.70898 175.435c-1.4209 24.1855 91.4941 26.0234 93.0215 0c3.41602 -58.2207 5.60352 -116.458 6.69141 -174.713c36.7744 -0.416992 73.5713 -1.62305 110.419 -3.68652z" />
    <glyph glyph-name="comma" unicode="," horiz-adv-x="285" 
d="M143.952 21.7441c10.7734 23.0186 100.948 14.6465 89.7012 -9.39844c-30.9961 -66.249 -61.9863 -132.492 -92.9824 -198.735c-10.7734 -23.0186 -100.954 -14.6465 -89.7012 9.39844c30.9961 66.2432 61.9863 132.492 92.9824 198.735z" />
    <glyph glyph-name="hyphen" unicode="-" horiz-adv-x="474" 
d="M377.258 371.508c8.99805 -0.158203 46.5137 -1.39746 46.5137 -17.6738c0 -16.2422 -36.1436 -17.8662 -46.5117 -17.6748c-93.5977 1.69727 -187.172 1.06543 -280.747 -1.63477c-8.97559 -0.259766 -46.5117 1.69043 -46.5117 17.6738
c0 16.5752 36.1094 17.376 46.5107 17.6748c93.5742 2.7002 187.148 3.33203 280.746 1.63477z" />
    <glyph glyph-name="period" unicode="." horiz-adv-x="202" 
d="M58.8994 -28.7021c6.09961 28.0303 97.3867 20.0537 93.0234 0c-4.23438 -19.4727 -7.18848 -39.0859 -8.87988 -58.9365c-1.42676 -16.71 -35.3887 -17.4824 -46.5117 -17.6738c-10.4414 -0.180664 -23.0645 1.25684 -32.8906 5.1748
c-4.02539 1.60645 -14.1562 6.21289 -13.6211 12.499c1.69141 19.8506 4.64551 39.4697 8.87988 58.9365z" />
    <glyph glyph-name="slash" unicode="/" horiz-adv-x="402" 
d="M259.218 705.406c7.92676 28.29 98.1807 18.4014 93.0225 0c-67.6699 -241.424 -133.18 -483.191 -208.973 -722.253c-8.98633 -28.3408 -98.541 -17.4209 -93.0215 0c75.793 239.062 141.303 480.823 208.972 722.253z" />
    <glyph glyph-name="zero" unicode="0" horiz-adv-x="613" 
d="M349.937 691.511c267.988 -38.0381 296.565 -424.83 162.985 -603.021c-121.419 -151.609 -364.737 -109.946 -450.667 57.3926c-63.3623 123.387 -48.749 297.817 21.5928 415.77c57.5381 96.4785 154.017 145.764 266.089 129.859zM423.227 97.8877
c77.4395 103.306 93.5156 248.376 58.3818 370.974c-21.6035 75.3594 -71.0352 169.008 -154.586 187.877c-15.9941 3.61328 -31.6328 3.06055 -40.2363 -0.0966797c-8.58594 -3.15137 -24.2197 -10.8467 -34.4912 -17.6738
c-35.5625 -23.6445 -62.9727 -58.2314 -83.6748 -95.2148c-56.1514 -100.312 -70.127 -242.128 -32.7432 -351.082c20.8203 -60.6846 63.3008 -118.279 121.51 -147.376c25.415 -12.7021 53.6992 -20.4092 81.623 -12.1504c34.9033 10.3174 62.1055 37.1357 84.2168 64.7432
z" />
    <glyph glyph-name="one" unicode="1" horiz-adv-x="362" 
d="M62.0957 594.53c-16.3779 7.46387 -15.875 17.4307 0.000976562 24.9912c58.3613 27.8281 120.309 46.5176 179.471 72.2314c18.3281 16.6533 89.3008 12.9834 88.748 -8.46289c-5.8291 -226.021 -4.93848 -452.06 2.52051 -678.024
c0.817383 -24.7158 -92.1768 -25.6123 -93.0225 0c-6.96777 211.048 -8.12305 422.157 -3.50586 633.25c-36.5215 -13.6943 -73.1387 -27.1572 -108.437 -43.9854c-17.3477 -8.27051 -48.5576 -7.8418 -65.7754 0z" />
    <glyph glyph-name="two" unicode="2" horiz-adv-x="472" 
d="M85.4648 140.689c34.999 44.3184 72.7656 86.3232 109.777 128.922c68.915 79.3447 287.692 322.099 102.24 392.429c-22.0264 8.35547 -36.6787 10.0186 -56.0615 9.09961c-11.3037 -0.530273 -36.6338 -6.19043 -54.2344 -15.042
c-51.9287 -26.1084 -78.0986 -77.8457 -81.5039 -134.257c-1.58984 -26.3672 -94.46 -23.8242 -93.0225 0.000976562c4.62891 76.6787 48.9863 135.993 120.117 164.232c100.283 39.8193 331.542 29.6318 330.285 -122.355
c-0.43457 -52.3232 -29.6943 -104.297 -56.8232 -147.335c-29.8574 -47.3682 -65.4316 -91.0205 -101.756 -133.512c-37.7783 -44.1943 -76.9326 -87.2041 -113.735 -132.222c-18.875 -23.0869 -37.1357 -46.6807 -54.1895 -71.1426
c-12.2285 -17.5391 -28.6172 -36.9492 -31.0303 -58.3955c95.7344 -0.411133 191.626 -0.665039 287.23 3.28125c8.96387 0.37207 46.5107 -1.76465 46.5107 -17.6738c0 -16.6592 -36.1035 -17.2451 -46.5107 -17.6738
c-110.651 -4.56641 -221.687 -3.51172 -332.417 -3.08301c-13.2031 0.0507812 -41.877 1.14453 -46.5107 17.6738c-7.61133 27.168 10.0293 51.3145 24.5918 72.9805c14.7881 21.998 30.6191 43.2803 47.042 64.0723z" />
    <glyph glyph-name="three" unicode="3" horiz-adv-x="500" 
d="M264.807 25.4316c48.9912 15.1934 88.4023 58.3711 105.428 105.92c20.876 58.2598 5.36133 115.387 -35.7266 160.252c-34.1084 37.248 -83.1455 64.5293 -134.454 63.5205c-8.86816 -0.180664 -43.2529 1.22852 -45.6826 15.3232
c-2.58789 15.0078 23.2217 17.8828 33.3184 19.3877c55.0801 8.21973 107.775 38.4492 146.851 77.5127c36.0527 36.042 68.25 91.0713 40.0449 141.253c-47.0127 83.6357 -172.322 81.0146 -229.5 11.8115c-11.9746 -14.5 -40.6992 -14.252 -57.2119 -12.3467
c-6.5 0.75 -44.1543 7.61719 -32.4844 21.7393c85.9014 103.971 295.292 107.134 389.211 13.2607c58.5928 -58.5645 28.8369 -137.402 -23.6162 -188.379c-35.8896 -34.875 -77.3779 -60.1094 -122.615 -77.0342c44.7129 -13.0566 86.082 -36.166 119.699 -70.1953
c57.8936 -58.6035 70.5449 -139.454 29.8008 -211.814c-78.9336 -140.17 -299.08 -143.671 -395.75 -22.5273c-11.2637 14.1172 25.748 20.9785 32.4854 21.7393c16.6484 1.88867 45.5244 2.30566 57.2109 -12.3408c27.8896 -34.9541 75.6523 -71.7686 122.992 -57.082z" />
    <glyph glyph-name="four" unicode="4" horiz-adv-x="561" 
d="M206.771 179.24c-20.1152 -0.304688 -165.447 -11.0449 -156.359 25.2109c2.8418 11.3203 18.041 25.0879 24.8848 34.0635c18.9258 24.8115 38.1562 49.3975 57.4199 73.9443c99.1895 126.381 198.193 253.906 304.267 374.644
c8.55762 20.0811 80.0547 19.6582 90.749 1.25684c1.96191 -2.1709 2.69434 -4.62891 1.33594 -7.38574c-5.76172 -225.249 -4.86523 -450.51 2.57129 -675.702c0.817383 -24.7158 -92.1768 -25.6123 -93.0225 0c-1.96777 59.5508 -3.4502 119.107 -4.49902 178.67
c-75.7822 -0.541016 -151.587 -3.5625 -227.347 -4.70117zM225.823 307.402c-18.9316 -24.1064 -37.8174 -48.2471 -56.4561 -72.5742c-2.79102 -3.63672 -7.72949 -12.4541 -13.0459 -20.7021c33.291 0.0791016 66.5869 0.682617 99.8721 1.3418
c59.1055 1.17871 118.262 3.20801 177.401 3.7041c-1.69727 115.984 -1.65234 231.98 0.163086 347.977c-19.2637 -23.6328 -38.4258 -47.3398 -57.5654 -71.0352c-50.5361 -62.5732 -100.684 -125.462 -150.369 -188.711zM113.933 214.51
c-0.524414 0.0849609 -1.05273 0.169922 -1.57715 0.259766c0.287109 -0.107422 0.484375 -0.180664 0.732422 -0.276367c0.191406 0.0166016 0.416992 0.0224609 0.732422 0.0166016h0.112305z" />
    <glyph glyph-name="five" unicode="5" horiz-adv-x="523" 
d="M260.293 -5.53027c-93.0283 0.253906 -186.86 45.8672 -210.11 142.125c-4.76953 19.7432 86.2852 27.8672 93.0225 0c9.41504 -38.9619 35.0557 -72.9512 70.0039 -92.7393c36.4531 -20.6396 74.1865 -15.3457 108.96 6.55078
c98.0625 61.7559 124.526 236.068 42.4297 321.231c-35.501 36.8311 -90.9482 46.3477 -139.855 49.2676c-10.7002 0.636719 -22.6748 0.777344 -33.9668 0.692383c-4.97852 -0.0390625 -9.95703 -0.146484 -14.9355 -0.276367
c-1.29102 -0.0341797 -6.78223 -0.270508 -9.11621 -0.360352c-2.50879 -0.208984 -11.6592 -0.885742 -14.957 -1.13379c-2.1084 -0.163086 -4.2168 -0.394531 -6.31934 -0.636719c-6.26953 -0.72168 -62.6523 -1.60645 -58.875 17.043
c16.8848 83.3193 33.2119 167.468 56.7041 249.215c0 10.6045 15.1543 14.8662 28.6621 16.5684c4.72461 0.676758 9.71973 1.02637 14.7715 1.06055c1.16113 0.0283203 2.22656 0.0400391 3.07812 0.0400391h225.779c8.99219 0 46.5107 -1.51074 46.5107 -17.6738
c0 -16.3721 -36.126 -17.6748 -46.5107 -17.6748h-184.146c-18.9883 -69.2588 -33.3477 -140.029 -47.5605 -210.438c38.1953 0.625977 76.6328 -1.99512 113.836 -7.84668c76.9941 -12.1094 155.889 -41.0254 188.7 -117.912
c25.8203 -60.498 23.4131 -134.245 0.451172 -195.426c-35.123 -93.5635 -130.146 -141.94 -226.557 -141.676z" />
    <glyph glyph-name="six" unicode="6" horiz-adv-x="484" 
d="M344.564 11.6758c-98.4629 -46.9287 -246.141 -17.2002 -299.456 83.9404c-54.2852 103.007 -13.7217 238.159 29.4404 337.901c44.5322 102.905 119.469 216.094 219.402 272.426c18.1309 10.2207 43.8105 11.3027 63.6328 6.3418
c8.96387 -2.23828 35.168 -13.7617 16.6875 -24.1807c-88.6309 -49.9561 -155.478 -149.078 -198.595 -238.921c-17.3418 -36.1318 -32.874 -75.2236 -44.1553 -115.488c88.4219 23.8311 191.817 11.6709 252.964 -52.3398
c75.8047 -79.3564 63.165 -220.553 -39.9209 -269.68zM314.766 246.504c-47.9258 74.4971 -130.639 73.8203 -196.718 25.5391c-4.48242 -29.209 -6.16797 -58.5703 -4.07031 -87.4414c3.28125 -45.1016 18.3398 -89.1602 51.7432 -120.884
c24.9189 -23.667 62.9512 -45.3887 97.8652 -33.5723c86.6348 29.3271 93.9697 149.845 51.1797 216.358z" />
    <glyph glyph-name="seven" unicode="7" horiz-adv-x="529" 
d="M96.5107 658.338c-8.99805 0.0566406 -46.5098 1.46973 -46.5098 17.6777c0 16.3271 36.1318 17.7422 46.5107 17.6748c71.0234 -0.451172 142.042 0.253906 213.065 0.479492c29.1641 0.0898438 58.3281 0.146484 87.4863 -0.34375
c21.7842 -0.366211 53.7334 3.45605 72.6982 -8.08398c14.4102 -8.7666 9.30762 -17.0537 4.85352 -30.4824c-6.93457 -20.9219 -14.7764 -41.5557 -22.5508 -62.1729c-24.5127 -64.9688 -50.0576 -129.555 -75.5117 -194.157
c-52.0703 -132.153 -106.756 -263.642 -154.35 -397.498c-8.08496 -22.7256 -99.1562 -17.1836 -89.7021 9.39844c16.6934 46.9619 34.8867 93.3945 52.9668 139.832c43.4893 111.694 87.9316 223.017 131.624 334.632c17.2285 44.0078 34.4521 88.0273 50.9424 132.317
c4.91016 13.1924 9.91113 26.3848 14.2637 39.7744c0.146484 0.445312 0.287109 0.998047 0.427734 1.58984c-95.334 1.97852 -190.927 -1.23535 -286.215 -0.637695z" />
    <glyph glyph-name="eight" unicode="8" horiz-adv-x="460" 
d="M77.6875 53.0459c-93.6367 95.7168 -56.626 252.407 48.0664 321.897c-34.5703 25.4092 -66.0459 54.3926 -84.5654 93.9463c-30.0381 64.1455 -8.87402 133.918 42.6035 180.164c84.2725 75.7031 280.696 88.7656 332.214 -33.0146
c49.9111 -117.986 -13.8848 -237.438 -45.5742 -350.599c-0.37207 -1.3252 -0.975586 -2.53125 -1.68555 -3.69238c41.8994 -51.6582 77.9697 -119.294 43.1904 -183.728c-62.3359 -115.482 -250.861 -110.223 -334.249 -24.9746zM139.78 599.951
c-43.7148 -71.5537 -9.02148 -146.309 50.5752 -195.193c34.3281 -28.166 71.8135 -50.8691 106.88 -76.7744c15.1035 44.4473 30.8271 88.6416 38.6973 135.276c10.4189 61.7441 11.7773 155.302 -48.7998 193.644c-54.0713 34.2148 -118.268 -9.34766 -147.353 -56.9521z
M181.081 337.055c-44.5605 -41.8145 -69.6475 -103.205 -64.3652 -165.321c4.84277 -57.0195 50.5312 -142.724 116.695 -145.515c60.6504 -2.55371 108.458 70.6182 99.46 125.056c-12.1436 73.4648 -80.2754 136.866 -138.372 176.714
c-4.42578 3.0332 -8.9082 6.0498 -13.418 9.06641z" />
    <glyph glyph-name="nine" unicode="9" horiz-adv-x="516" 
d="M365.242 712.612c10.0967 16.1123 86.2715 20.249 92.0615 -5.06445c21.9248 -95.9092 33.2393 -193.56 32.3818 -291.982c-0.806641 -92.1367 -5.96484 -189.833 -40.7607 -276.214c-29.5078 -73.251 -87.627 -130.113 -166.809 -144.489
c-93.084 -16.8965 -179.983 18.1758 -252.417 74.5645c-16.0898 12.5273 5.01758 21.3223 16.6875 24.1807c18.0127 4.4082 48.0674 5.77832 63.6387 -6.34277c29.9414 -23.3115 62.0371 -46.2061 98.9473 -56.8223c31.458 -9.04883 57.0811 1.08203 82.1182 20.8369
c55.3848 43.6982 79.6436 116.385 91.2793 183.299c15.5879 89.6455 18.7842 182.121 12.0361 273.733c-3.28125 -10.5479 -6.84961 -21.0342 -10.9033 -31.4131c-26.2432 -67.1846 -71.0293 -120.945 -144.652 -135.146
c-89.5215 -17.2627 -199.315 16.1123 -216.318 116.779c-15.9775 94.6289 45.6992 183.62 128.201 223.58c65.5947 31.7744 142.318 40.0566 214.509 30.501zM241.301 399.256c72.9072 71.2441 75.3916 186.183 101.939 278.866
c-0.591797 0.107422 -1.20605 0.214844 -1.78125 0.322266c-19.6133 3.6875 -41.2344 3.81738 -66.9033 -1.15527c-31.7793 -6.15625 -61.7607 -19.6475 -87.333 -39.5088c-58.0342 -45.0732 -96.2578 -137.848 -63.2773 -208.133
c11.918 -25.3975 39.2441 -56.709 69.0117 -56.8496c14.1172 -0.0732422 35.71 14.1113 48.3438 26.458z" />
    <glyph glyph-name="colon" unicode=":" horiz-adv-x="223" 
d="M79.7949 452.121c6.33691 28.0762 97.499 19.8447 93.0225 0c-5.82422 -25.793 -10.0303 -51.7998 -12.6465 -78.1113c-2.67773 -26.9141 -95.3057 -22.9619 -93.0225 0c2.61621 26.3115 6.82227 52.3184 12.6465 78.1113zM72.8438 2.56445
c6.26367 28.0645 97.4639 19.9072 93.0215 0c-6.5 -29.1191 -14.0322 -57.9502 -22.6133 -86.5273c-8.50684 -28.3242 -98.3887 -17.8662 -93.0215 0c8.58105 28.5771 16.1133 57.4082 22.6133 86.5273z" />
    <glyph glyph-name="semicolon" unicode=";" horiz-adv-x="304" 
d="M160.362 454.528c8.18066 28.3066 98.2725 18.1699 93.0234 0c-6.26367 -21.6826 -12.5332 -43.3594 -18.7969 -65.042c-8.18066 -28.3066 -98.2773 -18.1699 -93.0234 0c6.26367 21.6826 12.5332 43.3594 18.7969 65.042zM109.421 35.0205
c7.00781 28.1885 97.8086 19.2471 93.0225 0c-17.8438 -71.791 -37.5645 -143.062 -59.1855 -213.805c-8.65918 -28.3291 -98.4395 -17.7246 -93.0215 0c21.6201 70.7422 41.3467 142.014 59.1846 213.805z" />
    <glyph glyph-name="less" unicode="&#x3c;" horiz-adv-x="562" 
d="M488.258 523.703c8.26465 -2.07422 35.8789 -14.4746 16.6768 -24.1719c-121.352 -61.3887 -239.411 -128.889 -353.998 -202.105c49.0146 -26.5762 108.74 -39.8135 160.782 -57.0762c61.9189 -20.5381 123.917 -40.8623 185.582 -62.1445
c18.0859 -6.24707 15.1318 -18.3457 0 -24.998c-19.5176 -8.5752 -46.0596 -6.80469 -65.7744 0c-65.0312 22.4434 -130.417 43.8154 -195.702 65.5039c-59.8389 19.873 -126.155 35.4102 -179.877 69.377c-7.99414 5.05664 -7.86426 12.7686 0 17.8428
c119.158 76.8477 242.145 147.426 368.672 211.431c18.9375 9.57812 43.0664 11.4893 63.6387 6.3418z" />
    <glyph glyph-name="equal" unicode="=" horiz-adv-x="608" 
d="M108.301 381.604c-12.0195 -0.670898 -50.3467 -3.11719 -57.2188 12.3467c-7.04102 15.8418 22.1289 21.1582 32.4854 21.7393c142.572 7.96582 285.11 10.3281 427.835 5.27637c9.00879 -0.31543 46.5107 -1.29102 46.5107 -17.6738
c0 -16.124 -36.1602 -18.041 -46.5107 -17.6748c-134.392 4.75293 -268.828 3.48438 -403.102 -4.01367zM511.4 334.163c9.00879 -0.31543 46.5088 -1.29004 46.5029 -17.6729c0 -16.1182 -36.1602 -18.0352 -46.5107 -17.6748
c-134.392 4.75293 -268.828 3.49023 -403.102 -4.01367c-12.0195 -0.670898 -50.3389 -3.11816 -57.2109 12.3457c-7.04102 15.8418 22.1289 21.1582 32.4854 21.7393c142.572 7.96582 285.11 10.3223 427.835 5.27637z" />
    <glyph glyph-name="greater" unicode="&#x3e;" horiz-adv-x="562" 
d="M505.767 305.93c7.86426 -5.0791 7.99707 -12.7852 -0.00292969 -17.8535c-53.7109 -33.9619 -120.05 -49.5049 -179.877 -69.3779c-65.2852 -21.6885 -130.671 -43.0605 -195.702 -65.5039c-19.2363 -6.6416 -46.8105 -8.6377 -65.7754 -0.000976562
c-14.8721 6.77637 -17.5498 18.9424 0 24.9971c61.665 21.2822 123.657 41.6064 185.576 62.1445c52.0645 17.2686 111.768 30.4941 160.787 57.0762c-114.587 73.2168 -232.651 140.723 -354.003 202.106c-19.4443 9.83789 8.34961 22.1445 16.6875 24.1855
c20.707 5.06836 44.6221 3.27539 63.6377 -6.34277c126.527 -64.0049 249.514 -134.583 368.672 -211.431z" />
    <glyph glyph-name="question" unicode="?" horiz-adv-x="469" 
d="M408.157 664.223c33.9219 -74.0059 -17.0713 -165.145 -47.6162 -232.03c-37.9873 -83.1729 -77 -166.459 -77.8799 -259.718c-0.242188 -25.5215 -93.2588 -24.8506 -93.0225 0c0.670898 71.334 23.3516 138.806 51.5234 203.622
c27.9854 64.3936 64.2812 127.998 80.1064 196.88c10.8184 47.0693 -0.0400391 134.521 -68.2168 114.028c-54.2969 -16.3213 -94.0312 -64.501 -112.652 -116.25c-8.19141 -22.748 -99.2344 -17.0879 -89.7012 9.39844c24.5918 68.3174 82.2881 117.135 151.666 136.28
c63.6777 17.5723 173.179 18.9365 205.793 -52.2109zM240.796 13.7451c12.583 0.213867 43.6094 -1.14844 46.5127 -17.6729c2.63281 -14.9795 4.04785 -30.0264 4.25098 -45.2373c0.0898438 -6.84375 -8.50195 -10.2832 -13.627 -12.4932
c-10.1025 -4.3584 -22.0039 -4.99023 -32.8848 -5.17676c-10.4414 -0.180664 -23.0645 1.25684 -32.8906 5.1748c-4.69043 1.87207 -13.5361 5.99316 -13.6211 12.4932c-0.208984 15.2109 -1.61816 30.2578 -4.25098 45.2373
c-1.13281 6.46094 9.16699 10.5762 13.626 12.499c10.1025 4.35254 22.0039 4.98926 32.8848 5.17578z" />
    <glyph glyph-name="at" unicode="@" horiz-adv-x="833" 
d="M722.505 644.756c60.8135 -68.374 71.6289 -163.878 51.085 -250.496c-20.335 -85.7041 -73.6963 -160.511 -169.537 -158.053c-44.002 1.12793 -71.627 19.4453 -88.9346 46.5176c-12.3975 -18.5371 -26.5596 -35.8281 -42.9932 -51.2021
c-48.8281 -45.6885 -154.102 -71.1484 -201.081 -8.02344c-38.9229 52.3008 -24.6201 140.497 -0.349609 195.696c30.957 70.3984 99.6416 106.3 174.934 94.8945c39.6045 -6.00391 72.6641 -27.1113 97.1992 -56.5801c19.9463 -1.03711 37.5303 -7.1543 37.3613 -18.5879
c-0.642578 -44.126 -2.90332 -93.8896 15.8027 -135.13c3.36523 -7.4082 7.4248 -15.0303 12.6738 -21.3271c1.15039 -1.60645 2.4248 -3.07812 3.76074 -4.49316c11.4336 10.0635 29.5762 28.4365 31.583 31.2783c45.9307 65.042 58.5254 162.771 37.2432 238.779
c-34.3896 122.823 -170.727 192.736 -290.923 156.412c-136.061 -41.1104 -223.834 -172.215 -242.579 -308.428c-18.5195 -134.601 19.8398 -278.249 138.091 -356.05c45.7949 -30.1338 98.6992 -46.6748 153.278 -35.3877c61.457 12.7129 115.235 50.4287 154.435 98.4902
c11.8506 14.54 40.7998 14.2412 57.2109 12.3467c6.58496 -0.755859 44.0527 -7.54883 32.4844 -21.7393c-117.822 -144.483 -349.239 -172.255 -497.364 -57.5273c-143.739 111.328 -167.559 315.126 -99.0947 476.105c71.5654 168.28 253.235 259.138 431.905 234.338
c76.7461 -10.6494 151.644 -43.1738 203.81 -101.834zM414.407 276.539c29.6934 39.458 49.749 85.0361 64.21 132.083c-9.38086 19.2412 -21.4287 37.6826 -36.9893 52.4707c-4.25098 4.03613 -19.0557 11.1055 -25.9561 16.3428
c-1.60156 -0.918945 -3.0957 -1.79883 -3.95312 -2.35742c-53.3438 -34.5986 -71.1592 -108.312 -70.0596 -167.874c0.270508 -14.4609 1.39844 -29.418 5.1084 -43.4668c2.26074 -8.55273 5.25977 -16.835 9.79297 -24.4795
c2.2041 -3.7207 6.29688 -7.16016 9.34082 -10.5654c6.4834 5.18652 13.4287 9.38086 19.6865 15.1875c10.6045 9.83203 20.1377 21.1191 28.8193 32.6592zM603.132 271.665c0.0615234 -0.287109 0.428711 -0.241211 0.908203 -0.0498047
c-0.298828 0.0166016 -0.603516 0.0332031 -0.908203 0.0498047z" />
    <glyph glyph-name="A" unicode="A" horiz-adv-x="595" 
d="M371.052 605.984c76.1377 -197.618 151.015 -396.017 232.75 -591.402c10.6719 -25.5166 -80.2588 -31.9658 -89.7021 -9.39844c-20.9502 50.0801 -41.043 100.521 -61.0684 150.973c-11.1172 28.0078 -22.1445 56.0615 -33.1836 84.1035
c-83.3193 0.0957031 -166.645 0.0283203 -249.964 0.00585938c-30.7256 -76.8311 -60.0195 -154.163 -86.5957 -232.296c-9.64062 -28.335 -98.7393 -16.7949 -93.0225 0c18.3447 53.9248 38.7021 107.162 59.4375 160.213c65.8428 168.449 135.75 335.404 207.112 501.587
c8.07324 18.79 82.1582 19.6699 89.7012 0c8.16309 -21.2656 16.3438 -42.5254 24.5352 -63.7852zM184.131 275.612c73.9277 0.0283203 147.849 0.0576172 221.771 -0.00488281c-35.8164 91.252 -71.2715 182.645 -106.524 274.122
c-38.8154 -91.0264 -77.9297 -182.239 -115.246 -274.117z" />
    <glyph glyph-name="A" unicode="&#xc5;" horiz-adv-x="595" 
d="M371.052 605.984c76.1377 -197.618 151.015 -396.017 232.75 -591.402c10.6719 -25.5166 -80.2588 -31.9658 -89.7021 -9.39844c-20.9502 50.0801 -41.043 100.521 -61.0684 150.973c-11.1172 28.0078 -22.1445 56.0615 -33.1836 84.1035
c-83.3193 0.0957031 -166.645 0.0283203 -249.964 0.00585938c-30.7256 -76.8311 -60.0195 -154.163 -86.5957 -232.296c-9.64062 -28.335 -98.7393 -16.7949 -93.0225 0c18.3447 53.9248 38.7021 107.162 59.4375 160.213c65.8428 168.449 135.75 335.404 207.112 501.587
c8.07324 18.79 82.1582 19.6699 89.7012 0c8.16309 -21.2656 16.3438 -42.5254 24.5352 -63.7852zM184.131 275.612c73.9277 0.0283203 147.849 0.0576172 221.771 -0.00488281c-35.8164 91.252 -71.2715 182.645 -106.524 274.122
c-38.8154 -91.0264 -77.9297 -182.239 -115.246 -274.117z" />
    <glyph glyph-name="A" unicode="&#xc4;" horiz-adv-x="595" 
d="M371.052 605.984c76.1377 -197.618 151.015 -396.017 232.75 -591.402c10.6719 -25.5166 -80.2588 -31.9658 -89.7021 -9.39844c-20.9502 50.0801 -41.043 100.521 -61.0684 150.973c-11.1172 28.0078 -22.1445 56.0615 -33.1836 84.1035
c-83.3193 0.0957031 -166.645 0.0283203 -249.964 0.00585938c-30.7256 -76.8311 -60.0195 -154.163 -86.5957 -232.296c-9.64062 -28.335 -98.7393 -16.7949 -93.0225 0c18.3447 53.9248 38.7021 107.162 59.4375 160.213c65.8428 168.449 135.75 335.404 207.112 501.587
c8.07324 18.79 82.1582 19.6699 89.7012 0c8.16309 -21.2656 16.3438 -42.5254 24.5352 -63.7852zM184.131 275.612c73.9277 0.0283203 147.849 0.0576172 221.771 -0.00488281c-35.8164 91.252 -71.2715 182.645 -106.524 274.122
c-38.8154 -91.0264 -77.9297 -182.239 -115.246 -274.117z" />
    <glyph glyph-name="A" unicode="&#xc3;" horiz-adv-x="595" 
d="M371.052 605.984c76.1377 -197.618 151.015 -396.017 232.75 -591.402c10.6719 -25.5166 -80.2588 -31.9658 -89.7021 -9.39844c-20.9502 50.0801 -41.043 100.521 -61.0684 150.973c-11.1172 28.0078 -22.1445 56.0615 -33.1836 84.1035
c-83.3193 0.0957031 -166.645 0.0283203 -249.964 0.00585938c-30.7256 -76.8311 -60.0195 -154.163 -86.5957 -232.296c-9.64062 -28.335 -98.7393 -16.7949 -93.0225 0c18.3447 53.9248 38.7021 107.162 59.4375 160.213c65.8428 168.449 135.75 335.404 207.112 501.587
c8.07324 18.79 82.1582 19.6699 89.7012 0c8.16309 -21.2656 16.3438 -42.5254 24.5352 -63.7852zM184.131 275.612c73.9277 0.0283203 147.849 0.0576172 221.771 -0.00488281c-35.8164 91.252 -71.2715 182.645 -106.524 274.122
c-38.8154 -91.0264 -77.9297 -182.239 -115.246 -274.117z" />
    <glyph glyph-name="A" unicode="&#xc2;" horiz-adv-x="595" 
d="M371.052 605.984c76.1377 -197.618 151.015 -396.017 232.75 -591.402c10.6719 -25.5166 -80.2588 -31.9658 -89.7021 -9.39844c-20.9502 50.0801 -41.043 100.521 -61.0684 150.973c-11.1172 28.0078 -22.1445 56.0615 -33.1836 84.1035
c-83.3193 0.0957031 -166.645 0.0283203 -249.964 0.00585938c-30.7256 -76.8311 -60.0195 -154.163 -86.5957 -232.296c-9.64062 -28.335 -98.7393 -16.7949 -93.0225 0c18.3447 53.9248 38.7021 107.162 59.4375 160.213c65.8428 168.449 135.75 335.404 207.112 501.587
c8.07324 18.79 82.1582 19.6699 89.7012 0c8.16309 -21.2656 16.3438 -42.5254 24.5352 -63.7852zM184.131 275.612c73.9277 0.0283203 147.849 0.0576172 221.771 -0.00488281c-35.8164 91.252 -71.2715 182.645 -106.524 274.122
c-38.8154 -91.0264 -77.9297 -182.239 -115.246 -274.117z" />
    <glyph glyph-name="A" unicode="&#xc1;" horiz-adv-x="595" 
d="M371.052 605.984c76.1377 -197.618 151.015 -396.017 232.75 -591.402c10.6719 -25.5166 -80.2588 -31.9658 -89.7021 -9.39844c-20.9502 50.0801 -41.043 100.521 -61.0684 150.973c-11.1172 28.0078 -22.1445 56.0615 -33.1836 84.1035
c-83.3193 0.0957031 -166.645 0.0283203 -249.964 0.00585938c-30.7256 -76.8311 -60.0195 -154.163 -86.5957 -232.296c-9.64062 -28.335 -98.7393 -16.7949 -93.0225 0c18.3447 53.9248 38.7021 107.162 59.4375 160.213c65.8428 168.449 135.75 335.404 207.112 501.587
c8.07324 18.79 82.1582 19.6699 89.7012 0c8.16309 -21.2656 16.3438 -42.5254 24.5352 -63.7852zM184.131 275.612c73.9277 0.0283203 147.849 0.0576172 221.771 -0.00488281c-35.8164 91.252 -71.2715 182.645 -106.524 274.122
c-38.8154 -91.0264 -77.9297 -182.239 -115.246 -274.117z" />
    <glyph glyph-name="B" unicode="B" horiz-adv-x="552" 
d="M297.03 695.562c78.6182 -10.7676 174.454 -34.4971 220.475 -105.842c43.7764 -67.8945 28.7686 -168.618 -23.9043 -227.307c-38.2295 -42.5928 -90.9873 -68.8027 -145.966 -85.7832c43.8555 -6.29199 87.1025 -18.3965 121.87 -43.4219
c48.1289 -34.6494 64.3994 -100.362 28.2783 -150.278c-41.8877 -57.8877 -126.239 -77.8623 -192.488 -88.6357c-73.1094 -11.8848 -149.596 -14.8955 -223.382 -5.61621c-23.4023 -0.197266 -47.1592 5.96484 -47.5938 18.8584
c-2.76855 82.4346 -4.61816 164.875 -5.57129 247.321c-0.524414 1.90527 -0.518555 3.6416 -0.0615234 5.21973c-1.52734 138.271 -0.512695 276.558 3.1123 414.834c0.298828 11.5459 19.084 17.6514 39.6895 18.7002c73.0703 13.874 152.962 11.8955 225.542 1.9502z
M420.137 114.533c16.502 46.9561 -8.75098 93.1689 -51.9131 113.03c-47.9258 22.0664 -102.324 21.7793 -152.657 21.0518c-4.81445 -0.0673828 -9.57812 -0.197266 -14.3252 -0.355469c-12.8594 -1.38672 -25.7363 -2.62695 -38.6406 -3.5625
c-13.5361 -0.975586 -27.0889 -1.69727 -40.6416 -2.36816c0.935547 -73.8486 2.59277 -147.691 4.9834 -221.528c53.417 -4.54395 109.186 -1.75879 162.924 9.82129c48.9805 10.5537 111.869 31.5371 130.271 83.9111zM411.729 381.125
c43.3936 55.1025 54.2266 146.378 11.9775 205.146c-40.0557 55.7344 -114.902 72.4219 -178.474 78.3135c-18.001 1.66895 -26.4629 2.06348 -45.3828 2.25488c-8.18555 0.0849609 -16.377 0.0341797 -24.5625 -0.146484
c-2.54297 -0.0507812 -16.1074 -0.620117 -16.9189 -0.591797c-11.292 -0.670898 -22.5732 -1.65234 -33.8145 -2.94336c-3.21875 -128.055 -4.18848 -256.115 -2.9873 -384.164c19.3262 1.40918 38.6582 2.68848 58.001 3.62402
c20.5273 2.2666 40.4512 5.13574 60.2451 9.19531c63.373 13.001 130.535 36.7637 171.916 89.3125z" />
    <glyph glyph-name="C" unicode="C" horiz-adv-x="530" 
d="M47.5195 514.777c37.2881 81.0986 104.067 150.378 193.566 169.743c106.282 22.9902 228.26 -13.4014 260.941 -125.846c5.36133 -18.4414 -84.876 -28.0371 -93.0225 -0.000976562c-11.9238 41.0312 -41.6738 80.5742 -84.1318 93.1299
c-35.5176 10.4971 -69.7441 -6.625 -97.7129 -27.7949c-128.444 -97.1943 -155.24 -305.97 -101.006 -447.859c25.3242 -66.249 73.7188 -135.48 148.277 -148.803c76.2617 -13.6318 147.348 34.3955 165.647 108.897c6.91699 28.1777 97.7686 19.3213 93.0215 0.000976562
c-31.6162 -128.731 -178.236 -160.517 -293.702 -141.489c-232.601 38.3359 -275.74 337.625 -191.879 520.021z" />
    <glyph glyph-name="D" unicode="D" horiz-adv-x="577" 
d="M72.0977 693.639c108.452 20.4082 238.645 11.3652 335.805 -39.6895c145.752 -76.583 193.61 -264.104 143.153 -413.233c-27.8506 -82.333 -82.5586 -143.463 -156.948 -187.234c-93.5244 -55.0244 -198.278 -71.0918 -304.916 -64.5352
c-25.4707 -1.67969 -54.3867 4.35254 -54.8662 18.5879c-7.45898 222.419 -8.34961 444.905 -2.52051 667.375c0.304688 11.6592 19.4561 17.7764 40.293 18.7295zM458.75 479.107c-22.1562 63.9199 -65.5781 121.459 -125.552 153.994
c-59.5059 32.2812 -139.934 41.0088 -208.618 30.6914c-5.38379 -213.602 -4.56641 -427.214 2.30566 -640.771c86.6182 -0.603516 165.958 26.7002 236.277 81.2617c109.354 84.8477 139.471 248.229 95.5869 374.823z" />
    <glyph glyph-name="E" unicode="E" horiz-adv-x="448" 
d="M78.7744 695.753c109.659 0.0449219 219.348 1.55273 329.007 -0.00292969c9.00293 -0.129883 46.5107 -1.42676 46.5107 -17.6748c0 -16.2646 -36.1377 -17.8203 -46.5107 -17.6738c-94.2178 1.33594 -188.463 0.451172 -282.691 0.135742
c-2.81348 -97.2734 -4.11621 -194.547 -3.96973 -291.82c76.3457 -0.355469 152.714 -1.24609 229.049 0.163086c8.98047 0.168945 46.5107 -1.62402 46.5107 -17.6748c0 -16.502 -36.1152 -17.4824 -46.5107 -17.6738
c-76.3125 -1.40918 -152.658 -0.518555 -228.987 -0.163086c0.535156 -103.531 2.76758 -207.051 6.61816 -310.554c92.5996 -0.360352 185.238 -1.60059 277.82 0.0908203c8.98047 0.163086 46.5107 -1.62402 46.5107 -17.6748
c0 -16.502 -36.1152 -17.4834 -46.5107 -17.6748c-103.531 -1.88867 -207.136 -0.118164 -310.678 -0.0107422c-26.4297 -2.80762 -58.9814 3.02148 -59.5732 18.1758c-8.69336 222.977 -9.72461 446.038 -2.93652 669.083
c0.0117188 0.37207 0.107422 0.71582 0.158203 1.07617c-0.168945 0.709961 -0.327148 1.41992 -0.327148 2.19824c0 16.3721 36.126 17.6689 46.5107 17.6748z" />
    <glyph glyph-name="E" unicode="&#xcb;" horiz-adv-x="448" 
d="M78.7744 695.753c109.659 0.0449219 219.348 1.55273 329.007 -0.00292969c9.00293 -0.129883 46.5107 -1.42676 46.5107 -17.6748c0 -16.2646 -36.1377 -17.8203 -46.5107 -17.6738c-94.2178 1.33594 -188.463 0.451172 -282.691 0.135742
c-2.81348 -97.2734 -4.11621 -194.547 -3.96973 -291.82c76.3457 -0.355469 152.714 -1.24609 229.049 0.163086c8.98047 0.168945 46.5107 -1.62402 46.5107 -17.6748c0 -16.502 -36.1152 -17.4824 -46.5107 -17.6738
c-76.3125 -1.40918 -152.658 -0.518555 -228.987 -0.163086c0.535156 -103.531 2.76758 -207.051 6.61816 -310.554c92.5996 -0.360352 185.238 -1.60059 277.82 0.0908203c8.98047 0.163086 46.5107 -1.62402 46.5107 -17.6748
c0 -16.502 -36.1152 -17.4834 -46.5107 -17.6748c-103.531 -1.88867 -207.136 -0.118164 -310.678 -0.0107422c-26.4297 -2.80762 -58.9814 3.02148 -59.5732 18.1758c-8.69336 222.977 -9.72461 446.038 -2.93652 669.083
c0.0117188 0.37207 0.107422 0.71582 0.158203 1.07617c-0.168945 0.709961 -0.327148 1.41992 -0.327148 2.19824c0 16.3721 36.126 17.6689 46.5107 17.6748z" />
    <glyph glyph-name="E" unicode="&#xca;" horiz-adv-x="448" 
d="M78.7744 695.753c109.659 0.0449219 219.348 1.55273 329.007 -0.00292969c9.00293 -0.129883 46.5107 -1.42676 46.5107 -17.6748c0 -16.2646 -36.1377 -17.8203 -46.5107 -17.6738c-94.2178 1.33594 -188.463 0.451172 -282.691 0.135742
c-2.81348 -97.2734 -4.11621 -194.547 -3.96973 -291.82c76.3457 -0.355469 152.714 -1.24609 229.049 0.163086c8.98047 0.168945 46.5107 -1.62402 46.5107 -17.6748c0 -16.502 -36.1152 -17.4824 -46.5107 -17.6738
c-76.3125 -1.40918 -152.658 -0.518555 -228.987 -0.163086c0.535156 -103.531 2.76758 -207.051 6.61816 -310.554c92.5996 -0.360352 185.238 -1.60059 277.82 0.0908203c8.98047 0.163086 46.5107 -1.62402 46.5107 -17.6748
c0 -16.502 -36.1152 -17.4834 -46.5107 -17.6748c-103.531 -1.88867 -207.136 -0.118164 -310.678 -0.0107422c-26.4297 -2.80762 -58.9814 3.02148 -59.5732 18.1758c-8.69336 222.977 -9.72461 446.038 -2.93652 669.083
c0.0117188 0.37207 0.107422 0.71582 0.158203 1.07617c-0.168945 0.709961 -0.327148 1.41992 -0.327148 2.19824c0 16.3721 36.126 17.6689 46.5107 17.6748z" />
    <glyph glyph-name="E" unicode="&#xc9;" horiz-adv-x="448" 
d="M78.7744 695.753c109.659 0.0449219 219.348 1.55273 329.007 -0.00292969c9.00293 -0.129883 46.5107 -1.42676 46.5107 -17.6748c0 -16.2646 -36.1377 -17.8203 -46.5107 -17.6738c-94.2178 1.33594 -188.463 0.451172 -282.691 0.135742
c-2.81348 -97.2734 -4.11621 -194.547 -3.96973 -291.82c76.3457 -0.355469 152.714 -1.24609 229.049 0.163086c8.98047 0.168945 46.5107 -1.62402 46.5107 -17.6748c0 -16.502 -36.1152 -17.4824 -46.5107 -17.6738
c-76.3125 -1.40918 -152.658 -0.518555 -228.987 -0.163086c0.535156 -103.531 2.76758 -207.051 6.61816 -310.554c92.5996 -0.360352 185.238 -1.60059 277.82 0.0908203c8.98047 0.163086 46.5107 -1.62402 46.5107 -17.6748
c0 -16.502 -36.1152 -17.4834 -46.5107 -17.6748c-103.531 -1.88867 -207.136 -0.118164 -310.678 -0.0107422c-26.4297 -2.80762 -58.9814 3.02148 -59.5732 18.1758c-8.69336 222.977 -9.72461 446.038 -2.93652 669.083
c0.0117188 0.37207 0.107422 0.71582 0.158203 1.07617c-0.168945 0.709961 -0.327148 1.41992 -0.327148 2.19824c0 16.3721 36.126 17.6689 46.5107 17.6748z" />
    <glyph glyph-name="F" unicode="F" horiz-adv-x="434" 
d="M32.1514 678.073c0 16.3721 36.125 17.6699 46.5156 17.6758c106.908 0.0507812 213.839 1.56738 320.741 0c9.00293 -0.135742 46.5107 -1.4209 46.5107 -17.6748c0 -16.2646 -36.1436 -17.8262 -46.5117 -17.6738c-91.4609 1.3418 -182.949 0.461914 -274.421 0.140625
c-2.7627 -98.7441 -4.03125 -197.494 -3.87305 -296.238c74.0459 -0.360352 148.103 -1.24023 222.131 0.168945c8.98047 0.168945 46.5107 -1.62988 46.5107 -17.6748c0 -16.502 -36.1152 -17.4775 -46.5107 -17.6748
c-74.0059 -1.40918 -148.04 -0.529297 -222.058 -0.168945c0.563477 -109.665 2.88574 -219.318 7.01855 -328.949c0.930664 -24.6201 -92.0518 -25.6914 -93.0215 0c-8.47363 224.865 -9.48242 449.832 -2.86328 674.766
c0.0117188 0.383789 0.107422 0.739258 0.158203 1.11133c-0.168945 0.709961 -0.327148 1.41992 -0.327148 2.19238z" />
    <glyph glyph-name="G" unicode="G" horiz-adv-x="545" 
d="M37.4287 490.366c34.0293 94.7695 108.176 178.929 210.951 196.293c56.3545 9.51074 122.006 5.67188 176.145 -13.6768c56.1006 -20.0479 88.5791 -62.5957 104.9 -118.759c5.36133 -18.4414 -84.876 -28.0371 -93.0225 -0.000976562
c-14.3652 49.4199 -45.6094 90.4736 -98.6543 98.8457c-42.7451 6.74316 -77.9863 -1.93359 -112.467 -28.4141c-65.8145 -50.5479 -101.326 -133.766 -115.618 -213.212c-18.9141 -105.115 -7.63281 -225.678 58.2891 -313.429
c26.0576 -34.6885 62.5557 -62.623 105.988 -70.5215c28.8252 -5.24316 46.7588 -4.58887 75.0938 9.40918c75.1338 37.1191 93.6426 129.809 96.3486 207.085c-41.6006 -0.213867 -83.1846 -0.744141 -124.785 -1.80957
c-8.97559 -0.231445 -46.5117 1.66895 -46.5117 17.6748c0 16.5469 36.1152 17.4043 46.5107 17.6748c57.2227 1.46582 114.417 1.92773 171.656 1.92773c8.99219 0 46.5107 -1.51074 46.5107 -17.6738c0 -0.197266 -0.0673828 -0.366211 -0.0791016 -0.557617
c0.0166016 -0.242188 0.0791016 -0.467773 0.0791016 -0.71582c-0.998047 -117.518 -41.5898 -234.1 -167.153 -262.948c-109.71 -25.2061 -236.243 5.53027 -301.201 102.087c-75.376 112.055 -77.4619 266.832 -32.9805 390.721z" />
    <glyph glyph-name="H" unicode="H" horiz-adv-x="563" 
d="M121.514 280.874c105.471 -0.168945 210.948 -0.654297 316.413 -0.129883c-1.12207 131.33 -0.0732422 262.672 3.31543 394.002c0.665039 25.8096 93.6533 24.5352 93.0215 0c-5.8291 -226.021 -4.94434 -452.054 2.51953 -678.024
c0.817383 -24.7158 -92.1768 -25.6064 -93.0225 0c-2.73438 82.8799 -4.57227 165.771 -5.53027 248.674c-105.465 -0.535156 -210.94 -0.0449219 -316.411 0.124023c0.958008 -82.9365 2.79004 -165.873 5.53027 -248.798c0.817383 -24.7158 -92.1768 -25.6064 -93.0225 0
c-7.46387 225.971 -8.34863 452.009 -2.51953 678.024c0.665039 25.8096 93.6533 24.5352 93.0215 0c-3.38281 -131.285 -4.43164 -262.587 -3.31543 -393.872z" />
    <glyph glyph-name="I" unicode="I" horiz-adv-x="154" 
d="M31.8066 674.753c0.665039 25.8037 93.6543 24.5352 93.0225 0c-5.8291 -226.021 -4.94434 -452.054 2.51953 -678.024c0.817383 -24.7158 -92.1768 -25.6064 -93.0225 0c-7.46387 225.971 -8.34863 452.009 -2.51953 678.024z" />
    <glyph glyph-name="I" unicode="&#xcf;" horiz-adv-x="154" 
d="M31.8066 674.753c0.665039 25.8037 93.6543 24.5352 93.0225 0c-5.8291 -226.021 -4.94434 -452.054 2.51953 -678.024c0.817383 -24.7158 -92.1768 -25.6064 -93.0225 0c-7.46387 225.971 -8.34863 452.009 -2.51953 678.024z" />
    <glyph glyph-name="I" unicode="&#xce;" horiz-adv-x="154" 
d="M31.8066 674.753c0.665039 25.8037 93.6543 24.5352 93.0225 0c-5.8291 -226.021 -4.94434 -452.054 2.51953 -678.024c0.817383 -24.7158 -92.1768 -25.6064 -93.0225 0c-7.46387 225.971 -8.34863 452.009 -2.51953 678.024z" />
    <glyph glyph-name="I" unicode="&#xcd;" horiz-adv-x="154" 
d="M31.8066 674.753c0.665039 25.8037 93.6543 24.5352 93.0225 0c-5.8291 -226.021 -4.94434 -452.054 2.51953 -678.024c0.817383 -24.7158 -92.1768 -25.6064 -93.0225 0c-7.46387 225.971 -8.34863 452.009 -2.51953 678.024z" />
    <glyph glyph-name="J" unicode="J" horiz-adv-x="420" 
d="M7.2793 257.63c0.874023 25.9395 93.8457 24.3701 93.0225 -0.00195312c-2.2666 -67.2637 -3.33789 -159.339 49.6113 -210.428c5.96484 -5.75586 12.832 -10.7617 20.1445 -14.6855c5.38379 -2.89258 11.4834 -4.91699 13.5859 -5.50879
c2.37305 -0.670898 11.4268 -2.07422 9.05371 -1.83789c2.75098 -0.321289 5.99805 -0.676758 6.86035 -0.699219c9.4375 -0.270508 20.8877 0.361328 31.1709 4.05371c58.9307 21.1748 69.8174 96.1621 70.5273 150.081c2.10254 158.747 -1.13867 317.787 -5.60352 476.483
c-82 -2.04102 -164.231 1.75879 -246.142 -2.35156c-8.95801 -0.451172 -46.5107 1.82129 -46.5107 17.6748c0 16.7217 36.1035 17.1504 46.5107 17.6748c47.3398 2.37305 94.9619 1.49902 142.347 1.82617c29.4961 0.203125 58.998 0.400391 88.4941 0.806641
c11.7041 0.163086 23.4141 0.337891 35.1123 0.642578c1.16113 0.0341797 2.31641 0.0732422 3.47754 0.107422c16.4336 3.37109 37.8232 2.78516 52.459 -1.88281c5.10254 -1.38672 9.44336 -3.43359 12.3467 -6.36523
c0.248047 -0.219727 0.451172 -0.456055 0.682617 -0.681641c0.140625 -0.163086 0.31543 -0.30957 0.451172 -0.478516c1.97852 -2.13672 3.17383 -4.56055 3.25293 -7.30566c3.26953 -113.882 5.40625 -227.786 5.93652 -341.713
c0.203125 -44.7188 0.225586 -89.4424 0.237305 -134.166c0.0117188 -37.9307 -1.52148 -75.3652 -14.6689 -111.367c-27.833 -76.2334 -105.205 -99.9404 -180.53 -98.3623c-52.2393 1.09375 -106.965 12.8086 -143.21 53.2764
c-49.916 55.7285 -50.9814 145.283 -48.6191 215.208z" />
    <glyph glyph-name="K" unicode="K" horiz-adv-x="430" 
d="M124.829 674.753c-2.53125 -98.0908 -3.71973 -196.186 -3.72559 -294.276c68.3682 103.66 137.774 206.655 206.317 310.191c14.8779 22.4609 102.686 10.2158 89.7021 -9.39746c-56.5293 -85.3887 -113.284 -170.637 -169.988 -255.913
c-30.8496 -46.3926 -61.9082 -92.6611 -92.166 -139.438c-3.77734 -5.83496 -7.3125 -11.8789 -11.2422 -17.6182c-0.383789 -0.558594 -1.00977 -1.71973 -1.65234 -2.90918c0.0849609 -0.0449219 0.119141 -0.0898438 0.208984 -0.134766
c3.0332 -1.52246 6.34277 -6.57422 8.77246 -8.98145c87.6611 -87.001 187.336 -163.64 283.955 -240.177c15.9326 -12.623 -4.86523 -21.2881 -16.6875 -24.1807c-17.8887 -4.375 -48.2256 -5.86328 -63.6387 6.34277c-72.2979 57.2734 -143.874 115.539 -213.443 176.122
c-6.05469 5.27148 -12.3066 10.5371 -18.6094 15.8252c1.05957 -64.4951 2.58691 -128.99 4.71777 -193.48c0.817383 -24.7158 -92.1768 -25.6064 -93.0225 0c-7.46387 225.971 -8.34863 452.009 -2.51953 678.024c0.665039 25.8096 93.6533 24.5352 93.0215 0z
M140.576 266.415c-0.118164 2.42383 -1.67969 1.58398 0 0z" />
    <glyph glyph-name="L" unicode="L" horiz-adv-x="335" 
d="M31.8047 674.753c0.676758 25.8096 93.6689 24.5283 93.0264 -0.000976562c-5.72266 -219.876 -4.93359 -439.774 2.14746 -659.611c59.6865 -0.457031 119.384 -1.37012 179.059 -0.541016c8.98633 0.124023 46.5107 -1.5957 46.5107 -17.6748
c0 -16.4678 -36.1211 -17.5273 -46.5117 -17.6738c-75.0547 -1.04297 -150.138 0.71582 -225.198 0.789062c-8.99805 0.00585938 -46.5117 1.50586 -46.5117 17.6748c0 0.907227 0.146484 1.75293 0.360352 2.57617c-0.208984 0.766602 -0.333008 1.55566 -0.361328 2.37305
c-7.45898 223.992 -8.34961 448.046 -2.52051 672.089z" />
    <glyph glyph-name="M" unicode="M" horiz-adv-x="644" 
d="M518.869 690.138c5.59863 23.4639 93.2314 21.7412 92.7295 -2.16797c-4.82031 -229.325 1.30762 -458.571 7.66699 -687.801c0.6875 -24.8174 -92.3125 -25.5225 -93.0225 -0.000976562c-4.76367 171.612 -9.38672 343.241 -9.39258 514.898
c-52.6396 -92.4023 -106.908 -183.925 -161.272 -275.233c-11.3828 -19.1172 -78.46 -19.6641 -89.7012 0c-48.6816 85.1748 -96.8838 170.801 -143.339 257.328c-1.39844 -165.676 0.168945 -331.346 4.70703 -496.993
c0.682617 -24.8281 -92.3223 -25.5156 -93.0215 0.000976562c-6.16211 224.854 -6.89453 449.76 -2.08008 674.648c0.552734 25.7305 93.5469 24.625 93.0225 -0.000976562v-0.0351562c58.4912 -117.936 121.764 -233.661 186.558 -348.349
c71.1025 120.038 141.309 240.764 207.146 363.705z" />
    <glyph glyph-name="N" unicode="N" horiz-adv-x="597" 
d="M124.02 676.664c1.08203 -0.998047 2.0293 -2.05371 2.71191 -3.23242c108.441 -184.116 229.021 -360.193 347.255 -537.928c-3.16797 179.735 -2.90332 359.494 0.975586 539.247c0.558594 25.7363 93.5527 24.6201 93.0225 0
c-4.87695 -226.016 -4.13281 -452.048 2.1084 -678.024c0.585938 -21.1016 -66.5254 -24.7549 -87.0859 -9.69629c-5.77344 1.9502 -10.3115 4.70703 -12.7305 8.43359c-115.071 177.356 -235.882 350.767 -348.433 529.634
c-1.87207 -176.134 -0.394531 -352.268 4.4707 -528.373c0.6875 -24.8232 -92.3174 -25.5166 -93.0225 0c-6.24121 225.981 -6.98535 452.014 -2.1084 678.023c0.541016 25.0479 88.6191 24.6533 92.8359 1.91602z" />
    <glyph glyph-name="O" unicode="O" horiz-adv-x="586" 
d="M69.8477 559.214c57.5381 96.4834 154.016 145.769 266.088 129.859c267.988 -38.0381 296.565 -424.83 162.991 -603.021c-121.419 -151.609 -364.742 -109.946 -450.672 57.3926c-63.3623 123.387 -48.749 297.817 21.5928 415.77zM238.296 636.529
c-35.5625 -23.6445 -62.9814 -58.2305 -83.6719 -95.2139c-56.1514 -100.312 -70.127 -242.128 -32.7432 -351.082c20.8203 -60.6846 63.2949 -118.279 121.51 -147.376c25.415 -12.7021 53.6992 -20.4092 81.623 -12.1504c34.9033 10.3174 62.1055 37.1357 84.2168 64.7432
c77.4395 103.311 93.5186 248.374 58.3789 370.972c-21.6035 75.3594 -71.0352 169.008 -154.586 187.877c-15.9941 3.6084 -31.6328 3.06152 -40.2363 -0.0957031c-8.58594 -3.15137 -24.2197 -10.8467 -34.4912 -17.6738z" />
    <glyph glyph-name="O" unicode="&#xd6;" horiz-adv-x="586" 
d="M69.8477 559.214c57.5381 96.4834 154.016 145.769 266.088 129.859c267.988 -38.0381 296.565 -424.83 162.991 -603.021c-121.419 -151.609 -364.742 -109.946 -450.672 57.3926c-63.3623 123.387 -48.749 297.817 21.5928 415.77zM238.296 636.529
c-35.5625 -23.6445 -62.9814 -58.2305 -83.6719 -95.2139c-56.1514 -100.312 -70.127 -242.128 -32.7432 -351.082c20.8203 -60.6846 63.2949 -118.279 121.51 -147.376c25.415 -12.7021 53.6992 -20.4092 81.623 -12.1504c34.9033 10.3174 62.1055 37.1357 84.2168 64.7432
c77.4395 103.311 93.5186 248.374 58.3789 370.972c-21.6035 75.3594 -71.0352 169.008 -154.586 187.877c-15.9941 3.6084 -31.6328 3.06152 -40.2363 -0.0957031c-8.58594 -3.15137 -24.2197 -10.8467 -34.4912 -17.6738z" />
    <glyph glyph-name="O" unicode="&#xd5;" horiz-adv-x="586" 
d="M69.8477 559.214c57.5381 96.4834 154.016 145.769 266.088 129.859c267.988 -38.0381 296.565 -424.83 162.991 -603.021c-121.419 -151.609 -364.742 -109.946 -450.672 57.3926c-63.3623 123.387 -48.749 297.817 21.5928 415.77zM238.296 636.529
c-35.5625 -23.6445 -62.9814 -58.2305 -83.6719 -95.2139c-56.1514 -100.312 -70.127 -242.128 -32.7432 -351.082c20.8203 -60.6846 63.2949 -118.279 121.51 -147.376c25.415 -12.7021 53.6992 -20.4092 81.623 -12.1504c34.9033 10.3174 62.1055 37.1357 84.2168 64.7432
c77.4395 103.311 93.5186 248.374 58.3789 370.972c-21.6035 75.3594 -71.0352 169.008 -154.586 187.877c-15.9941 3.6084 -31.6328 3.06152 -40.2363 -0.0957031c-8.58594 -3.15137 -24.2197 -10.8467 -34.4912 -17.6738z" />
    <glyph glyph-name="O" unicode="&#xd4;" horiz-adv-x="586" 
d="M69.8477 559.214c57.5381 96.4834 154.016 145.769 266.088 129.859c267.988 -38.0381 296.565 -424.83 162.991 -603.021c-121.419 -151.609 -364.742 -109.946 -450.672 57.3926c-63.3623 123.387 -48.749 297.817 21.5928 415.77zM238.296 636.529
c-35.5625 -23.6445 -62.9814 -58.2305 -83.6719 -95.2139c-56.1514 -100.312 -70.127 -242.128 -32.7432 -351.082c20.8203 -60.6846 63.2949 -118.279 121.51 -147.376c25.415 -12.7021 53.6992 -20.4092 81.623 -12.1504c34.9033 10.3174 62.1055 37.1357 84.2168 64.7432
c77.4395 103.311 93.5186 248.374 58.3789 370.972c-21.6035 75.3594 -71.0352 169.008 -154.586 187.877c-15.9941 3.6084 -31.6328 3.06152 -40.2363 -0.0957031c-8.58594 -3.15137 -24.2197 -10.8467 -34.4912 -17.6738z" />
    <glyph glyph-name="O" unicode="&#xd3;" horiz-adv-x="586" 
d="M69.8477 559.214c57.5381 96.4834 154.016 145.769 266.088 129.859c267.988 -38.0381 296.565 -424.83 162.991 -603.021c-121.419 -151.609 -364.742 -109.946 -450.672 57.3926c-63.3623 123.387 -48.749 297.817 21.5928 415.77zM238.296 636.529
c-35.5625 -23.6445 -62.9814 -58.2305 -83.6719 -95.2139c-56.1514 -100.312 -70.127 -242.128 -32.7432 -351.082c20.8203 -60.6846 63.2949 -118.279 121.51 -147.376c25.415 -12.7021 53.6992 -20.4092 81.623 -12.1504c34.9033 10.3174 62.1055 37.1357 84.2168 64.7432
c77.4395 103.311 93.5186 248.374 58.3789 370.972c-21.6035 75.3594 -71.0352 169.008 -154.586 187.877c-15.9941 3.6084 -31.6328 3.06152 -40.2363 -0.0957031c-8.58594 -3.15137 -24.2197 -10.8467 -34.4912 -17.6738z" />
    <glyph glyph-name="P" unicode="P" horiz-adv-x="517" 
d="M346.722 683.046c68.752 -19.8672 131.619 -63.0303 157.637 -131.957c21.6543 -57.3633 15.6836 -121.515 -13.8018 -175.101c-68.8369 -125.078 -237.72 -132.52 -368.441 -143.338c1.00879 -75.0439 2.7168 -150.082 5.23145 -225.12
c0.829102 -24.7041 -92.1592 -25.6172 -93.0215 0.000976562c-7.45898 222.419 -8.34961 444.905 -2.52051 667.375c0.101562 3.95215 2.39062 7.25586 6.15137 9.95605c0.0673828 0.0507812 0.129883 0.107422 0.197266 0.158203
c0.0224609 0.0166016 0.0507812 0.0332031 0.0732422 0.0498047c4.5332 3.33203 11.1289 5.66016 16.6143 6.69727c94.0537 17.8096 199.541 17.9619 291.881 -8.72168zM404.836 393.063c22.7539 45.8857 26.8076 103.197 8.80078 151.411
c-42.7109 114.338 -179.944 135.412 -289.028 120.473c-3.34277 -132.086 -4.3125 -264.172 -2.9541 -396.246c51.624 4.14941 103.215 8.73828 153.199 23.374c56.6533 16.5918 103.316 47.21 129.982 100.988z" />
    <glyph glyph-name="Q" unicode="Q" horiz-adv-x="586" 
d="M69.8477 559.214c57.5381 96.4834 154.016 145.771 266.082 129.861c267.994 -38.0381 296.571 -424.83 162.991 -603.021c-41.5332 -51.8672 -97.3408 -81.0879 -156.227 -90.4238c0.501953 -48.4844 0.496094 -96.9746 -0.124023 -145.47
c-0.327148 -25.584 -93.3379 -24.7832 -93.0225 0c0.625977 48.9463 0.637695 97.8818 0.119141 146.812c-82.7949 14.9902 -160.206 66.2314 -201.412 146.473c-63.3623 123.387 -48.749 297.817 21.5928 415.77zM238.29 636.531
c-35.5625 -23.6445 -62.9736 -58.2314 -83.6699 -95.2148c-56.1514 -100.312 -70.127 -242.128 -32.7432 -351.082c20.8203 -60.6846 63.2949 -118.279 121.51 -147.376c1.85449 -0.924805 3.72656 -1.82129 5.60938 -2.68945
c-0.755859 42.6943 -1.83789 85.3828 -3.53516 128.055c-0.975586 24.5801 92.002 25.7246 93.0225 0c1.73047 -43.6191 2.84082 -87.2549 3.59082 -130.896c26.8867 12.8369 48.7832 35.1904 67.1504 58.125c77.4395 103.311 93.5186 248.374 58.3789 370.972
c-21.6035 75.3594 -71.0352 169.008 -154.586 187.877c-15.9941 3.6084 -31.6328 3.06152 -40.2363 -0.0957031c-8.58594 -3.15137 -24.2197 -10.8467 -34.4912 -17.6738z" />
    <glyph glyph-name="R" unicode="R" horiz-adv-x="521" 
d="M34.7363 681.946c3.85645 5.13574 12.917 8.70898 20.0996 10.0283c92.8809 17.1504 196.75 17.7539 288.177 -7.46387c68.8135 -18.9766 134.284 -60.1992 161.058 -129.193c21.6943 -55.9033 16.1865 -118.318 -12.8594 -170.642
c-63.2324 -113.916 -211.369 -128.997 -336.024 -138.733c107.736 -80.5518 223.619 -149.873 333.199 -227.837c16.8906 -12.0137 -5.78418 -21.5078 -16.6875 -24.1797c-18.6328 -4.56055 -47.25 -5.31641 -63.6387 6.34277
c-93.5244 66.5361 -191.632 126.792 -285.358 193.097c1.05469 -61.9473 2.57129 -123.895 4.64551 -185.836c0.829102 -24.7041 -92.1592 -25.6172 -93.0215 0.000976562c-7.45898 222.419 -8.34961 444.905 -2.52051 667.375
c0.0732422 2.63281 1.13867 4.9668 2.93164 7.04102zM413.281 548.658c-43.8164 111.886 -181.012 130.873 -288.669 116.418c-3.25879 -128.562 -4.23926 -257.125 -3.03809 -385.682c51.6133 4.07031 103.176 8.55762 153.278 22.748
c55.582 15.7402 102.324 44.7236 129.368 96.9912c23.3291 45.0908 27.6816 101.976 9.06055 149.524z" />
    <glyph glyph-name="S" unicode="S" horiz-adv-x="591" 
d="M272.701 669.392c-68.3066 -5.71094 -156.78 -47.499 -171.579 -120.834c-19.1797 -95.0127 92.6953 -147.584 162.456 -180.361c95.3789 -44.8145 206.565 -78.6748 284.924 -151.981c40.2646 -37.665 64.5918 -91.4033 26.0527 -140.615
c-51.8721 -66.2266 -155.538 -84.29 -233.986 -89.3809c-113.104 -7.33984 -349.419 17.8662 -312.024 187.617c6.17871 28.0479 97.4248 19.9863 93.0215 0.000976562c-40.6592 -184.567 263.631 -188.768 354.421 -98.7393
c96.0381 95.2324 -88.6533 182.29 -154.891 212.683c-93.1348 42.7334 -205.433 77.1914 -277.771 153.374c-27.9912 29.4736 -43.7539 68.7461 -34.8242 109.383c15.9209 72.4561 89.9102 115.201 155.815 136.128c120.687 38.3252 315.695 30.2686 360.098 -113.854
c5.53613 -17.9678 -84.3799 -28.0645 -93.0225 0c-21.5869 70.0771 -89.8994 102.33 -158.69 96.5801z" />
    <glyph glyph-name="T" unicode="T" horiz-adv-x="502" 
d="M-16 678.085c0 16.3604 36.125 17.6885 46.5098 17.6768c146.563 -0.185547 294.328 -9.68555 440.757 -2.59863c8.95801 0.43457 46.5107 -1.80957 46.5107 -17.6738c0 -16.7158 -36.1035 -17.1729 -46.5107 -17.6748
c-58.2207 -2.81836 -116.655 -3.00391 -175.141 -2.20312c-5.58105 -219.64 -4.65039 -439.296 2.71289 -658.885c0.829102 -24.7041 -92.1592 -25.6172 -93.0215 0.000976562c-7.37988 220.203 -8.30469 440.474 -2.67285 660.733
c-57.6289 1.37598 -115.224 2.87598 -172.633 2.94922c-8.99805 0.0117188 -46.5117 1.50586 -46.5117 17.6748z" />
    <glyph glyph-name="U" unicode="U" horiz-adv-x="607" 
d="M29.7676 689.326c3.1123 27.1064 95.6172 22.6064 93.0068 0.00488281c-9.97852 -86.9277 -16.5518 -174.222 -14.3252 -261.786c2.54297 -100.03 12.7812 -209.7 63.5098 -298.195c21.0342 -36.6904 50.3789 -70.3701 90.0625 -87.1426
c36.4531 -15.4082 61.3154 -16.3154 95.5986 5.18164c91.6914 57.4932 114.97 193.633 127.869 291.718c15.5264 118.048 14.8164 237.708 10.9043 356.483c-0.817383 24.7158 92.1768 25.6064 93.0225 0c4.76953 -144.658 6.23535 -292.862 -24.2529 -435.085
c-23.3906 -109.123 -71.0234 -228.648 -190.909 -256.933c-113.329 -26.7393 -235.244 15.6279 -293.154 118.426c-53.4961 94.9502 -64.2637 211.848 -65.9326 318.756c-1.29688 83.1621 5.12402 166.02 14.6006 248.572z" />
    <glyph glyph-name="U" unicode="&#xdc;" horiz-adv-x="607" 
d="M29.7676 689.326c3.1123 27.1064 95.6172 22.6064 93.0068 0.00488281c-9.97852 -86.9277 -16.5518 -174.222 -14.3252 -261.786c2.54297 -100.03 12.7812 -209.7 63.5098 -298.195c21.0342 -36.6904 50.3789 -70.3701 90.0625 -87.1426
c36.4531 -15.4082 61.3154 -16.3154 95.5986 5.18164c91.6914 57.4932 114.97 193.633 127.869 291.718c15.5264 118.048 14.8164 237.708 10.9043 356.483c-0.817383 24.7158 92.1768 25.6064 93.0225 0c4.76953 -144.658 6.23535 -292.862 -24.2529 -435.085
c-23.3906 -109.123 -71.0234 -228.648 -190.909 -256.933c-113.329 -26.7393 -235.244 15.6279 -293.154 118.426c-53.4961 94.9502 -64.2637 211.848 -65.9326 318.756c-1.29688 83.1621 5.12402 166.02 14.6006 248.572z" />
    <glyph glyph-name="U" unicode="&#xdb;" horiz-adv-x="607" 
d="M29.7676 689.326c3.1123 27.1064 95.6172 22.6064 93.0068 0.00488281c-9.97852 -86.9277 -16.5518 -174.222 -14.3252 -261.786c2.54297 -100.03 12.7812 -209.7 63.5098 -298.195c21.0342 -36.6904 50.3789 -70.3701 90.0625 -87.1426
c36.4531 -15.4082 61.3154 -16.3154 95.5986 5.18164c91.6914 57.4932 114.97 193.633 127.869 291.718c15.5264 118.048 14.8164 237.708 10.9043 356.483c-0.817383 24.7158 92.1768 25.6064 93.0225 0c4.76953 -144.658 6.23535 -292.862 -24.2529 -435.085
c-23.3906 -109.123 -71.0234 -228.648 -190.909 -256.933c-113.329 -26.7393 -235.244 15.6279 -293.154 118.426c-53.4961 94.9502 -64.2637 211.848 -65.9326 318.756c-1.29688 83.1621 5.12402 166.02 14.6006 248.572z" />
    <glyph glyph-name="U" unicode="&#xda;" horiz-adv-x="607" 
d="M29.7676 689.326c3.1123 27.1064 95.6172 22.6064 93.0068 0.00488281c-9.97852 -86.9277 -16.5518 -174.222 -14.3252 -261.786c2.54297 -100.03 12.7812 -209.7 63.5098 -298.195c21.0342 -36.6904 50.3789 -70.3701 90.0625 -87.1426
c36.4531 -15.4082 61.3154 -16.3154 95.5986 5.18164c91.6914 57.4932 114.97 193.633 127.869 291.718c15.5264 118.048 14.8164 237.708 10.9043 356.483c-0.817383 24.7158 92.1768 25.6064 93.0225 0c4.76953 -144.658 6.23535 -292.862 -24.2529 -435.085
c-23.3906 -109.123 -71.0234 -228.648 -190.909 -256.933c-113.329 -26.7393 -235.244 15.6279 -293.154 118.426c-53.4961 94.9502 -64.2637 211.848 -65.9326 318.756c-1.29688 83.1621 5.12402 166.02 14.6006 248.572z" />
    <glyph glyph-name="V" unicode="V" horiz-adv-x="626" 
d="M545.133 698.527c9.18945 28.3467 98.6016 17.2295 93.0205 0.00585938c-19.8955 -61.3604 -42.1641 -121.949 -65.0078 -182.267c-67.3818 -177.926 -139.82 -354.082 -214.588 -529.025c-8.19141 -19.168 -81.4707 -19.3594 -89.7021 0.000976562
c-9.5166 22.3926 -18.9658 44.8135 -28.3916 67.2402c-87.8125 208.877 -179.78 418.177 -251.199 633.368c-5.75 17.3242 83.709 28.0693 93.0225 -0.000976562c18.4072 -55.4639 39.4307 -110.065 60.5781 -164.525c54.7646 -141.021 112.179 -281.067 170.828 -420.55
c82.6318 196.091 165.845 393.41 231.439 595.753z" />
    <glyph glyph-name="W" unicode="W" horiz-adv-x="845" 
d="M-5.85742 687.844c-4.23438 20.7246 87.373 27.6533 93.0391 0c27.0215 -132.232 64.1855 -262.684 100.718 -392.531c18.8867 -67.1396 37.5361 -138.964 58.3848 -207.118c41.5898 60.9834 86.0713 120.19 130.62 178.637
c0.794922 2.35645 3.0166 4.4082 5.95996 6.17285c3.25879 2.23242 7.49805 3.89551 12.3467 5.07422c6.77051 1.99023 13.3896 3.10059 15.9209 3.3877c16.5244 1.87207 45.6943 2.35645 57.2119 -12.3408c44.8535 -57.2344 87.5869 -116.357 128.291 -176.782
c58.2266 200.753 116.65 402.194 162.203 606.184c6.26953 28.0645 97.4707 19.9062 93.0225 -0.000976562c-13.5869 -60.8418 -28.9219 -121.283 -44.6797 -181.59c-45.9307 -175.789 -95.4414 -350.71 -146.739 -525.006
c-7.3125 -24.8398 -78.8662 -24.6875 -91.3594 -4.69629c-45.5693 72.918 -94.0645 144.337 -145.43 213.433c-51.7939 -69.0898 -102.302 -139.641 -146.727 -213.433c-10.334 -17.167 -81.7979 -21.249 -89.7021 0c-36.4307 97.9043 -62.1221 200.81 -90.4346 301.234
c-37.2432 132.108 -75.1514 264.82 -102.646 399.376z" />
    <glyph glyph-name="X" unicode="X" horiz-adv-x="546" 
d="M-6.62891 -3.36816c13.1416 17.9902 26.1582 36.0645 39.1641 54.1562c64.8115 90.1973 129.302 180.902 192.27 272.656c-80.5967 117.738 -158.611 237.235 -231.428 359.697c-12.7637 21.4629 76.3799 31.7969 89.7021 9.39844
c40.5352 -68.166 83.083 -135.114 126.533 -201.453c21.0625 -32.1631 42.3564 -64.1855 63.7627 -96.1348c65.6514 97.6338 129.25 196.598 189.297 297.586c13.5479 22.7822 102.263 11.7266 89.7021 -9.39746c-40.5352 -68.166 -83.083 -135.108 -126.533 -201.453
c-34.4971 -52.6729 -69.5186 -105.024 -104.924 -157.128c75.3145 -110.601 152.551 -219.938 231.45 -327.929c13.4971 -18.4746 -73.8594 -31.0752 -89.7012 -9.39844c-13.1416 17.9844 -26.1592 36.0703 -39.1602 54.1562
c-50.666 70.5166 -101.129 141.349 -150.831 212.744c-62.0146 -89.8252 -125.247 -178.816 -189.602 -266.9c-16.1123 -22.043 -102.956 -8.74316 -89.7021 9.39941z" />
    <glyph glyph-name="Y" unicode="Y" horiz-adv-x="557" 
d="M19.9023 687.686c3.43359 27.2354 95.834 22.3438 93.0205 0.00195312c-6.99609 -55.5596 -7.44727 -112.597 -3.05566 -168.359c5.05176 -64.1514 16.4004 -133.101 52.8594 -187.611c32.3037 -48.293 78.082 -72.1465 128.134 -41.7363
c61.7158 37.4961 90.6143 115.375 107.471 181.854c18.5479 73.1553 25.6006 148.706 30.0938 223.856c-0.219727 6.45508 6.00391 11.2695 15.2891 14.4268c0.146484 0.0507812 0.304688 0.0957031 0.451172 0.146484c0.77832 0.259766 1.56152 0.507812 2.38477 0.744141
c0.811523 0.236328 1.65137 0.456055 2.49707 0.669922c0.197266 0.0507812 0.394531 0.107422 0.597656 0.152344c3.6416 0.884766 7.57715 1.54395 11.6758 1.98926c0.0341797 0.00585938 0.0683594 0.00585938 0.102539 0.0117188
c1.12207 0.124023 2.26074 0.225586 3.40527 0.31543c0.546875 0.0390625 1.09375 0.0839844 1.64062 0.118164c0.575195 0.0341797 1.14453 0.0683594 1.71973 0.0966797c15.2334 0.806641 31.4189 -1.11621 41.9053 -5.88574
c7.16016 -3.12305 11.6699 -7.40723 11.3486 -12.791c4.34668 -125.326 8.93555 -250.658 10.9424 -376.047c1.19531 -74.7393 15.2109 -162.98 -28.5713 -228.919c-34.4238 -51.8447 -94.6855 -80.8955 -154.017 -93.3379
c-121.211 -25.4209 -291.199 3.84473 -335.518 136.985c-5.75586 17.3018 83.6807 28.0693 93.0225 -0.000976562c17.6289 -52.9609 64.6309 -90.373 117.631 -104.101c21.9814 -5.69434 41.9277 -6.73145 58.5703 -5.125c20.8877 2.01855 42.4297 7.26758 63.5146 17.3535
c45.8291 21.9141 80.4053 63.4805 90.0293 113.724c6.87207 35.8613 3.35449 74.0967 3.00488 110.393c-0.242188 25.3643 -0.642578 50.7285 -1.11035 76.0869c-29.8682 -46.1953 -71.751 -81.9219 -129.532 -95.6104c-80.0664 -18.9766 -174.994 -4.14355 -227.96 63.5488
c-45.1016 57.6455 -59.0098 137.639 -64.6025 208.69c-4.3916 55.7627 -3.94629 112.8 3.05566 168.359z" />
    <glyph glyph-name="Y" unicode="&#x178;" horiz-adv-x="557" 
d="M19.9023 687.686c3.43359 27.2354 95.834 22.3438 93.0205 0.00195312c-6.99609 -55.5596 -7.44727 -112.597 -3.05566 -168.359c5.05176 -64.1514 16.4004 -133.101 52.8594 -187.611c32.3037 -48.293 78.082 -72.1465 128.134 -41.7363
c61.7158 37.4961 90.6143 115.375 107.471 181.854c18.5479 73.1553 25.6006 148.706 30.0938 223.856c-0.219727 6.45508 6.00391 11.2695 15.2891 14.4268c0.146484 0.0507812 0.304688 0.0957031 0.451172 0.146484c0.77832 0.259766 1.56152 0.507812 2.38477 0.744141
c0.811523 0.236328 1.65137 0.456055 2.49707 0.669922c0.197266 0.0507812 0.394531 0.107422 0.597656 0.152344c3.6416 0.884766 7.57715 1.54395 11.6758 1.98926c0.0341797 0.00585938 0.0683594 0.00585938 0.102539 0.0117188
c1.12207 0.124023 2.26074 0.225586 3.40527 0.31543c0.546875 0.0390625 1.09375 0.0839844 1.64062 0.118164c0.575195 0.0341797 1.14453 0.0683594 1.71973 0.0966797c15.2334 0.806641 31.4189 -1.11621 41.9053 -5.88574
c7.16016 -3.12305 11.6699 -7.40723 11.3486 -12.791c4.34668 -125.326 8.93555 -250.658 10.9424 -376.047c1.19531 -74.7393 15.2109 -162.98 -28.5713 -228.919c-34.4238 -51.8447 -94.6855 -80.8955 -154.017 -93.3379
c-121.211 -25.4209 -291.199 3.84473 -335.518 136.985c-5.75586 17.3018 83.6807 28.0693 93.0225 -0.000976562c17.6289 -52.9609 64.6309 -90.373 117.631 -104.101c21.9814 -5.69434 41.9277 -6.73145 58.5703 -5.125c20.8877 2.01855 42.4297 7.26758 63.5146 17.3535
c45.8291 21.9141 80.4053 63.4805 90.0293 113.724c6.87207 35.8613 3.35449 74.0967 3.00488 110.393c-0.242188 25.3643 -0.642578 50.7285 -1.11035 76.0869c-29.8682 -46.1953 -71.751 -81.9219 -129.532 -95.6104c-80.0664 -18.9766 -174.994 -4.14355 -227.96 63.5488
c-45.1016 57.6455 -59.0098 137.639 -64.6025 208.69c-4.3916 55.7627 -3.94629 112.8 3.05566 168.359z" />
    <glyph glyph-name="Y" unicode="&#xdd;" horiz-adv-x="557" 
d="M19.9023 687.686c3.43359 27.2354 95.834 22.3438 93.0205 0.00195312c-6.99609 -55.5596 -7.44727 -112.597 -3.05566 -168.359c5.05176 -64.1514 16.4004 -133.101 52.8594 -187.611c32.3037 -48.293 78.082 -72.1465 128.134 -41.7363
c61.7158 37.4961 90.6143 115.375 107.471 181.854c18.5479 73.1553 25.6006 148.706 30.0938 223.856c-0.219727 6.45508 6.00391 11.2695 15.2891 14.4268c0.146484 0.0507812 0.304688 0.0957031 0.451172 0.146484c0.77832 0.259766 1.56152 0.507812 2.38477 0.744141
c0.811523 0.236328 1.65137 0.456055 2.49707 0.669922c0.197266 0.0507812 0.394531 0.107422 0.597656 0.152344c3.6416 0.884766 7.57715 1.54395 11.6758 1.98926c0.0341797 0.00585938 0.0683594 0.00585938 0.102539 0.0117188
c1.12207 0.124023 2.26074 0.225586 3.40527 0.31543c0.546875 0.0390625 1.09375 0.0839844 1.64062 0.118164c0.575195 0.0341797 1.14453 0.0683594 1.71973 0.0966797c15.2334 0.806641 31.4189 -1.11621 41.9053 -5.88574
c7.16016 -3.12305 11.6699 -7.40723 11.3486 -12.791c4.34668 -125.326 8.93555 -250.658 10.9424 -376.047c1.19531 -74.7393 15.2109 -162.98 -28.5713 -228.919c-34.4238 -51.8447 -94.6855 -80.8955 -154.017 -93.3379
c-121.211 -25.4209 -291.199 3.84473 -335.518 136.985c-5.75586 17.3018 83.6807 28.0693 93.0225 -0.000976562c17.6289 -52.9609 64.6309 -90.373 117.631 -104.101c21.9814 -5.69434 41.9277 -6.73145 58.5703 -5.125c20.8877 2.01855 42.4297 7.26758 63.5146 17.3535
c45.8291 21.9141 80.4053 63.4805 90.0293 113.724c6.87207 35.8613 3.35449 74.0967 3.00488 110.393c-0.242188 25.3643 -0.642578 50.7285 -1.11035 76.0869c-29.8682 -46.1953 -71.751 -81.9219 -129.532 -95.6104c-80.0664 -18.9766 -174.994 -4.14355 -227.96 63.5488
c-45.1016 57.6455 -59.0098 137.639 -64.6025 208.69c-4.3916 55.7627 -3.94629 112.8 3.05566 168.359z" />
    <glyph glyph-name="Z" unicode="Z" horiz-adv-x="513" 
d="M37.5166 -10.7871c-8.99805 0.00585938 -46.5098 1.50879 -46.5156 17.6719c0 1.03711 0.146484 2.0127 0.422852 2.93164c-0.107422 1.38672 0.236328 2.82422 1.23438 4.3125c12.1719 18.125 24.2764 36.2949 36.3691 54.4766
c133.659 200.962 266.01 403.147 390.677 609.854c-127.396 -0.620117 -254.791 -2.68945 -382.192 -2.80176c-8.99219 -0.00585938 -46.5107 1.5166 -46.5107 17.6738c0 16.3779 36.126 17.6689 46.5107 17.6748c146.919 0.124023 293.832 2.98828 440.757 3.06152
c8.99219 0.00585938 46.5107 -1.5166 46.5107 -17.6738c0 -3.13477 -1.3418 -5.71094 -3.55762 -7.83594c-40.0049 -66.6768 -81.0244 -132.745 -122.546 -198.492c-98.9141 -156.633 -200.139 -311.867 -303.264 -465.766
c117.146 -0.862305 234.415 -3.50098 351.487 -0.868164c8.98047 0.203125 46.5107 -1.65137 46.5107 -17.6738c0 -16.5293 -36.1152 -17.4365 -46.5107 -17.6729c-136.365 -3.06738 -272.989 1.03711 -409.383 1.12695z" />
    <glyph glyph-name="bracketleft" unicode="[" horiz-adv-x="338" 
d="M282.8 -236.688c15.041 -12.9727 -4.59277 -20.9482 -16.6914 -24.1729c-41.5615 -11.1064 -88.0391 -12.916 -130.852 -11.7715c-21.3555 0.575195 -67.3311 -1.41504 -76.374 23.3623c-6.98535 19.1621 -3.44531 47.0576 -4.04297 66.9873
c-6.78809 225.361 -4.83789 451.219 -3.58105 676.648c0.569336 101.552 1.17285 203.138 3.77148 304.661c0.614258 23.876 -0.541016 49.1611 3.1123 72.8506c2.15332 13.9648 7.86426 17.6064 22.7305 22.4375c26.5312 8.62012 54.0605 3.94629 81.3525 4.28418
c28.5605 0.349609 56.2021 -0.225586 84.4414 -4.78613c12.5498 -2.0293 31.5771 -11.9014 16.6826 -24.1855c-15.8193 -13.0459 -45.1807 -9.3252 -63.6387 -6.34277c-14.8896 2.40723 -32.1016 -0.665039 -48.6934 -1.79785
c-0.484375 -4.29004 -1.12109 -8.5918 -1.30176 -12.4873c-1.64648 -35.1963 -2.21582 -70.4541 -2.8418 -105.679c-3.8623 -218.021 -3.87891 -436.167 -2.67773 -654.211c0.484375 -89.0029 0.96875 -178.051 3.53418 -267.02
c0.558594 -19.2754 1.82129 -38.4775 2.79688 -57.7139c22.8662 1.52246 46.0996 -0.744141 68.6338 5.27734c16.2197 4.33008 49.7588 5.62695 63.6387 -6.3418zM132.737 -237.036c0.918945 -1.38086 2.22656 -1.51172 3.15723 -1.26367
c-1.95605 0.975586 -3.39355 1.62402 -3.15723 1.26367zM151.85 -249.028c0.360352 0.416992 0.253906 0.907227 -0.0224609 1.41992c0.107422 -0.71582 0.146484 -1.2793 0.0224609 -1.41992z" />
    <glyph glyph-name="backslash" unicode="\" horiz-adv-x="571" 
d="M520.136 -101.801c10.4688 -25.8037 -80.5576 -31.9375 -89.6963 -9.39746c-126.538 311.985 -253.071 623.965 -379.604 935.944c-10.4639 25.8037 80.5566 31.9375 89.7012 9.39746c126.533 -311.985 253.066 -623.965 379.6 -935.944z" />
    <glyph glyph-name="bracketright" unicode="]" horiz-adv-x="338" 
d="M287.128 68.2891c-0.569336 -91.0264 -0.714844 -182.191 -4.30566 -273.179c-0.524414 -13.2148 2.68945 -38.3594 -5.37793 -50.2832c-14.9629 -22.1113 -69.835 -17.8887 -92.2393 -17.5781c-37.2539 0.512695 -76.7119 2.19824 -112.884 11.8613
c-11.6982 3.12891 -32.3037 11.3037 -16.6875 24.1855c14.8213 12.2285 46.2793 10.9824 63.6377 6.34277c14.7373 -3.94043 29.7334 -5.20898 45.124 -6.22363c4.82031 -0.31543 14.6807 -1.13281 23.5713 -1.5166
c0.00585938 0.0449219 0.0283203 0.118164 0.0283203 0.157227c2.81348 28.2617 2.69531 57.0195 3.35449 85.3828c4.89941 211.933 3.97461 424.091 2.8584 636.063c-0.507812 96.3877 -1.18457 192.793 -3.21973 289.158
c-0.591797 27.9463 -1.08789 55.9316 -2.64941 83.8379c-0.112305 1.97852 -0.557617 4.54883 -0.99707 7.24316c-16.3271 0.591797 -33.0039 2.06348 -48.626 -0.461914c-17.4092 -2.81348 -48.665 -6.56836 -63.6387 6.3418
c-14.3701 12.3975 3.85645 22.1113 16.6826 24.1855c33.2119 5.36719 65.3018 3.68164 98.7051 4.69629c24.0166 0.727539 61.5859 6.56836 82.1523 -10.3672c7.28418 -5.99316 7.35156 -12.8877 8.1123 -21.5811c2.77344 -31.7061 2.64355 -63.8467 3.30859 -95.6377
c4.89355 -234.123 4.55566 -468.466 3.08984 -702.628zM186.755 875.526c0.0166016 0.0898438 0.0234375 0.196289 0.0458984 0.275391c0.168945 0.614258 -0.744141 1.97852 -0.473633 2.48633c-0.530273 -0.992188 -0.304688 -1.90527 0.427734 -2.76172z
M186.457 -249.496c-0.208984 0.197266 0.675781 2.30469 0.551758 2.6543c-0.0283203 0.0849609 -0.00585938 0.237305 -0.0283203 0.327148c-1.08203 -1.08203 -1.44238 -2.11328 -0.523438 -2.98145zM204.531 -237.636
c0.558594 0.163086 0.998047 0.355469 1.16113 0.597656c-0.0673828 -0.101562 -0.484375 -0.304688 -1.16113 -0.597656z" />
    <glyph glyph-name="asciicircum" unicode="^" horiz-adv-x="472" 
d="M421.002 535.554c11.9629 -23.3574 -78.1133 -32.0117 -89.6934 -9.39844c-31.2334 60.9775 -61.9082 122.248 -92.4873 183.559c-33.2627 -62.5 -66.2432 -125.163 -98.0684 -188.39c-11.5859 -23.0078 -101.389 -13.8301 -89.7021 9.39746
c46.5791 92.5488 95.5762 183.919 144.443 275.278c10.1426 18.9648 79.8477 19.7373 89.6963 0c45.0283 -90.2656 89.8252 -180.666 135.812 -270.446z" />
    <glyph glyph-name="underscore" unicode="_" horiz-adv-x="652" 
d="M555.618 -120.129c8.99805 -0.0449219 46.5117 -1.47656 46.5117 -17.6738c0 -16.332 -36.1318 -17.7246 -46.5107 -17.6738c-153.075 0.789062 -306.032 -7.3457 -459.107 -6.55664c-8.99805 0.0507812 -46.5117 1.48242 -46.5117 17.6738
c0 16.332 36.1318 17.7246 46.5107 17.6738c153.075 -0.789062 306.032 7.3457 459.107 6.55664z" />
    <glyph glyph-name="grave" unicode="`" horiz-adv-x="210" 
d="M160.124 643.093c4.82031 -19.6475 -86.1836 -27.8857 -93.0225 -0.00195312c-12.1494 49.5273 -17.7754 99.4551 -17.0371 150.432c0.37207 25.6123 93.3828 24.7559 93.0225 0.000976562c-0.744141 -50.9873 4.8877 -100.915 17.0371 -150.431z" />
    <glyph glyph-name="a" unicode="a" horiz-adv-x="595" 
d="M371.052 605.984c76.1377 -197.618 151.015 -396.017 232.75 -591.402c10.6719 -25.5166 -80.2588 -31.9658 -89.7021 -9.39844c-20.9502 50.0801 -41.043 100.521 -61.0684 150.973c-11.1172 28.0078 -22.1445 56.0615 -33.1836 84.1035
c-83.3193 0.0957031 -166.645 0.0283203 -249.964 0.00585938c-30.7256 -76.8311 -60.0195 -154.163 -86.5957 -232.296c-9.64062 -28.335 -98.7393 -16.7949 -93.0225 0c18.3447 53.9248 38.7021 107.162 59.4375 160.213c65.8428 168.449 135.75 335.404 207.112 501.587
c8.07324 18.79 82.1582 19.6699 89.7012 0c8.16309 -21.2656 16.3438 -42.5254 24.5352 -63.7852zM184.131 275.612c73.9277 0.0283203 147.849 0.0576172 221.771 -0.00488281c-35.8164 91.252 -71.2715 182.645 -106.524 274.122
c-38.8154 -91.0264 -77.9297 -182.239 -115.246 -274.117z" />
    <glyph glyph-name="a" unicode="&#xe5;" horiz-adv-x="595" 
d="M371.052 605.984c76.1377 -197.618 151.015 -396.017 232.75 -591.402c10.6719 -25.5166 -80.2588 -31.9658 -89.7021 -9.39844c-20.9502 50.0801 -41.043 100.521 -61.0684 150.973c-11.1172 28.0078 -22.1445 56.0615 -33.1836 84.1035
c-83.3193 0.0957031 -166.645 0.0283203 -249.964 0.00585938c-30.7256 -76.8311 -60.0195 -154.163 -86.5957 -232.296c-9.64062 -28.335 -98.7393 -16.7949 -93.0225 0c18.3447 53.9248 38.7021 107.162 59.4375 160.213c65.8428 168.449 135.75 335.404 207.112 501.587
c8.07324 18.79 82.1582 19.6699 89.7012 0c8.16309 -21.2656 16.3438 -42.5254 24.5352 -63.7852zM184.131 275.612c73.9277 0.0283203 147.849 0.0576172 221.771 -0.00488281c-35.8164 91.252 -71.2715 182.645 -106.524 274.122
c-38.8154 -91.0264 -77.9297 -182.239 -115.246 -274.117z" />
    <glyph glyph-name="a" unicode="&#xe4;" horiz-adv-x="595" 
d="M371.052 605.984c76.1377 -197.618 151.015 -396.017 232.75 -591.402c10.6719 -25.5166 -80.2588 -31.9658 -89.7021 -9.39844c-20.9502 50.0801 -41.043 100.521 -61.0684 150.973c-11.1172 28.0078 -22.1445 56.0615 -33.1836 84.1035
c-83.3193 0.0957031 -166.645 0.0283203 -249.964 0.00585938c-30.7256 -76.8311 -60.0195 -154.163 -86.5957 -232.296c-9.64062 -28.335 -98.7393 -16.7949 -93.0225 0c18.3447 53.9248 38.7021 107.162 59.4375 160.213c65.8428 168.449 135.75 335.404 207.112 501.587
c8.07324 18.79 82.1582 19.6699 89.7012 0c8.16309 -21.2656 16.3438 -42.5254 24.5352 -63.7852zM184.131 275.612c73.9277 0.0283203 147.849 0.0576172 221.771 -0.00488281c-35.8164 91.252 -71.2715 182.645 -106.524 274.122
c-38.8154 -91.0264 -77.9297 -182.239 -115.246 -274.117z" />
    <glyph glyph-name="a" unicode="&#xe3;" horiz-adv-x="595" 
d="M371.052 605.984c76.1377 -197.618 151.015 -396.017 232.75 -591.402c10.6719 -25.5166 -80.2588 -31.9658 -89.7021 -9.39844c-20.9502 50.0801 -41.043 100.521 -61.0684 150.973c-11.1172 28.0078 -22.1445 56.0615 -33.1836 84.1035
c-83.3193 0.0957031 -166.645 0.0283203 -249.964 0.00585938c-30.7256 -76.8311 -60.0195 -154.163 -86.5957 -232.296c-9.64062 -28.335 -98.7393 -16.7949 -93.0225 0c18.3447 53.9248 38.7021 107.162 59.4375 160.213c65.8428 168.449 135.75 335.404 207.112 501.587
c8.07324 18.79 82.1582 19.6699 89.7012 0c8.16309 -21.2656 16.3438 -42.5254 24.5352 -63.7852zM184.131 275.612c73.9277 0.0283203 147.849 0.0576172 221.771 -0.00488281c-35.8164 91.252 -71.2715 182.645 -106.524 274.122
c-38.8154 -91.0264 -77.9297 -182.239 -115.246 -274.117z" />
    <glyph glyph-name="a" unicode="&#xe2;" horiz-adv-x="595" 
d="M371.052 605.984c76.1377 -197.618 151.015 -396.017 232.75 -591.402c10.6719 -25.5166 -80.2588 -31.9658 -89.7021 -9.39844c-20.9502 50.0801 -41.043 100.521 -61.0684 150.973c-11.1172 28.0078 -22.1445 56.0615 -33.1836 84.1035
c-83.3193 0.0957031 -166.645 0.0283203 -249.964 0.00585938c-30.7256 -76.8311 -60.0195 -154.163 -86.5957 -232.296c-9.64062 -28.335 -98.7393 -16.7949 -93.0225 0c18.3447 53.9248 38.7021 107.162 59.4375 160.213c65.8428 168.449 135.75 335.404 207.112 501.587
c8.07324 18.79 82.1582 19.6699 89.7012 0c8.16309 -21.2656 16.3438 -42.5254 24.5352 -63.7852zM184.131 275.612c73.9277 0.0283203 147.849 0.0576172 221.771 -0.00488281c-35.8164 91.252 -71.2715 182.645 -106.524 274.122
c-38.8154 -91.0264 -77.9297 -182.239 -115.246 -274.117z" />
    <glyph glyph-name="a" unicode="&#xe1;" horiz-adv-x="595" 
d="M371.052 605.984c76.1377 -197.618 151.015 -396.017 232.75 -591.402c10.6719 -25.5166 -80.2588 -31.9658 -89.7021 -9.39844c-20.9502 50.0801 -41.043 100.521 -61.0684 150.973c-11.1172 28.0078 -22.1445 56.0615 -33.1836 84.1035
c-83.3193 0.0957031 -166.645 0.0283203 -249.964 0.00585938c-30.7256 -76.8311 -60.0195 -154.163 -86.5957 -232.296c-9.64062 -28.335 -98.7393 -16.7949 -93.0225 0c18.3447 53.9248 38.7021 107.162 59.4375 160.213c65.8428 168.449 135.75 335.404 207.112 501.587
c8.07324 18.79 82.1582 19.6699 89.7012 0c8.16309 -21.2656 16.3438 -42.5254 24.5352 -63.7852zM184.131 275.612c73.9277 0.0283203 147.849 0.0576172 221.771 -0.00488281c-35.8164 91.252 -71.2715 182.645 -106.524 274.122
c-38.8154 -91.0264 -77.9297 -182.239 -115.246 -274.117z" />
    <glyph glyph-name="b" unicode="b" horiz-adv-x="553" 
d="M298.03 695.562c78.6182 -10.7676 174.454 -34.4971 220.475 -105.842c43.7764 -67.8945 28.7686 -168.618 -23.9043 -227.307c-38.2295 -42.5928 -90.9873 -68.8027 -145.966 -85.7832c43.8555 -6.29199 87.1025 -18.3965 121.87 -43.4219
c48.1289 -34.6494 64.3994 -100.362 28.2783 -150.278c-41.8877 -57.8877 -126.239 -77.8623 -192.488 -88.6357c-73.1094 -11.8848 -149.596 -14.8955 -223.382 -5.61621c-23.4023 -0.197266 -47.1592 5.96484 -47.5938 18.8584
c-2.76855 82.4346 -4.61816 164.875 -5.57129 247.321c-0.524414 1.90527 -0.518555 3.6416 -0.0615234 5.21973c-1.52734 138.271 -0.512695 276.558 3.1123 414.834c0.298828 11.5459 19.084 17.6514 39.6895 18.7002c73.0703 13.874 152.962 11.8955 225.542 1.9502z
M421.137 114.533c16.502 46.9561 -8.75098 93.1689 -51.9131 113.03c-47.9258 22.0664 -102.324 21.7793 -152.657 21.0518c-4.81445 -0.0673828 -9.57812 -0.197266 -14.3252 -0.355469c-12.8594 -1.38672 -25.7363 -2.62695 -38.6406 -3.5625
c-13.5361 -0.975586 -27.0889 -1.69727 -40.6416 -2.36816c0.935547 -73.8486 2.59277 -147.691 4.9834 -221.528c53.417 -4.54395 109.186 -1.75879 162.924 9.82129c48.9805 10.5537 111.869 31.5371 130.271 83.9111zM412.729 381.125
c43.3936 55.1025 54.2266 146.378 11.9775 205.146c-40.0557 55.7344 -114.902 72.4219 -178.474 78.3135c-18.001 1.66895 -26.4629 2.06348 -45.3828 2.25488c-8.18555 0.0849609 -16.377 0.0341797 -24.5625 -0.146484
c-2.54297 -0.0507812 -16.1074 -0.620117 -16.9189 -0.591797c-11.292 -0.670898 -22.5732 -1.65234 -33.8145 -2.94336c-3.21875 -128.055 -4.18848 -256.115 -2.9873 -384.164c19.3262 1.40918 38.6582 2.68848 58.001 3.62402
c20.5273 2.2666 40.4512 5.13574 60.2451 9.19531c63.373 13.001 130.535 36.7637 171.916 89.3125z" />
    <glyph glyph-name="c" unicode="c" horiz-adv-x="532" 
d="M48.5195 514.777c37.2881 81.0986 104.067 150.378 193.566 169.743c106.282 22.9902 228.26 -13.4014 260.941 -125.846c5.36133 -18.4414 -84.876 -28.0371 -93.0225 -0.000976562c-11.9238 41.0312 -41.6738 80.5742 -84.1318 93.1299
c-35.5176 10.4971 -69.7441 -6.625 -97.7129 -27.7949c-128.444 -97.1943 -155.24 -305.97 -101.006 -447.859c25.3242 -66.249 73.7188 -135.48 148.277 -148.803c76.2617 -13.6318 147.348 34.3955 165.647 108.897c6.91699 28.1777 97.7686 19.3213 93.0215 0.000976562
c-31.6162 -128.731 -178.236 -160.517 -293.702 -141.489c-232.601 38.3359 -275.74 337.625 -191.879 520.021z" />
    <glyph glyph-name="d" unicode="d" horiz-adv-x="578" 
d="M73.0977 693.639c108.452 20.4082 238.645 11.3652 335.805 -39.6895c145.752 -76.583 193.61 -264.104 143.153 -413.233c-27.8506 -82.333 -82.5586 -143.463 -156.948 -187.234c-93.5244 -55.0244 -198.278 -71.0918 -304.916 -64.5352
c-25.4707 -1.67969 -54.3867 4.35254 -54.8662 18.5879c-7.45898 222.419 -8.34961 444.905 -2.52051 667.375c0.304688 11.6592 19.4561 17.7764 40.293 18.7295zM459.75 479.107c-22.1562 63.9199 -65.5781 121.459 -125.552 153.994
c-59.5059 32.2812 -139.934 41.0088 -208.618 30.6914c-5.38379 -213.602 -4.56641 -427.214 2.30566 -640.771c86.6182 -0.603516 165.958 26.7002 236.277 81.2617c109.354 84.8477 139.471 248.229 95.5869 374.823z" />
    <glyph glyph-name="e" unicode="e" horiz-adv-x="450" 
d="M79.7744 695.753c109.659 0.0449219 219.348 1.55273 329.007 -0.00292969c9.00293 -0.129883 46.5107 -1.42676 46.5107 -17.6748c0 -16.2646 -36.1377 -17.8203 -46.5107 -17.6738c-94.2178 1.33594 -188.463 0.451172 -282.691 0.135742
c-2.81348 -97.2734 -4.11621 -194.547 -3.96973 -291.82c76.3457 -0.355469 152.714 -1.24609 229.049 0.163086c8.98047 0.168945 46.5107 -1.62402 46.5107 -17.6748c0 -16.502 -36.1152 -17.4824 -46.5107 -17.6738
c-76.3125 -1.40918 -152.658 -0.518555 -228.987 -0.163086c0.535156 -103.531 2.76758 -207.051 6.61816 -310.554c92.5996 -0.360352 185.238 -1.60059 277.82 0.0908203c8.98047 0.163086 46.5107 -1.62402 46.5107 -17.6748
c0 -16.502 -36.1152 -17.4834 -46.5107 -17.6748c-103.531 -1.88867 -207.136 -0.118164 -310.678 -0.0107422c-26.4297 -2.80762 -58.9814 3.02148 -59.5732 18.1758c-8.69336 222.977 -9.72461 446.038 -2.93652 669.083
c0.0117188 0.37207 0.107422 0.71582 0.158203 1.07617c-0.168945 0.709961 -0.327148 1.41992 -0.327148 2.19824c0 16.3721 36.126 17.6689 46.5107 17.6748z" />
    <glyph glyph-name="e" unicode="&#xeb;" horiz-adv-x="450" 
d="M79.7744 695.753c109.659 0.0449219 219.348 1.55273 329.007 -0.00292969c9.00293 -0.129883 46.5107 -1.42676 46.5107 -17.6748c0 -16.2646 -36.1377 -17.8203 -46.5107 -17.6738c-94.2178 1.33594 -188.463 0.451172 -282.691 0.135742
c-2.81348 -97.2734 -4.11621 -194.547 -3.96973 -291.82c76.3457 -0.355469 152.714 -1.24609 229.049 0.163086c8.98047 0.168945 46.5107 -1.62402 46.5107 -17.6748c0 -16.502 -36.1152 -17.4824 -46.5107 -17.6738
c-76.3125 -1.40918 -152.658 -0.518555 -228.987 -0.163086c0.535156 -103.531 2.76758 -207.051 6.61816 -310.554c92.5996 -0.360352 185.238 -1.60059 277.82 0.0908203c8.98047 0.163086 46.5107 -1.62402 46.5107 -17.6748
c0 -16.502 -36.1152 -17.4834 -46.5107 -17.6748c-103.531 -1.88867 -207.136 -0.118164 -310.678 -0.0107422c-26.4297 -2.80762 -58.9814 3.02148 -59.5732 18.1758c-8.69336 222.977 -9.72461 446.038 -2.93652 669.083
c0.0117188 0.37207 0.107422 0.71582 0.158203 1.07617c-0.168945 0.709961 -0.327148 1.41992 -0.327148 2.19824c0 16.3721 36.126 17.6689 46.5107 17.6748z" />
    <glyph glyph-name="e" unicode="&#xea;" horiz-adv-x="450" 
d="M79.7744 695.753c109.659 0.0449219 219.348 1.55273 329.007 -0.00292969c9.00293 -0.129883 46.5107 -1.42676 46.5107 -17.6748c0 -16.2646 -36.1377 -17.8203 -46.5107 -17.6738c-94.2178 1.33594 -188.463 0.451172 -282.691 0.135742
c-2.81348 -97.2734 -4.11621 -194.547 -3.96973 -291.82c76.3457 -0.355469 152.714 -1.24609 229.049 0.163086c8.98047 0.168945 46.5107 -1.62402 46.5107 -17.6748c0 -16.502 -36.1152 -17.4824 -46.5107 -17.6738
c-76.3125 -1.40918 -152.658 -0.518555 -228.987 -0.163086c0.535156 -103.531 2.76758 -207.051 6.61816 -310.554c92.5996 -0.360352 185.238 -1.60059 277.82 0.0908203c8.98047 0.163086 46.5107 -1.62402 46.5107 -17.6748
c0 -16.502 -36.1152 -17.4834 -46.5107 -17.6748c-103.531 -1.88867 -207.136 -0.118164 -310.678 -0.0107422c-26.4297 -2.80762 -58.9814 3.02148 -59.5732 18.1758c-8.69336 222.977 -9.72461 446.038 -2.93652 669.083
c0.0117188 0.37207 0.107422 0.71582 0.158203 1.07617c-0.168945 0.709961 -0.327148 1.41992 -0.327148 2.19824c0 16.3721 36.126 17.6689 46.5107 17.6748z" />
    <glyph glyph-name="e" unicode="&#xe9;" horiz-adv-x="450" 
d="M79.7744 695.753c109.659 0.0449219 219.348 1.55273 329.007 -0.00292969c9.00293 -0.129883 46.5107 -1.42676 46.5107 -17.6748c0 -16.2646 -36.1377 -17.8203 -46.5107 -17.6738c-94.2178 1.33594 -188.463 0.451172 -282.691 0.135742
c-2.81348 -97.2734 -4.11621 -194.547 -3.96973 -291.82c76.3457 -0.355469 152.714 -1.24609 229.049 0.163086c8.98047 0.168945 46.5107 -1.62402 46.5107 -17.6748c0 -16.502 -36.1152 -17.4824 -46.5107 -17.6738
c-76.3125 -1.40918 -152.658 -0.518555 -228.987 -0.163086c0.535156 -103.531 2.76758 -207.051 6.61816 -310.554c92.5996 -0.360352 185.238 -1.60059 277.82 0.0908203c8.98047 0.163086 46.5107 -1.62402 46.5107 -17.6748
c0 -16.502 -36.1152 -17.4834 -46.5107 -17.6748c-103.531 -1.88867 -207.136 -0.118164 -310.678 -0.0107422c-26.4297 -2.80762 -58.9814 3.02148 -59.5732 18.1758c-8.69336 222.977 -9.72461 446.038 -2.93652 669.083
c0.0117188 0.37207 0.107422 0.71582 0.158203 1.07617c-0.168945 0.709961 -0.327148 1.41992 -0.327148 2.19824c0 16.3721 36.126 17.6689 46.5107 17.6748z" />
    <glyph glyph-name="f" unicode="f" horiz-adv-x="436" 
d="M33.1514 678.073c0 16.3721 36.125 17.6699 46.5156 17.6758c106.908 0.0507812 213.839 1.56738 320.741 0c9.00293 -0.135742 46.5107 -1.4209 46.5107 -17.6748c0 -16.2646 -36.1436 -17.8262 -46.5117 -17.6738c-91.4609 1.3418 -182.949 0.461914 -274.421 0.140625
c-2.7627 -98.7441 -4.03125 -197.494 -3.87305 -296.238c74.0459 -0.360352 148.103 -1.24023 222.131 0.168945c8.98047 0.168945 46.5107 -1.62988 46.5107 -17.6748c0 -16.502 -36.1152 -17.4775 -46.5107 -17.6748
c-74.0059 -1.40918 -148.04 -0.529297 -222.058 -0.168945c0.563477 -109.665 2.88574 -219.318 7.01855 -328.949c0.930664 -24.6201 -92.0518 -25.6914 -93.0215 0c-8.47363 224.865 -9.48242 449.832 -2.86328 674.766
c0.0117188 0.383789 0.107422 0.739258 0.158203 1.11133c-0.168945 0.709961 -0.327148 1.41992 -0.327148 2.19238z" />
    <glyph glyph-name="g" unicode="g" horiz-adv-x="547" 
d="M38.4287 490.366c34.0293 94.7695 108.176 178.929 210.951 196.293c56.3545 9.51074 122.006 5.67188 176.145 -13.6768c56.1006 -20.0479 88.5791 -62.5957 104.9 -118.759c5.36133 -18.4414 -84.876 -28.0371 -93.0225 -0.000976562
c-14.3652 49.4199 -45.6094 90.4736 -98.6543 98.8457c-42.7451 6.74316 -77.9863 -1.93359 -112.467 -28.4141c-65.8145 -50.5479 -101.326 -133.766 -115.618 -213.212c-18.9141 -105.115 -7.63281 -225.678 58.2891 -313.429
c26.0576 -34.6885 62.5557 -62.623 105.988 -70.5215c28.8252 -5.24316 46.7588 -4.58887 75.0938 9.40918c75.1338 37.1191 93.6426 129.809 96.3486 207.085c-41.6006 -0.213867 -83.1846 -0.744141 -124.785 -1.80957
c-8.97559 -0.231445 -46.5117 1.66895 -46.5117 17.6748c0 16.5469 36.1152 17.4043 46.5107 17.6748c57.2227 1.46582 114.417 1.92773 171.656 1.92773c8.99219 0 46.5107 -1.51074 46.5107 -17.6738c0 -0.197266 -0.0673828 -0.366211 -0.0791016 -0.557617
c0.0166016 -0.242188 0.0791016 -0.467773 0.0791016 -0.71582c-0.998047 -117.518 -41.5898 -234.1 -167.153 -262.948c-109.71 -25.2061 -236.243 5.53027 -301.201 102.087c-75.376 112.055 -77.4619 266.832 -32.9805 390.721z" />
    <glyph glyph-name="h" unicode="h" horiz-adv-x="564" 
d="M122.514 280.874c105.471 -0.168945 210.948 -0.654297 316.413 -0.129883c-1.12207 131.33 -0.0732422 262.672 3.31543 394.002c0.665039 25.8096 93.6533 24.5352 93.0215 0c-5.8291 -226.021 -4.94434 -452.054 2.51953 -678.024
c0.817383 -24.7158 -92.1768 -25.6064 -93.0225 0c-2.73438 82.8799 -4.57227 165.771 -5.53027 248.674c-105.465 -0.535156 -210.94 -0.0449219 -316.411 0.124023c0.958008 -82.9365 2.79004 -165.873 5.53027 -248.798c0.817383 -24.7158 -92.1768 -25.6064 -93.0225 0
c-7.46387 225.971 -8.34863 452.009 -2.51953 678.024c0.665039 25.8096 93.6533 24.5352 93.0215 0c-3.38281 -131.285 -4.43164 -262.587 -3.31543 -393.872z" />
    <glyph glyph-name="i" unicode="i" horiz-adv-x="155" 
d="M32.8066 674.753c0.665039 25.8037 93.6543 24.5352 93.0225 0c-5.8291 -226.021 -4.94434 -452.054 2.51953 -678.024c0.817383 -24.7158 -92.1768 -25.6064 -93.0225 0c-7.46387 225.971 -8.34863 452.009 -2.51953 678.024z" />
    <glyph glyph-name="i" unicode="&#xef;" horiz-adv-x="155" 
d="M32.8066 674.753c0.665039 25.8037 93.6543 24.5352 93.0225 0c-5.8291 -226.021 -4.94434 -452.054 2.51953 -678.024c0.817383 -24.7158 -92.1768 -25.6064 -93.0225 0c-7.46387 225.971 -8.34863 452.009 -2.51953 678.024z" />
    <glyph glyph-name="i" unicode="&#xee;" horiz-adv-x="155" 
d="M32.8066 674.753c0.665039 25.8037 93.6543 24.5352 93.0225 0c-5.8291 -226.021 -4.94434 -452.054 2.51953 -678.024c0.817383 -24.7158 -92.1768 -25.6064 -93.0225 0c-7.46387 225.971 -8.34863 452.009 -2.51953 678.024z" />
    <glyph glyph-name="i" unicode="&#xed;" horiz-adv-x="155" 
d="M32.8066 674.753c0.665039 25.8037 93.6543 24.5352 93.0225 0c-5.8291 -226.021 -4.94434 -452.054 2.51953 -678.024c0.817383 -24.7158 -92.1768 -25.6064 -93.0225 0c-7.46387 225.971 -8.34863 452.009 -2.51953 678.024z" />
    <glyph glyph-name="j" unicode="j" horiz-adv-x="421" 
d="M7.2793 257.63c0.874023 25.9395 93.8457 24.3701 93.0225 -0.00195312c-2.2666 -67.2637 -3.33789 -159.339 49.6113 -210.428c5.96484 -5.75586 12.832 -10.7617 20.1445 -14.6855c5.38379 -2.89258 11.4834 -4.91699 13.5859 -5.50879
c2.37305 -0.670898 11.4268 -2.07422 9.05371 -1.83789c2.75098 -0.321289 5.99805 -0.676758 6.86035 -0.699219c9.4375 -0.270508 20.8877 0.361328 31.1709 4.05371c58.9307 21.1748 69.8174 96.1621 70.5273 150.081c2.10254 158.747 -1.13867 317.787 -5.60352 476.483
c-82 -2.04102 -164.231 1.75879 -246.142 -2.35156c-8.95801 -0.451172 -46.5107 1.82129 -46.5107 17.6748c0 16.7217 36.1035 17.1504 46.5107 17.6748c47.3398 2.37305 94.9619 1.49902 142.347 1.82617c29.4961 0.203125 58.998 0.400391 88.4941 0.806641
c11.7041 0.163086 23.4141 0.337891 35.1123 0.642578c1.16113 0.0341797 2.31641 0.0732422 3.47754 0.107422c16.4336 3.37109 37.8232 2.78516 52.459 -1.88281c5.10254 -1.38672 9.44336 -3.43359 12.3467 -6.36523
c0.248047 -0.219727 0.451172 -0.456055 0.682617 -0.681641c0.140625 -0.163086 0.31543 -0.30957 0.451172 -0.478516c1.97852 -2.13672 3.17383 -4.56055 3.25293 -7.30566c3.26953 -113.882 5.40625 -227.786 5.93652 -341.713
c0.203125 -44.7188 0.225586 -89.4424 0.237305 -134.166c0.0117188 -37.9307 -1.52148 -75.3652 -14.6689 -111.367c-27.833 -76.2334 -105.205 -99.9404 -180.53 -98.3623c-52.2393 1.09375 -106.965 12.8086 -143.21 53.2764
c-49.916 55.7285 -50.9814 145.283 -48.6191 215.208z" />
    <glyph glyph-name="k" unicode="k" horiz-adv-x="432" 
d="M125.829 674.753c-2.53125 -98.0908 -3.71973 -196.186 -3.72559 -294.276c68.3682 103.66 137.774 206.655 206.317 310.191c14.8779 22.4609 102.686 10.2158 89.7021 -9.39746c-56.5293 -85.3887 -113.284 -170.637 -169.988 -255.913
c-30.8496 -46.3926 -61.9082 -92.6611 -92.166 -139.438c-3.77734 -5.83496 -7.3125 -11.8789 -11.2422 -17.6182c-0.383789 -0.558594 -1.00977 -1.71973 -1.65234 -2.90918c0.0849609 -0.0449219 0.119141 -0.0898438 0.208984 -0.134766
c3.0332 -1.52246 6.34277 -6.57422 8.77246 -8.98145c87.6611 -87.001 187.336 -163.64 283.955 -240.177c15.9326 -12.623 -4.86523 -21.2881 -16.6875 -24.1807c-17.8887 -4.375 -48.2256 -5.86328 -63.6387 6.34277c-72.2979 57.2734 -143.874 115.539 -213.443 176.122
c-6.05469 5.27148 -12.3066 10.5371 -18.6094 15.8252c1.05957 -64.4951 2.58691 -128.99 4.71777 -193.48c0.817383 -24.7158 -92.1768 -25.6064 -93.0225 0c-7.46387 225.971 -8.34863 452.009 -2.51953 678.024c0.665039 25.8096 93.6533 24.5352 93.0215 0z
M141.576 266.415c-0.118164 2.42383 -1.67969 1.58398 0 0z" />
    <glyph glyph-name="l" unicode="l" horiz-adv-x="336" 
d="M32.8047 674.753c0.676758 25.8096 93.6689 24.5283 93.0264 -0.000976562c-5.72266 -219.876 -4.93359 -439.774 2.14746 -659.611c59.6865 -0.457031 119.384 -1.37012 179.059 -0.541016c8.98633 0.124023 46.5107 -1.5957 46.5107 -17.6748
c0 -16.4678 -36.1211 -17.5273 -46.5117 -17.6738c-75.0547 -1.04297 -150.138 0.71582 -225.198 0.789062c-8.99805 0.00585938 -46.5117 1.50586 -46.5117 17.6748c0 0.907227 0.146484 1.75293 0.360352 2.57617c-0.208984 0.766602 -0.333008 1.55566 -0.361328 2.37305
c-7.45898 223.992 -8.34961 448.046 -2.52051 672.089z" />
    <glyph glyph-name="m" unicode="m" horiz-adv-x="645" 
d="M518.869 690.138c5.59863 23.4639 93.2314 21.7412 92.7295 -2.16797c-4.82031 -229.325 1.30762 -458.571 7.66699 -687.801c0.6875 -24.8174 -92.3125 -25.5225 -93.0225 -0.000976562c-4.76367 171.612 -9.38672 343.241 -9.39258 514.898
c-52.6396 -92.4023 -106.908 -183.925 -161.272 -275.233c-11.3828 -19.1172 -78.46 -19.6641 -89.7012 0c-48.6816 85.1748 -96.8838 170.801 -143.339 257.328c-1.39844 -165.676 0.168945 -331.346 4.70703 -496.993
c0.682617 -24.8281 -92.3223 -25.5156 -93.0215 0.000976562c-6.16211 224.854 -6.89453 449.76 -2.08008 674.648c0.552734 25.7305 93.5469 24.625 93.0225 -0.000976562v-0.0351562c58.4912 -117.936 121.764 -233.661 186.558 -348.349
c71.1025 120.038 141.309 240.764 207.146 363.705z" />
    <glyph glyph-name="n" unicode="n" horiz-adv-x="599" 
d="M125.02 676.664c1.08203 -0.998047 2.0293 -2.05371 2.71191 -3.23242c108.441 -184.116 229.021 -360.193 347.255 -537.928c-3.16797 179.735 -2.90332 359.494 0.975586 539.247c0.558594 25.7363 93.5527 24.6201 93.0225 0
c-4.87695 -226.016 -4.13281 -452.048 2.1084 -678.024c0.585938 -21.1016 -66.5254 -24.7549 -87.0859 -9.69629c-5.77344 1.9502 -10.3115 4.70703 -12.7305 8.43359c-115.071 177.356 -235.882 350.767 -348.433 529.634
c-1.87207 -176.134 -0.394531 -352.268 4.4707 -528.373c0.6875 -24.8232 -92.3174 -25.5166 -93.0225 0c-6.24121 225.981 -6.98535 452.014 -2.1084 678.023c0.541016 25.0479 88.6191 24.6533 92.8359 1.91602z" />
    <glyph glyph-name="o" unicode="o" horiz-adv-x="587" 
d="M70.8477 559.214c57.5381 96.4834 154.016 145.769 266.088 129.859c267.988 -38.0381 296.565 -424.83 162.991 -603.021c-121.419 -151.609 -364.742 -109.946 -450.672 57.3926c-63.3623 123.387 -48.749 297.817 21.5928 415.77zM239.296 636.529
c-35.5625 -23.6445 -62.9814 -58.2305 -83.6719 -95.2139c-56.1514 -100.312 -70.127 -242.128 -32.7432 -351.082c20.8203 -60.6846 63.2949 -118.279 121.51 -147.376c25.415 -12.7021 53.6992 -20.4092 81.623 -12.1504c34.9033 10.3174 62.1055 37.1357 84.2168 64.7432
c77.4395 103.311 93.5186 248.374 58.3789 370.972c-21.6035 75.3594 -71.0352 169.008 -154.586 187.877c-15.9941 3.6084 -31.6328 3.06152 -40.2363 -0.0957031c-8.58594 -3.15137 -24.2197 -10.8467 -34.4912 -17.6738z" />
    <glyph glyph-name="o" unicode="&#xf6;" horiz-adv-x="587" 
d="M70.8477 559.214c57.5381 96.4834 154.016 145.769 266.088 129.859c267.988 -38.0381 296.565 -424.83 162.991 -603.021c-121.419 -151.609 -364.742 -109.946 -450.672 57.3926c-63.3623 123.387 -48.749 297.817 21.5928 415.77zM239.296 636.529
c-35.5625 -23.6445 -62.9814 -58.2305 -83.6719 -95.2139c-56.1514 -100.312 -70.127 -242.128 -32.7432 -351.082c20.8203 -60.6846 63.2949 -118.279 121.51 -147.376c25.415 -12.7021 53.6992 -20.4092 81.623 -12.1504c34.9033 10.3174 62.1055 37.1357 84.2168 64.7432
c77.4395 103.311 93.5186 248.374 58.3789 370.972c-21.6035 75.3594 -71.0352 169.008 -154.586 187.877c-15.9941 3.6084 -31.6328 3.06152 -40.2363 -0.0957031c-8.58594 -3.15137 -24.2197 -10.8467 -34.4912 -17.6738z" />
    <glyph glyph-name="o" unicode="&#xf5;" horiz-adv-x="587" 
d="M70.8477 559.214c57.5381 96.4834 154.016 145.769 266.088 129.859c267.988 -38.0381 296.565 -424.83 162.991 -603.021c-121.419 -151.609 -364.742 -109.946 -450.672 57.3926c-63.3623 123.387 -48.749 297.817 21.5928 415.77zM239.296 636.529
c-35.5625 -23.6445 -62.9814 -58.2305 -83.6719 -95.2139c-56.1514 -100.312 -70.127 -242.128 -32.7432 -351.082c20.8203 -60.6846 63.2949 -118.279 121.51 -147.376c25.415 -12.7021 53.6992 -20.4092 81.623 -12.1504c34.9033 10.3174 62.1055 37.1357 84.2168 64.7432
c77.4395 103.311 93.5186 248.374 58.3789 370.972c-21.6035 75.3594 -71.0352 169.008 -154.586 187.877c-15.9941 3.6084 -31.6328 3.06152 -40.2363 -0.0957031c-8.58594 -3.15137 -24.2197 -10.8467 -34.4912 -17.6738z" />
    <glyph glyph-name="o" unicode="&#xf4;" horiz-adv-x="587" 
d="M70.8477 559.214c57.5381 96.4834 154.016 145.769 266.088 129.859c267.988 -38.0381 296.565 -424.83 162.991 -603.021c-121.419 -151.609 -364.742 -109.946 -450.672 57.3926c-63.3623 123.387 -48.749 297.817 21.5928 415.77zM239.296 636.529
c-35.5625 -23.6445 -62.9814 -58.2305 -83.6719 -95.2139c-56.1514 -100.312 -70.127 -242.128 -32.7432 -351.082c20.8203 -60.6846 63.2949 -118.279 121.51 -147.376c25.415 -12.7021 53.6992 -20.4092 81.623 -12.1504c34.9033 10.3174 62.1055 37.1357 84.2168 64.7432
c77.4395 103.311 93.5186 248.374 58.3789 370.972c-21.6035 75.3594 -71.0352 169.008 -154.586 187.877c-15.9941 3.6084 -31.6328 3.06152 -40.2363 -0.0957031c-8.58594 -3.15137 -24.2197 -10.8467 -34.4912 -17.6738z" />
    <glyph glyph-name="o" unicode="&#xf3;" horiz-adv-x="587" 
d="M70.8477 559.214c57.5381 96.4834 154.016 145.769 266.088 129.859c267.988 -38.0381 296.565 -424.83 162.991 -603.021c-121.419 -151.609 -364.742 -109.946 -450.672 57.3926c-63.3623 123.387 -48.749 297.817 21.5928 415.77zM239.296 636.529
c-35.5625 -23.6445 -62.9814 -58.2305 -83.6719 -95.2139c-56.1514 -100.312 -70.127 -242.128 -32.7432 -351.082c20.8203 -60.6846 63.2949 -118.279 121.51 -147.376c25.415 -12.7021 53.6992 -20.4092 81.623 -12.1504c34.9033 10.3174 62.1055 37.1357 84.2168 64.7432
c77.4395 103.311 93.5186 248.374 58.3789 370.972c-21.6035 75.3594 -71.0352 169.008 -154.586 187.877c-15.9941 3.6084 -31.6328 3.06152 -40.2363 -0.0957031c-8.58594 -3.15137 -24.2197 -10.8467 -34.4912 -17.6738z" />
    <glyph glyph-name="p" unicode="p" horiz-adv-x="518" 
d="M347.722 683.046c68.752 -19.8672 131.619 -63.0303 157.637 -131.957c21.6543 -57.3633 15.6836 -121.515 -13.8018 -175.101c-68.8369 -125.078 -237.72 -132.52 -368.441 -143.338c1.00879 -75.0439 2.7168 -150.082 5.23145 -225.12
c0.829102 -24.7041 -92.1592 -25.6172 -93.0215 0.000976562c-7.45898 222.419 -8.34961 444.905 -2.52051 667.375c0.101562 3.95215 2.39062 7.25586 6.15137 9.95605c0.0673828 0.0507812 0.129883 0.107422 0.197266 0.158203
c0.0224609 0.0166016 0.0507812 0.0332031 0.0732422 0.0498047c4.5332 3.33203 11.1289 5.66016 16.6143 6.69727c94.0537 17.8096 199.541 17.9619 291.881 -8.72168zM405.836 393.063c22.7539 45.8857 26.8076 103.197 8.80078 151.411
c-42.7109 114.338 -179.944 135.412 -289.028 120.473c-3.34277 -132.086 -4.3125 -264.172 -2.9541 -396.246c51.624 4.14941 103.215 8.73828 153.199 23.374c56.6533 16.5918 103.316 47.21 129.982 100.988z" />
    <glyph glyph-name="q" unicode="q" horiz-adv-x="587" 
d="M70.8477 559.214c57.5381 96.4834 154.016 145.771 266.082 129.861c267.994 -38.0381 296.571 -424.83 162.991 -603.021c-41.5332 -51.8672 -97.3408 -81.0879 -156.227 -90.4238c0.501953 -48.4844 0.496094 -96.9746 -0.124023 -145.47
c-0.327148 -25.584 -93.3379 -24.7832 -93.0225 0c0.625977 48.9463 0.637695 97.8818 0.119141 146.812c-82.7949 14.9902 -160.206 66.2314 -201.412 146.473c-63.3623 123.387 -48.749 297.817 21.5928 415.77zM239.29 636.531
c-35.5625 -23.6445 -62.9736 -58.2314 -83.6699 -95.2148c-56.1514 -100.312 -70.127 -242.128 -32.7432 -351.082c20.8203 -60.6846 63.2949 -118.279 121.51 -147.376c1.85449 -0.924805 3.72656 -1.82129 5.60938 -2.68945
c-0.755859 42.6943 -1.83789 85.3828 -3.53516 128.055c-0.975586 24.5801 92.002 25.7246 93.0225 0c1.73047 -43.6191 2.84082 -87.2549 3.59082 -130.896c26.8867 12.8369 48.7832 35.1904 67.1504 58.125c77.4395 103.311 93.5186 248.374 58.3789 370.972
c-21.6035 75.3594 -71.0352 169.008 -154.586 187.877c-15.9941 3.6084 -31.6328 3.06152 -40.2363 -0.0957031c-8.58594 -3.15137 -24.2197 -10.8467 -34.4912 -17.6738z" />
    <glyph glyph-name="r" unicode="r" horiz-adv-x="522" 
d="M35.7363 681.946c3.85645 5.13574 12.917 8.70898 20.0996 10.0283c92.8809 17.1504 196.75 17.7539 288.177 -7.46387c68.8135 -18.9766 134.284 -60.1992 161.058 -129.193c21.6943 -55.9033 16.1865 -118.318 -12.8594 -170.642
c-63.2324 -113.916 -211.369 -128.997 -336.024 -138.733c107.736 -80.5518 223.619 -149.873 333.199 -227.837c16.8906 -12.0137 -5.78418 -21.5078 -16.6875 -24.1797c-18.6328 -4.56055 -47.25 -5.31641 -63.6387 6.34277
c-93.5244 66.5361 -191.632 126.792 -285.358 193.097c1.05469 -61.9473 2.57129 -123.895 4.64551 -185.836c0.829102 -24.7041 -92.1592 -25.6172 -93.0215 0.000976562c-7.45898 222.419 -8.34961 444.905 -2.52051 667.375
c0.0732422 2.63281 1.13867 4.9668 2.93164 7.04102zM414.281 548.658c-43.8164 111.886 -181.012 130.873 -288.669 116.418c-3.25879 -128.562 -4.23926 -257.125 -3.03809 -385.682c51.6133 4.07031 103.176 8.55762 153.278 22.748
c55.582 15.7402 102.324 44.7236 129.368 96.9912c23.3291 45.0908 27.6816 101.976 9.06055 149.524z" />
    <glyph glyph-name="s" unicode="s" horiz-adv-x="591" 
d="M272.701 669.392c-68.3066 -5.71094 -156.78 -47.499 -171.579 -120.834c-19.1797 -95.0127 92.6953 -147.584 162.456 -180.361c95.3789 -44.8145 206.565 -78.6748 284.924 -151.981c40.2646 -37.665 64.5918 -91.4033 26.0527 -140.615
c-51.8721 -66.2266 -155.538 -84.29 -233.986 -89.3809c-113.104 -7.33984 -349.419 17.8662 -312.024 187.617c6.17871 28.0479 97.4248 19.9863 93.0215 0.000976562c-40.6592 -184.567 263.631 -188.768 354.421 -98.7393
c96.0381 95.2324 -88.6533 182.29 -154.891 212.683c-93.1348 42.7334 -205.433 77.1914 -277.771 153.374c-27.9912 29.4736 -43.7539 68.7461 -34.8242 109.383c15.9209 72.4561 89.9102 115.201 155.815 136.128c120.687 38.3252 315.695 30.2686 360.098 -113.854
c5.53613 -17.9678 -84.3799 -28.0645 -93.0225 0c-21.5869 70.0771 -89.8994 102.33 -158.69 96.5801z" />
    <glyph glyph-name="t" unicode="t" horiz-adv-x="502" 
d="M-16 678.085c0 16.3604 36.125 17.6885 46.5098 17.6768c146.563 -0.185547 294.328 -9.68555 440.757 -2.59863c8.95801 0.43457 46.5107 -1.80957 46.5107 -17.6738c0 -16.7158 -36.1035 -17.1729 -46.5107 -17.6748
c-58.2207 -2.81836 -116.655 -3.00391 -175.141 -2.20312c-5.58105 -219.64 -4.65039 -439.296 2.71289 -658.885c0.829102 -24.7041 -92.1592 -25.6172 -93.0215 0.000976562c-7.37988 220.203 -8.30469 440.474 -2.67285 660.733
c-57.6289 1.37598 -115.224 2.87598 -172.633 2.94922c-8.99805 0.0117188 -46.5117 1.50586 -46.5117 17.6748z" />
    <glyph glyph-name="u" unicode="u" horiz-adv-x="609" 
d="M30.7676 689.326c3.1123 27.1064 95.6172 22.6064 93.0068 0.00488281c-9.97852 -86.9277 -16.5518 -174.222 -14.3252 -261.786c2.54297 -100.03 12.7812 -209.7 63.5098 -298.195c21.0342 -36.6904 50.3789 -70.3701 90.0625 -87.1426
c36.4531 -15.4082 61.3154 -16.3154 95.5986 5.18164c91.6914 57.4932 114.97 193.633 127.869 291.718c15.5264 118.048 14.8164 237.708 10.9043 356.483c-0.817383 24.7158 92.1768 25.6064 93.0225 0c4.76953 -144.658 6.23535 -292.862 -24.2529 -435.085
c-23.3906 -109.123 -71.0234 -228.648 -190.909 -256.933c-113.329 -26.7393 -235.244 15.6279 -293.154 118.426c-53.4961 94.9502 -64.2637 211.848 -65.9326 318.756c-1.29688 83.1621 5.12402 166.02 14.6006 248.572z" />
    <glyph glyph-name="u" unicode="&#xfc;" horiz-adv-x="609" 
d="M30.7676 689.326c3.1123 27.1064 95.6172 22.6064 93.0068 0.00488281c-9.97852 -86.9277 -16.5518 -174.222 -14.3252 -261.786c2.54297 -100.03 12.7812 -209.7 63.5098 -298.195c21.0342 -36.6904 50.3789 -70.3701 90.0625 -87.1426
c36.4531 -15.4082 61.3154 -16.3154 95.5986 5.18164c91.6914 57.4932 114.97 193.633 127.869 291.718c15.5264 118.048 14.8164 237.708 10.9043 356.483c-0.817383 24.7158 92.1768 25.6064 93.0225 0c4.76953 -144.658 6.23535 -292.862 -24.2529 -435.085
c-23.3906 -109.123 -71.0234 -228.648 -190.909 -256.933c-113.329 -26.7393 -235.244 15.6279 -293.154 118.426c-53.4961 94.9502 -64.2637 211.848 -65.9326 318.756c-1.29688 83.1621 5.12402 166.02 14.6006 248.572z" />
    <glyph glyph-name="u" unicode="&#xfb;" horiz-adv-x="609" 
d="M30.7676 689.326c3.1123 27.1064 95.6172 22.6064 93.0068 0.00488281c-9.97852 -86.9277 -16.5518 -174.222 -14.3252 -261.786c2.54297 -100.03 12.7812 -209.7 63.5098 -298.195c21.0342 -36.6904 50.3789 -70.3701 90.0625 -87.1426
c36.4531 -15.4082 61.3154 -16.3154 95.5986 5.18164c91.6914 57.4932 114.97 193.633 127.869 291.718c15.5264 118.048 14.8164 237.708 10.9043 356.483c-0.817383 24.7158 92.1768 25.6064 93.0225 0c4.76953 -144.658 6.23535 -292.862 -24.2529 -435.085
c-23.3906 -109.123 -71.0234 -228.648 -190.909 -256.933c-113.329 -26.7393 -235.244 15.6279 -293.154 118.426c-53.4961 94.9502 -64.2637 211.848 -65.9326 318.756c-1.29688 83.1621 5.12402 166.02 14.6006 248.572z" />
    <glyph glyph-name="u" unicode="&#xfa;" horiz-adv-x="609" 
d="M30.7676 689.326c3.1123 27.1064 95.6172 22.6064 93.0068 0.00488281c-9.97852 -86.9277 -16.5518 -174.222 -14.3252 -261.786c2.54297 -100.03 12.7812 -209.7 63.5098 -298.195c21.0342 -36.6904 50.3789 -70.3701 90.0625 -87.1426
c36.4531 -15.4082 61.3154 -16.3154 95.5986 5.18164c91.6914 57.4932 114.97 193.633 127.869 291.718c15.5264 118.048 14.8164 237.708 10.9043 356.483c-0.817383 24.7158 92.1768 25.6064 93.0225 0c4.76953 -144.658 6.23535 -292.862 -24.2529 -435.085
c-23.3906 -109.123 -71.0234 -228.648 -190.909 -256.933c-113.329 -26.7393 -235.244 15.6279 -293.154 118.426c-53.4961 94.9502 -64.2637 211.848 -65.9326 318.756c-1.29688 83.1621 5.12402 166.02 14.6006 248.572z" />
    <glyph glyph-name="v" unicode="v" horiz-adv-x="630" 
d="M546.133 698.527c9.18945 28.3467 98.6016 17.2295 93.0205 0.00585938c-19.8955 -61.3604 -42.1641 -121.949 -65.0078 -182.267c-67.3818 -177.926 -139.82 -354.082 -214.588 -529.025c-8.19141 -19.168 -81.4707 -19.3594 -89.7021 0.000976562
c-9.5166 22.3926 -18.9658 44.8135 -28.3916 67.2402c-87.8125 208.877 -179.78 418.177 -251.199 633.368c-5.75 17.3242 83.709 28.0693 93.0225 -0.000976562c18.4072 -55.4639 39.4307 -110.065 60.5781 -164.525c54.7646 -141.021 112.179 -281.067 170.828 -420.55
c82.6318 196.091 165.845 393.41 231.439 595.753z" />
    <glyph glyph-name="w" unicode="w" horiz-adv-x="848" 
d="M-4.85742 687.844c-4.23438 20.7246 87.373 27.6533 93.0391 0c27.0215 -132.232 64.1855 -262.684 100.718 -392.531c18.8867 -67.1396 37.5361 -138.964 58.3848 -207.118c41.5898 60.9834 86.0713 120.19 130.62 178.637
c0.794922 2.35645 3.0166 4.4082 5.95996 6.17285c3.25879 2.23242 7.49805 3.89551 12.3467 5.07422c6.77051 1.99023 13.3896 3.10059 15.9209 3.3877c16.5244 1.87207 45.6943 2.35645 57.2119 -12.3408c44.8535 -57.2344 87.5869 -116.357 128.291 -176.782
c58.2266 200.753 116.65 402.194 162.203 606.184c6.26953 28.0645 97.4707 19.9062 93.0225 -0.000976562c-13.5869 -60.8418 -28.9219 -121.283 -44.6797 -181.59c-45.9307 -175.789 -95.4414 -350.71 -146.739 -525.006
c-7.3125 -24.8398 -78.8662 -24.6875 -91.3594 -4.69629c-45.5693 72.918 -94.0645 144.337 -145.43 213.433c-51.7939 -69.0898 -102.302 -139.641 -146.727 -213.433c-10.334 -17.167 -81.7979 -21.249 -89.7021 0c-36.4307 97.9043 -62.1221 200.81 -90.4346 301.234
c-37.2432 132.108 -75.1514 264.82 -102.646 399.376z" />
    <glyph glyph-name="x" unicode="x" horiz-adv-x="548" 
d="M-5.62891 -3.36816c13.1416 17.9902 26.1582 36.0645 39.1641 54.1562c64.8115 90.1973 129.302 180.902 192.27 272.656c-80.5967 117.738 -158.611 237.235 -231.428 359.697c-12.7637 21.4629 76.3799 31.7969 89.7021 9.39844
c40.5352 -68.166 83.083 -135.114 126.533 -201.453c21.0625 -32.1631 42.3564 -64.1855 63.7627 -96.1348c65.6514 97.6338 129.25 196.598 189.297 297.586c13.5479 22.7822 102.263 11.7266 89.7021 -9.39746c-40.5352 -68.166 -83.083 -135.108 -126.533 -201.453
c-34.4971 -52.6729 -69.5186 -105.024 -104.924 -157.128c75.3145 -110.601 152.551 -219.938 231.45 -327.929c13.4971 -18.4746 -73.8594 -31.0752 -89.7012 -9.39844c-13.1416 17.9844 -26.1592 36.0703 -39.1602 54.1562
c-50.666 70.5166 -101.129 141.349 -150.831 212.744c-62.0146 -89.8252 -125.247 -178.816 -189.602 -266.9c-16.1123 -22.043 -102.956 -8.74316 -89.7021 9.39941z" />
    <glyph glyph-name="y" unicode="y" horiz-adv-x="559" 
d="M20.9023 687.686c3.43359 27.2354 95.834 22.3438 93.0205 0.00195312c-6.99609 -55.5596 -7.44727 -112.597 -3.05566 -168.359c5.05176 -64.1514 16.4004 -133.101 52.8594 -187.611c32.3037 -48.293 78.082 -72.1465 128.134 -41.7363
c61.7158 37.4961 90.6143 115.375 107.471 181.854c18.5479 73.1553 25.6006 148.706 30.0938 223.856c-0.219727 6.45508 6.00391 11.2695 15.2891 14.4268c0.146484 0.0507812 0.304688 0.0957031 0.451172 0.146484c0.77832 0.259766 1.56152 0.507812 2.38477 0.744141
c0.811523 0.236328 1.65137 0.456055 2.49707 0.669922c0.197266 0.0507812 0.394531 0.107422 0.597656 0.152344c3.6416 0.884766 7.57715 1.54395 11.6758 1.98926c0.0341797 0.00585938 0.0683594 0.00585938 0.102539 0.0117188
c1.12207 0.124023 2.26074 0.225586 3.40527 0.31543c0.546875 0.0390625 1.09375 0.0839844 1.64062 0.118164c0.575195 0.0341797 1.14453 0.0683594 1.71973 0.0966797c15.2334 0.806641 31.4189 -1.11621 41.9053 -5.88574
c7.16016 -3.12305 11.6699 -7.40723 11.3486 -12.791c4.34668 -125.326 8.93555 -250.658 10.9424 -376.047c1.19531 -74.7393 15.2109 -162.98 -28.5713 -228.919c-34.4238 -51.8447 -94.6855 -80.8955 -154.017 -93.3379
c-121.211 -25.4209 -291.199 3.84473 -335.518 136.985c-5.75586 17.3018 83.6807 28.0693 93.0225 -0.000976562c17.6289 -52.9609 64.6309 -90.373 117.631 -104.101c21.9814 -5.69434 41.9277 -6.73145 58.5703 -5.125c20.8877 2.01855 42.4297 7.26758 63.5146 17.3535
c45.8291 21.9141 80.4053 63.4805 90.0293 113.724c6.87207 35.8613 3.35449 74.0967 3.00488 110.393c-0.242188 25.3643 -0.642578 50.7285 -1.11035 76.0869c-29.8682 -46.1953 -71.751 -81.9219 -129.532 -95.6104c-80.0664 -18.9766 -174.994 -4.14355 -227.96 63.5488
c-45.1016 57.6455 -59.0098 137.639 -64.6025 208.69c-4.3916 55.7627 -3.94629 112.8 3.05566 168.359z" />
    <glyph glyph-name="y" unicode="&#xff;" horiz-adv-x="559" 
d="M20.9023 687.686c3.43359 27.2354 95.834 22.3438 93.0205 0.00195312c-6.99609 -55.5596 -7.44727 -112.597 -3.05566 -168.359c5.05176 -64.1514 16.4004 -133.101 52.8594 -187.611c32.3037 -48.293 78.082 -72.1465 128.134 -41.7363
c61.7158 37.4961 90.6143 115.375 107.471 181.854c18.5479 73.1553 25.6006 148.706 30.0938 223.856c-0.219727 6.45508 6.00391 11.2695 15.2891 14.4268c0.146484 0.0507812 0.304688 0.0957031 0.451172 0.146484c0.77832 0.259766 1.56152 0.507812 2.38477 0.744141
c0.811523 0.236328 1.65137 0.456055 2.49707 0.669922c0.197266 0.0507812 0.394531 0.107422 0.597656 0.152344c3.6416 0.884766 7.57715 1.54395 11.6758 1.98926c0.0341797 0.00585938 0.0683594 0.00585938 0.102539 0.0117188
c1.12207 0.124023 2.26074 0.225586 3.40527 0.31543c0.546875 0.0390625 1.09375 0.0839844 1.64062 0.118164c0.575195 0.0341797 1.14453 0.0683594 1.71973 0.0966797c15.2334 0.806641 31.4189 -1.11621 41.9053 -5.88574
c7.16016 -3.12305 11.6699 -7.40723 11.3486 -12.791c4.34668 -125.326 8.93555 -250.658 10.9424 -376.047c1.19531 -74.7393 15.2109 -162.98 -28.5713 -228.919c-34.4238 -51.8447 -94.6855 -80.8955 -154.017 -93.3379
c-121.211 -25.4209 -291.199 3.84473 -335.518 136.985c-5.75586 17.3018 83.6807 28.0693 93.0225 -0.000976562c17.6289 -52.9609 64.6309 -90.373 117.631 -104.101c21.9814 -5.69434 41.9277 -6.73145 58.5703 -5.125c20.8877 2.01855 42.4297 7.26758 63.5146 17.3535
c45.8291 21.9141 80.4053 63.4805 90.0293 113.724c6.87207 35.8613 3.35449 74.0967 3.00488 110.393c-0.242188 25.3643 -0.642578 50.7285 -1.11035 76.0869c-29.8682 -46.1953 -71.751 -81.9219 -129.532 -95.6104c-80.0664 -18.9766 -174.994 -4.14355 -227.96 63.5488
c-45.1016 57.6455 -59.0098 137.639 -64.6025 208.69c-4.3916 55.7627 -3.94629 112.8 3.05566 168.359z" />
    <glyph glyph-name="y" unicode="&#xfd;" horiz-adv-x="559" 
d="M20.9023 687.686c3.43359 27.2354 95.834 22.3438 93.0205 0.00195312c-6.99609 -55.5596 -7.44727 -112.597 -3.05566 -168.359c5.05176 -64.1514 16.4004 -133.101 52.8594 -187.611c32.3037 -48.293 78.082 -72.1465 128.134 -41.7363
c61.7158 37.4961 90.6143 115.375 107.471 181.854c18.5479 73.1553 25.6006 148.706 30.0938 223.856c-0.219727 6.45508 6.00391 11.2695 15.2891 14.4268c0.146484 0.0507812 0.304688 0.0957031 0.451172 0.146484c0.77832 0.259766 1.56152 0.507812 2.38477 0.744141
c0.811523 0.236328 1.65137 0.456055 2.49707 0.669922c0.197266 0.0507812 0.394531 0.107422 0.597656 0.152344c3.6416 0.884766 7.57715 1.54395 11.6758 1.98926c0.0341797 0.00585938 0.0683594 0.00585938 0.102539 0.0117188
c1.12207 0.124023 2.26074 0.225586 3.40527 0.31543c0.546875 0.0390625 1.09375 0.0839844 1.64062 0.118164c0.575195 0.0341797 1.14453 0.0683594 1.71973 0.0966797c15.2334 0.806641 31.4189 -1.11621 41.9053 -5.88574
c7.16016 -3.12305 11.6699 -7.40723 11.3486 -12.791c4.34668 -125.326 8.93555 -250.658 10.9424 -376.047c1.19531 -74.7393 15.2109 -162.98 -28.5713 -228.919c-34.4238 -51.8447 -94.6855 -80.8955 -154.017 -93.3379
c-121.211 -25.4209 -291.199 3.84473 -335.518 136.985c-5.75586 17.3018 83.6807 28.0693 93.0225 -0.000976562c17.6289 -52.9609 64.6309 -90.373 117.631 -104.101c21.9814 -5.69434 41.9277 -6.73145 58.5703 -5.125c20.8877 2.01855 42.4297 7.26758 63.5146 17.3535
c45.8291 21.9141 80.4053 63.4805 90.0293 113.724c6.87207 35.8613 3.35449 74.0967 3.00488 110.393c-0.242188 25.3643 -0.642578 50.7285 -1.11035 76.0869c-29.8682 -46.1953 -71.751 -81.9219 -129.532 -95.6104c-80.0664 -18.9766 -174.994 -4.14355 -227.96 63.5488
c-45.1016 57.6455 -59.0098 137.639 -64.6025 208.69c-4.3916 55.7627 -3.94629 112.8 3.05566 168.359z" />
    <glyph glyph-name="z" unicode="z" horiz-adv-x="515" 
d="M37.5166 -10.7871c-8.99805 0.00585938 -46.5098 1.50879 -46.5156 17.6719c0 1.03711 0.146484 2.0127 0.422852 2.93164c-0.107422 1.38672 0.236328 2.82422 1.23438 4.3125c12.1719 18.125 24.2764 36.2949 36.3691 54.4766
c133.659 200.962 266.01 403.147 390.677 609.854c-127.396 -0.620117 -254.791 -2.68945 -382.192 -2.80176c-8.99219 -0.00585938 -46.5107 1.5166 -46.5107 17.6738c0 16.3779 36.126 17.6689 46.5107 17.6748c146.919 0.124023 293.832 2.98828 440.757 3.06152
c8.99219 0.00585938 46.5107 -1.5166 46.5107 -17.6738c0 -3.13477 -1.3418 -5.71094 -3.55762 -7.83594c-40.0049 -66.6768 -81.0244 -132.745 -122.546 -198.492c-98.9141 -156.633 -200.139 -311.867 -303.264 -465.766
c117.146 -0.862305 234.415 -3.50098 351.487 -0.868164c8.98047 0.203125 46.5107 -1.65137 46.5107 -17.6738c0 -16.5293 -36.1152 -17.4365 -46.5107 -17.6729c-136.365 -3.06738 -272.989 1.03711 -409.383 1.12695z" />
    <glyph glyph-name="braceleft" unicode="{" horiz-adv-x="539" 
d="M466.038 -202.874c10.5312 -2.63867 33.4873 -12.4287 16.6816 -24.1836c-57.0596 -39.9316 -152.235 -32.5742 -205.077 11.5859c-57.1611 47.7686 -72.6758 132.848 -80.1963 202.98c-8.83398 82.3779 0.485352 167.891 -13.9189 249.502
c-5.01172 28.3916 -21.5244 54.0547 -43.5566 72.3994c-8.54688 7.11523 -18.2441 13.5928 -28.3242 18.3232c-3.08984 1.44922 -5.37891 2.4248 -7.08691 3.12402c-15.5879 -1.56152 -33.792 -0.337891 -45.7549 6.88379
c-13.2031 7.96582 -11.2021 18.0625 3.63672 23.2041c145.177 50.3105 126.054 229.218 136.134 350.868c5.14746 62.1104 19.5176 134.814 67.6914 178.743c46.3135 42.2324 129.453 48.6484 182.194 15.0254c17.7979 -11.3545 -6.68066 -21.7334 -16.6875 -24.1855
c-19.2695 -4.71875 -46.082 -4.69043 -63.4121 6.22461c-1.33008 -0.597656 -3.17969 -1.27441 -5.55859 -2.03027c-4.66797 -4.61719 -10.6895 -7.87012 -15.3799 -12.6787c-9.04297 -9.27441 -16.2314 -20.4482 -22.4385 -31.7402
c-14.7148 -26.7617 -23.0928 -56.1904 -28.1445 -86.1719c-9.63477 -57.1436 -6.88379 -115.269 -11.0107 -172.863c-6.50586 -90.79 -38.9062 -179.494 -115.602 -226.395c17.2285 -6.52246 33.4482 -15.4863 47.6045 -26.502
c52.583 -40.9189 60.7461 -92.8418 63.875 -156.215c3.96875 -80.4053 1.14453 -161.813 17.1104 -241.136c7.57715 -37.6602 18.4189 -76.4531 40.9023 -108.165c10.1533 -14.3145 22.9902 -28.0479 38.9785 -35.8447c13.7168 -6.69238 11.9238 -5.33887 23.7012 2.90332
c16.2988 11.4053 45.4736 10.8867 63.6387 6.34277z" />
    <glyph glyph-name="verticalbar" unicode="|" horiz-adv-x="211" 
d="M146.81 676.158c5.42383 -268.502 6.20801 -537.132 14.2695 -805.571c0.744141 -24.7725 -92.2559 -25.5615 -93.0225 0c-2.08008 69.2363 -3.43848 138.495 -4.69043 207.749c-2.63867 146.079 -4.5498 292.169 -6.82227 438.253
c-1.48242 95.542 -0.998047 191.541 -6.52832 286.965c-1.40332 24.1973 91.5176 26.0127 93.0225 0c2.45801 -42.3955 2.91504 -84.9492 3.77148 -127.396z" />
    <glyph glyph-name="braceright" unicode="}" horiz-adv-x="539" 
d="M476.386 360.948c15.8135 -5.47949 16.1846 -15.3965 3.62402 -23.1934c-11.8848 -7.39648 -30.1006 -8.54688 -45.7617 -6.91797c-2.1709 -0.789062 -5.30566 -2.07422 -9.61816 -4.2168c-9.96777 -4.96094 -19.8623 -11.8779 -28.2451 -19.1904
c-20.7246 -18.0693 -36.4482 -43.1797 -41.0996 -70.4102c-13.9707 -81.7803 -5.07422 -167.034 -13.9199 -249.503c-7.52051 -70.1045 -23.041 -155.211 -80.1963 -202.979c-52.8877 -44.1992 -147.979 -51.5449 -205.077 -11.585
c-17.0312 11.918 5.91992 21.5469 16.6875 24.1797c18.7402 4.58301 47.1035 5.22559 63.6387 -6.34277c12.2285 -8.55762 10.6953 -9.98926 27.0449 -0.929688c14.5225 8.04492 26.1133 20.4531 35.6299 33.8652c22.5117 31.7061 33.3359 70.499 40.9072 108.165
c15.9492 79.3223 13.1416 160.726 17.1104 241.136c3.12891 63.3906 11.2979 115.303 63.875 156.216c14.1621 11.0215 30.376 19.9854 47.5996 26.5078c-76.6953 46.9053 -109.09 135.598 -115.596 226.393c-4.24512 59.1904 -1.23438 118.984 -11.8105 177.622
c-5.35547 29.6826 -14.2119 58.9482 -29.3994 85.1689c-6.71484 11.5859 -14.5566 22.7207 -24.4785 31.7695c-3.13477 2.8584 -13.3447 7.78613 -15.2275 11.0508c-0.31543 0.118164 -0.518555 0.225586 -0.794922 0.34375l-0.591797 -0.354492
c-17.1221 -10.9199 -44.7354 -11.0723 -63.6387 -6.3418c-9.82617 2.46387 -34.249 12.9893 -16.6816 24.1855c53.6602 34.2041 138.372 26.9316 184.539 -17.1387c46.2744 -44.166 60.3516 -115.506 65.3467 -176.63c9.93359 -121.628 -8.94141 -300.586 136.134 -350.869z
" />
    <glyph glyph-name="nonbreakingspace" unicode="&#xa0;" horiz-adv-x="307" 
 />
    <glyph glyph-name="exclamdown" unicode="&#xa1;" horiz-adv-x="206" 
d="M148.105 488.862c-8.63086 -181.146 -5.92578 -362.562 8.08984 -543.374c1.84375 -23.7803 -90.9863 -26.3057 -93.0215 0c-14.0156 180.812 -16.7217 362.229 -8.09082 543.374c1.24609 26.1699 94.1729 24.0898 93.0225 0zM144.293 678.943
c1.79297 -23.8252 -91.0469 -26.2725 -93.0205 -0.000976562c-2.24902 29.8916 -1.5166 59.5742 2.19824 89.3242c3.39941 27.2246 95.8125 22.3701 93.0215 0c-3.71484 -29.75 -4.44824 -59.4268 -2.19922 -89.3232z" />
    <glyph glyph-name="cent" unicode="&#xa2;" horiz-adv-x="726" 
d="M584.655 133.793c16.0391 22.0713 102.943 8.8252 89.7061 -9.39062c-56.1572 -77.2588 -146.502 -119.406 -239.992 -128.134c0.43457 -23.1602 0.84082 -46.3203 1.34277 -69.4805c0.541016 -24.9355 -92.4697 -25.415 -93.0225 0
c-0.518555 23.9268 -0.941406 47.8477 -1.38672 71.7744c-3.42188 0.496094 -6.83301 1.01465 -10.2324 1.60059c-101.643 17.4883 -195.944 80.377 -244.079 172.751c-56.4111 108.25 -44.6562 239.395 10.5986 345.581c49.6064 95.3281 136.816 161.21 240.899 178.631
c0.518555 48.834 1.13867 97.668 1.96777 146.502c0.43457 25.6514 93.4395 24.71 93.0225 0c-0.811523 -47.8926 -1.42578 -95.7852 -1.94434 -143.678c43.7207 -4.4541 87.1084 -17.5898 121.972 -43.9121c45.1357 -34.0801 66.959 -85.0283 77.2031 -139.263
c3.99121 -21.1191 -87.8193 -27.54 -93.0225 0c-9.48242 50.1924 -30.4209 100.7 -75.3477 128.99c-10.2041 6.4209 -20.6279 11.1055 -31.1934 14.3467c-1.91113 -208.968 -1.09961 -417.936 2.50293 -626.88c60.2676 11.7939 115.917 52.29 151.006 100.561z
M188.594 161.562c34.2773 -54.5332 89.0986 -102.505 151.914 -122.287c-3.48438 205.1 -4.26758 410.222 -2.44141 615.339c-4.05371 -1.52246 -8.0957 -3.13477 -12.127 -4.93848c-171.753 -76.8252 -234.512 -333.544 -137.346 -488.113z" />
    <glyph glyph-name="sterling" unicode="&#xa3;" horiz-adv-x="662" 
d="M611.804 563.917c5.2041 -18.8076 -85.2705 -27.9932 -93.0283 0.0146484c-7.0918 25.6289 -16.0947 50.6777 -30.7246 73.0762c-10.3789 15.8867 -30.6074 42.8008 -51.6309 46.3916c5.37793 -1.44336 -8.85156 -5.53613 -14.0098 -9.40332
c-9.64648 -7.2334 -17.5898 -16.3496 -24.8564 -25.9053c-14.8047 -19.4668 -25.8828 -41.6006 -35.5068 -63.9883c-29.1299 -67.7539 -43.9961 -141.851 -57.2783 -214.797c42.0859 -0.242188 84.1885 -1.31934 126.313 -3.34375
c9.01465 -0.428711 46.5107 -1.21191 46.5107 -17.6738c0 -16.0283 -36.1768 -18.1709 -46.5107 -17.6748c-44.2227 2.125 -88.4561 3.27539 -132.684 3.50684c-0.321289 -1.78711 -0.648438 -3.58594 -0.969727 -5.36719
c-18.7734 -103.306 -35.4951 -207.017 -51.585 -310.773c87.7852 -1.07715 175.75 -1.85547 263.388 1.87109c8.96387 0.383789 46.5107 -1.76953 46.5107 -17.6738c0 -16.6709 -36.1035 -17.2295 -46.5107 -17.6748c-104.01 -4.42578 -208.493 -2.50879 -312.565 -1.27441
c-6.52832 0.0732422 -48.9463 1.91113 -46.5107 17.6738c6.33691 41.0371 12.877 82.0342 19.5127 123.021c11.1289 68.7354 20.9102 139.212 33.3184 209.125c-31.5713 -0.868164 -63.1309 -2.19824 -94.6855 -4.14844
c-11.9912 -0.738281 -50.3613 -3.06641 -57.2109 12.3467c-7.05859 15.876 22.1387 21.1025 32.4834 21.7393c41.9785 2.58789 83.957 4.39746 125.93 5.41797c12.0088 62.3584 26.6777 123.956 46.8945 183.135c28.5098 83.4385 74.3779 164.926 172.615 167.632
c44.1992 1.21777 87.875 -10.6328 121.171 -40.6201c33.4258 -30.1055 49.877 -72.208 61.6201 -114.632z" />
    <glyph glyph-name="currency" unicode="&#xa4;" horiz-adv-x="840" 
d="M783.438 160.86c17.0537 -11.9072 -5.93555 -21.5557 -16.6865 -24.1768c-18.7568 -4.58887 -47.0859 -5.21484 -63.6387 6.34277c-30.6406 21.4004 -61.3496 42.6943 -92.0977 63.9375c-0.428711 -0.264648 -0.845703 -0.535156 -1.29102 -0.783203
c-62.3193 -40.208 -137.008 -52.8701 -210.332 -49.6904c-55.8975 2.42383 -115.854 13.3721 -166.933 39.373c-27.6133 -19.4443 -55.2715 -38.8379 -82.9756 -58.1582c-16.332 -11.3877 -45.4453 -10.8975 -63.6387 -6.3418
c-10.5088 2.62695 -33.5215 12.4424 -16.6875 24.1797c36.6396 25.5498 73.166 51.2461 109.642 77.0156c-33.6182 31.374 -51.8789 71.8584 -49.1104 120.18c2.55957 44.7295 24.4844 85.4678 56.7041 115.872c5.20898 4.91016 10.6211 9.49902 16.1465 13.9023
c-48.6367 32.0508 -97.3799 63.9434 -146.265 95.6328c-17.6689 11.4502 6.54492 21.6992 16.6875 24.1797c19.2471 4.70703 46.4492 4.80273 63.6387 -6.34277c40.5967 -26.3115 81.0811 -52.7979 121.509 -79.3623c61.8574 28.6455 133.592 35.8105 201.323 29.2197
c37.8965 -3.6875 77.0732 -12.792 112.664 -28.7295c39.4248 29.209 78.7871 58.5195 118.015 88.0049c15.6387 11.7549 46.0596 10.7402 63.6377 6.34277c11.1006 -2.7793 32.873 -12.0195 16.6875 -24.1855c-46.8945 -35.2578 -93.9521 -70.2852 -141.14 -105.148
c17.6289 -14.5225 33.0479 -31.7061 45.0615 -52.0811c36.6396 -62.1387 22.8105 -129.549 -18.3105 -180.953c42.5537 -29.2705 85.0391 -58.6543 127.39 -88.2295zM524.577 481.96c-63.8301 39.8076 -150.041 40.168 -215.816 1.32422
c38.0713 -25.1611 76.0527 -50.4629 113.972 -75.8496c34.0176 24.75 67.9736 49.5781 101.845 74.5254zM261.19 443.72c-39.9434 -46.9111 -51.9004 -115.635 -21.3271 -167.902c43.9688 31.2891 87.8184 62.7363 131.55 94.3584
c-36.6621 24.6309 -73.4141 49.127 -110.223 73.5439zM532.946 226.245c8 5.8125 15.457 12.2207 22.3066 19.1045c-43.083 29.5645 -86.2793 58.96 -129.565 88.2197c-47.5371 -34.2656 -95.2148 -68.3457 -143.034 -102.223
c72.2139 -50.8574 177.262 -53.8174 250.293 -5.10156zM589.66 294.583c18.3447 40.084 19.1582 86.2412 -6.13867 127.949c-3.66406 6.04395 -7.67285 11.7266 -11.9014 17.1553c-31.3965 -23.0361 -62.8379 -45.9932 -94.3584 -68.8545
c37.5469 -25.2969 75.0039 -50.7227 112.398 -76.25z" />
    <glyph glyph-name="yen" unicode="&#xa5;" horiz-adv-x="561" 
d="M510.406 723.205c-51.4609 -129.25 -116.865 -253.798 -181.31 -377.016c-0.124023 -2.67773 -0.219727 -5.34961 -0.337891 -8.02734c44.3008 -0.287109 88.6133 -1.34668 132.948 -3.31445c9.01465 -0.40625 46.5107 -1.23535 46.5107 -17.6748
c0 -16.0566 -36.1719 -18.1367 -46.5117 -17.6748c-44.7744 1.99023 -89.5664 3.17383 -134.358 3.5293c-0.980469 -29.418 -1.5332 -58.8359 -1.66309 -88.248c45.3271 -0.259766 90.666 -1.33691 136.027 -3.34961c9.01465 -0.400391 46.5107 -1.23438 46.5107 -17.6738
c0 -16.0566 -36.1719 -18.1309 -46.5117 -17.6738c-45.3271 2.0127 -90.6709 3.19629 -136.015 3.5293c0.40625 -58.1191 2.46387 -116.227 6.17383 -174.329c1.53906 -24.0791 -91.3594 -26.1035 -93.0225 -0.000976562c-3.69238 57.9102 -5.75586 115.826 -6.17285 173.76
c-41.4707 -0.806641 -82.9365 -2.32324 -124.379 -4.68555c-12.0137 -0.682617 -50.3447 -3.10645 -57.2119 12.3467c-7.04688 15.8477 22.1279 21.1475 32.4844 21.7393c49.7021 2.83594 99.3984 4.73047 149.095 5.68848
c0.129883 29.4512 0.670898 58.9082 1.65234 88.3652c-42.0234 -0.789062 -84.0303 -2.32812 -126.02 -4.71875c-12.0137 -0.6875 -50.3447 -3.11133 -57.2119 12.3418c-7.04688 15.8535 22.1279 21.1533 32.4844 21.7393c50.7285 2.89258 101.439 4.79297 152.15 5.73438
c0.101562 2.27246 0.180664 4.5498 0.288086 6.82715c-63.6836 122.338 -130.13 245.245 -182.228 373.023c-10.4971 25.7529 80.5127 31.9434 89.7021 9.39844c40.2529 -98.7275 89.0752 -194.54 138.563 -289.434c49.9844 96.6074 98.5586 194.473 138.659 295.196
c9.12207 22.9004 99.9121 16.2422 89.7021 -9.39844z" />
    <glyph glyph-name="section" unicode="&#xa7;" horiz-adv-x="503" 
d="M353.779 225.812c40.7383 -25.4209 74.5156 -58.6572 85.6504 -108.636c15.1377 -67.9453 -41.9551 -119.835 -100.987 -139.048c-103.824 -33.7979 -280.426 -5.26562 -282.473 132.198c-0.37207 25.0713 92.6504 25.2969 93.0225 0
c0.783203 -52.2842 34.1982 -97.5439 86.5557 -108.396c15.5322 -3.21875 22.3818 -3.22461 39.6729 1.98438c20.5273 6.19043 39.3516 18.8135 52.8311 35.4443c57.5381 70.9961 -13.0068 148.177 -76.4082 181.428c-34.0967 17.877 -70.3867 31.2949 -104.923 48.2979
c-32.1289 15.8135 -72.6191 35.5684 -88.9287 69.5635c-28.5264 59.4609 27.0557 118.979 73.127 155.116c-41.4033 23.3799 -71.6836 56.6533 -64.5742 111.333c6.99121 53.7607 54.9229 86.2852 102.962 101.676c62.4033 19.9912 133.896 21.4736 196.632 2.0459
c44.0303 -13.6318 89.8428 -43.585 87.1201 -95.2041c-1.38672 -26.249 -94.291 -23.9824 -93.0225 0c1.12207 21.2539 -6.4209 39.3965 -23.1758 52.7861c-8.53516 6.82715 -16.7939 10.6836 -26.835 14.2412c-8.04492 2.85254 -19.0889 4.79785 -25.6113 5.54785
c-4.50488 0.518555 -19.0898 0.614258 -23.0586 0.213867c-13.1924 -1.33594 -13.8975 -1.20605 -27.0615 -4.91602c-15.1484 -4.26758 -35.6416 -14.0664 -49.2061 -26.9434c-15.6504 -14.8555 -24.9072 -34.373 -26.2939 -55.8418
c-2.59375 -40.1631 16.417 -68.3574 51.7988 -86.6973c74.8066 -38.7764 219.78 -51.8896 240.854 -152.957c12.6621 -60.7354 -47.1143 -107.433 -97.668 -133.236zM296.479 255.961c29.9531 18.0127 56.9756 44.2217 62.4727 79.0117
c9.09375 57.6172 -56.1406 91.2012 -100.408 108.391c-18.0127 6.99609 -39.1426 13.7441 -60.6846 21.4004c-26.1924 -22.9619 -50.9473 -52.543 -54.3809 -85.1123c-6.03223 -57.2061 62.0879 -83.252 104.878 -102.296c15.498 -6.89453 31.8076 -13.8799 48.123 -21.3945
z" />
    <glyph glyph-name="copyright" unicode="&#xa9;" horiz-adv-x="897" 
d="M818.955 514.75c56.6592 -152.224 25.5156 -333.746 -87.7178 -452.29c-90.5586 -90.2207 -214.605 -121.786 -339.875 -103.475c-111.192 16.248 -217.407 71.4072 -281.113 166.194c-95.3164 141.828 -71.4805 356.461 28.9727 489.596
c90.5303 119.987 232.438 170.354 379.497 148.04c141.608 -21.4912 250.607 -114.733 300.236 -248.065zM641.529 71.8467c110.149 115.325 142.769 295.186 84.001 443.215c-41.1211 103.576 -124.125 196.807 -238.812 214.769
c-109.332 17.1221 -208.048 -50.457 -269.308 -140.514c-81.8486 -120.32 -103.734 -307.228 -29.2266 -435.971c43.7822 -75.6582 117.715 -132.853 202.562 -154.671c94.1895 -24.2197 182.668 5.31641 250.783 73.1719zM505.93 251.217
c14.4209 22.585 102.554 10.7412 89.6885 -9.39648c-39.8984 -62.5 -124.21 -79.8926 -192.094 -57.6465c-68.1377 22.3311 -105.357 89.5605 -103.57 159.068c1.83203 71.1982 38.9111 147.46 111.418 168.043c37.1016 10.5371 81.1719 10.2266 116.323 -6.92871
c32.6201 -15.9268 46.2578 -46.1846 52.2168 -80.4844c3.73828 -21.502 -88.2578 -27.4102 -93.0215 0c-2.24902 12.9551 -4.9209 25.792 -11.5957 37.3379c-4.16016 7.19336 -12.1992 12.1436 -16.5576 18.373c-1.08203 -0.620117 -2.1875 -1.19531 -3.21875 -1.91699
c-9.77051 -5.79004 -17.6807 -13.7109 -24.6885 -22.585c-25.7646 -32.6143 -37.7783 -75.3145 -37.9697 -116.492c-0.180664 -39.4697 12.0254 -80.1904 41.082 -108.153c7.88672 -7.59375 17.5439 -14.9619 27.9395 -18.75
c0.282227 -0.101562 0.473633 -0.219727 0.609375 -0.34375c0.484375 0.327148 1.04297 0.693359 1.69141 1.10449c17.623 11.168 30.1279 20.5664 41.7471 38.7705z" />
    <glyph glyph-name="softhyphen" unicode="&#xad;" 
 />
    <glyph glyph-name="registered" unicode="&#xae;" horiz-adv-x="897" 
d="M818.955 514.75c56.6592 -152.224 25.5146 -333.746 -87.7246 -452.29c-90.5527 -90.2207 -214.604 -121.786 -339.869 -103.475c-111.192 16.248 -217.412 71.4072 -281.112 166.194c-95.3164 141.828 -71.4805 356.461 28.9727 489.596
c90.5303 119.987 232.438 170.354 379.497 148.04c141.608 -21.4912 250.607 -114.733 300.236 -248.065zM641.528 71.8467c110.155 115.325 142.771 295.186 84.0029 443.215c-41.127 103.576 -124.131 196.807 -238.818 214.769
c-109.332 17.1221 -208.043 -50.457 -269.303 -140.514c-81.8428 -120.32 -103.734 -307.228 -29.2266 -435.971c43.7822 -75.6582 117.715 -132.853 202.562 -154.671c94.1895 -24.2197 182.673 5.31641 250.782 73.1719zM593.852 459.908
c79.2041 -82.0117 -44.3809 -131.078 -134.449 -152.405c48.1973 -33.127 93.541 -70.0254 143.113 -101.208c17.9111 -11.2637 -6.78223 -21.7559 -16.6816 -24.1797c-19.4385 -4.75781 -46.2061 -4.62207 -63.6377 6.34375
c-42.4346 26.6885 -81.7686 57.5605 -122.439 86.6846c0.614258 -27.8057 1.48828 -55.6104 2.67188 -83.416c1.04297 -24.5244 -91.9287 -25.7646 -93.0225 0c-4.3584 102.466 -4.87695 204.92 -1.49414 307.419c0.546875 16.6875 39.2441 21.9814 66.5479 17.1445
c75.8154 9.00879 165.562 -0.648438 219.392 -56.3828zM398.888 334.378c63.3789 12.3125 168.083 46.8154 108.943 112.105c-26.5254 29.2881 -68.6562 39.9551 -107.37 35.8115c-1.4209 -49.3135 -1.94531 -98.6152 -1.57324 -147.917z" />
    <glyph glyph-name="mu" unicode="&#xb5;" horiz-adv-x="668" 
d="M613.414 290.099c-0.0283203 -113.521 -2.09375 -227.561 4.82324 -340.94c1.47168 -24.1348 -91.4326 -26.0625 -93.0225 0.000976562c-4.58301 75.1504 -5.20898 150.594 -5.10742 225.987c-21.5977 -46.1445 -49.7188 -88.8047 -88.833 -120.663
c-67.1787 -54.7197 -182.104 -62.2578 -247.247 -0.75c-15.6729 14.7988 -28.7412 32.1465 -39.7852 51.0947c-0.479492 -59.8213 -0.930664 -119.648 -0.896484 -179.476c0.0449219 -70.6123 -7.91504 -153.881 17.4268 -221.031
c9.97266 -26.4297 -81.2344 -31.8359 -89.7021 -9.39746c-25.877 68.5713 -20.5547 147.55 -20.7354 219.713c-0.163086 66.0967 0.422852 132.199 0.935547 198.29c1.03711 133.885 2.54199 267.774 5.49023 401.631c-0.563477 3.92383 1.88867 7.29492 6.25781 10.0576
c0.107422 0.0732422 0.225586 0.140625 0.333008 0.213867c0.213867 0.135742 0.416992 0.276367 0.648438 0.40625c21.9141 14.0039 86.2344 9.80371 85.7832 -10.6777c10.6387 -74.2031 14.585 -148.88 28.6006 -222.729
c14.2354 -75.0098 33.2402 -166.448 89.251 -222.746c10.6328 -10.6836 21.5645 -15.4248 33.7812 -22.1221c0.43457 0.0507812 0.863281 0.0957031 1.28613 0.134766c-0.168945 -0.140625 -0.349609 -0.292969 -0.603516 -0.506836
c0.276367 -0.152344 0.546875 -0.292969 0.823242 -0.445312c-0.349609 0.191406 -0.168945 0.630859 0.0625 0.980469c1.79297 0.158203 3.64746 0.282227 6.38184 1.20117c32.9414 11.0898 58.1875 36.9561 78.3877 64.3047
c51.5684 69.834 78.291 157.128 97.8311 240.645c13.7676 58.875 25.4043 119.739 28.8154 180.237c1.52734 27.1064 85.2754 23.3291 93.0215 0c8.28711 -24.9355 4.78027 -57.3018 5.23145 -83.0713c0.930664 -53.4395 0.772461 -106.896 0.760742 -160.342z
M301.089 45.7266c-2.37891 -2.05762 -0.77832 -1.00879 0 0z" />
    <glyph glyph-name="paragraph" unicode="&#xb6;" horiz-adv-x="742" 
d="M683.621 386.165c2.26074 -144.579 3.8877 -289.21 8.48242 -433.732c0.783203 -24.7383 -92.2109 -25.5898 -93.0225 0c-4.00879 126.318 -5.76172 252.716 -7.65039 379.091c-55.915 -19.6025 -113.961 -34.9541 -172.639 -43.9121
c1.64062 -111.739 3.33789 -223.49 6.87793 -335.185c0.783203 -24.7441 -92.2109 -25.5898 -93.0225 0c-3.45605 108.87 -5.15332 217.796 -6.75488 326.711c-10.4355 -0.287109 -20.8652 -0.422852 -31.2783 -0.219727c-92.1367 1.79297 -225.39 23.5547 -242.776 134.69
c-14.7598 94.3418 62.0312 185.002 137.588 230.465c110.566 66.5361 271.309 82.5186 396.297 31.1367c-0.676758 16.084 -1.45508 32.1514 -2.43066 48.2021c-1.47168 24.1348 91.4326 26.0576 93.0225 0c6.83301 -112.083 5.54785 -225.018 7.30664 -337.247z
M146.564 404.673c18.6211 -80.0439 107.816 -93.4121 178.807 -89.8994c-0.231445 15.667 -0.462891 31.3457 -0.699219 47.0186c-1.46582 95.8584 -0.709961 192.235 -5.50781 288.065c-27.2246 -10.1875 -53.0176 -24.2705 -76.2959 -41.7246
c-59.9346 -44.9326 -114.479 -125.338 -96.3037 -203.46zM418.201 327.143c59.1396 12.0029 116.938 31.1406 172.463 54.3623l-0.0673828 4.65234c-1.15527 74.0117 -1.03711 148.328 -2.75098 222.504c-49.0654 40.2646 -111.283 61.3271 -174.792 59.7148
c-0.614258 -0.0117188 -1.22266 -0.0625 -1.83691 -0.0849609c5.9082 -101.896 4.91602 -204.49 6.47168 -306.499c0.174805 -11.5459 0.34375 -23.0977 0.512695 -34.6494z" />
    <glyph glyph-name="questiondown" unicode="&#xbf;" horiz-adv-x="470" 
d="M329.455 86.623c8.48438 22.8047 99.4561 16.8262 89.7031 -9.39453c-25.3076 -68.0186 -83.5 -116.142 -152.979 -134.718c-64.1914 -17.1611 -172.892 -17.499 -205.348 53.8467c-33.6006 73.8711 18.9033 165.337 49.9561 231.444
c38.8604 82.7275 78.792 165.534 80.6523 258.754c0.512695 25.708 93.5127 24.6533 93.0225 0c-1.42676 -71.2773 -24.7666 -138.535 -53.6152 -203.014c-28.6455 -64.0332 -65.6738 -127.237 -82.2207 -195.894c-11.2529 -46.708 -1.48242 -134.571 66.8525 -115.668
c54.5557 15.0918 94.8818 63.3164 113.977 114.643zM235.161 645.328c-12.4424 -0.213867 -43.7822 1.14941 -46.5107 17.6738c-2.47461 15.0078 -3.72656 30.0713 -3.77148 45.2822c-0.0224609 6.86133 8.45117 10.2666 13.6211 12.499
c10.1084 4.3584 22.0098 4.99023 32.8906 5.17578c10.4355 0.180664 23.0586 -1.25684 32.8848 -5.1748c4.62305 -1.84375 13.6035 -6.02148 13.626 -12.499c0.0449219 -15.2109 1.29688 -30.2754 3.77148 -45.2832c1.07129 -6.49512 -9.12207 -10.5596 -13.6211 -12.499
c-10.1084 -4.35254 -22.0098 -4.98926 -32.8906 -5.1748z" />
    <glyph glyph-name="Agrave" unicode="&#xc0;" horiz-adv-x="594" 
d="M176.938 794.423c-9.15039 2.28906 -34.9707 13.583 -16.6816 24.1816c58.9307 34.1533 117.326 69.209 175.186 105.155c17.3418 10.7793 44.5381 11.123 63.6387 6.3418c9.64062 -2.41309 34.4521 -13.1416 16.6875 -24.1807
c-57.8594 -35.9521 -116.255 -71.002 -175.191 -105.155c-17.917 -10.3848 -44.0137 -11.2529 -63.6387 -6.34277zM603.798 14.5771c10.6777 -25.5166 -80.2568 -31.9668 -89.7002 -9.39941c-20.9502 50.0801 -41.043 100.521 -61.0684 150.973
c-11.1172 28.0137 -22.1445 56.0615 -33.1836 84.1035c-83.3193 0.0957031 -166.645 0.0283203 -249.964 0.00585938c-30.7256 -76.8311 -60.0195 -154.163 -86.5957 -232.296c-9.64062 -28.335 -98.7334 -16.7949 -93.0225 0
c18.3447 53.9248 38.7021 107.162 59.4375 160.213c65.8486 168.455 135.751 335.41 207.119 501.593c8.07324 18.79 82.1582 19.6699 89.7012 0c8.16309 -21.2656 16.3438 -42.5254 24.5352 -63.7852c76.1377 -197.613 151.012 -396.016 232.741 -591.407zM184.135 275.613
c73.9277 0.0283203 147.849 0.0625 221.771 -0.00488281c-35.8164 91.252 -71.2715 182.645 -106.524 274.122c-38.8154 -91.0264 -77.9297 -182.239 -115.246 -274.117z" />
    <glyph glyph-name="AE" unicode="&#xc6;" horiz-adv-x="929" 
d="M887.068 22.9072c8.98047 0.163086 46.5137 -1.62109 46.5078 -17.6826c0 -16.502 -36.1152 -17.4834 -46.5107 -17.6748c-103.531 -1.88867 -207.136 -0.118164 -310.678 -0.0107422c-21.1133 -2.23828 -46.0938 1.03711 -55.6104 10.1699
c-3.7041 1.99609 -6.42676 4.46582 -7.67871 7.46484c-20.9502 50.0801 -41.043 100.521 -61.0684 150.973c-11.1172 28.0137 -22.1445 56.0615 -33.1836 84.1035c-83.3193 0.0957031 -166.645 0.0283203 -249.964 0.00585938
c-30.7256 -76.8311 -60.0195 -154.163 -86.5957 -232.296c-9.64062 -28.335 -98.7334 -16.7949 -93.0225 0c18.3447 53.9248 38.7021 107.162 59.4375 160.213c65.8486 168.455 135.751 335.41 207.119 501.593c8.07324 18.79 82.1582 19.6699 89.7012 0
c8.16309 -21.2656 16.3438 -42.5254 24.5352 -63.7852c46.6689 -121.132 92.876 -242.546 140.464 -363.391c-2.09766 144.061 -1.02637 288.138 3.35938 432.209c0.0117188 0.37207 0.107422 0.71582 0.158203 1.07617
c-0.168945 0.709961 -0.327148 1.41992 -0.327148 2.19824c0 16.3721 36.126 17.6748 46.5107 17.6748c109.665 0.0449219 219.353 1.55566 329.006 0c9.00391 -0.129883 46.5117 -1.42676 46.5117 -17.6748c0 -16.2646 -36.1377 -17.8203 -46.5107 -17.6738
c-94.2178 1.33594 -188.463 0.451172 -282.691 0.135742c-2.81348 -97.2734 -4.11621 -194.547 -3.96973 -291.82c76.3457 -0.355469 152.714 -1.24609 229.049 0.163086c8.98047 0.168945 46.5107 -1.62402 46.5107 -17.6748
c0 -16.502 -36.1152 -17.4834 -46.5107 -17.6748c-76.3125 -1.40918 -152.658 -0.518555 -228.987 -0.163086c0.535156 -103.525 2.76758 -207.045 6.61816 -310.548c92.5996 -0.355469 185.238 -1.60156 277.82 0.0898438zM183.136 275.615
c73.9277 0.0283203 147.849 0.0625 221.771 -0.00488281c-35.8164 91.252 -71.2715 182.645 -106.524 274.122c-38.8154 -91.0264 -77.9297 -182.239 -115.246 -274.117z" />
    <glyph glyph-name="Ccedilla" unicode="&#xc7;" horiz-adv-x="530" 
d="M440.08 136.242c6.92285 28.1777 97.7715 19.3281 93.0244 -0.00390625c-24.6709 -100.453 -119.367 -141.873 -214.645 -146.181c-0.738281 -39.6553 -1.99023 -79.3057 -3.85059 -118.944c-1.22949 -26.1592 -94.1562 -24.1074 -93.0234 -0.000976562
c1.97363 42.0908 3.29297 84.1992 4.00293 126.308c-220.451 47.7236 -260.248 338.635 -178.073 517.351c37.293 81.0986 104.066 150.375 193.57 169.74c106.282 22.9902 228.26 -13.4014 260.941 -125.846c5.36133 -18.4414 -84.876 -28.0371 -93.0225 -0.000976562
c-11.9238 41.0312 -41.6738 80.5742 -84.1318 93.1299c-35.5176 10.5029 -69.7441 -6.62402 -97.7129 -27.7881c-128.444 -97.1943 -155.24 -305.97 -101.006 -447.859c19.3652 -50.666 52.2441 -103.046 99.9844 -130.856
c0.333008 59.7256 -0.591797 119.457 -2.80176 179.172c-0.913086 24.6367 92.0752 25.6738 93.0225 0c2.44727 -66.0459 3.27637 -132.114 2.61133 -198.166c57.9219 7.62207 106.451 50.2715 121.109 109.946z" />
    <glyph glyph-name="Egrave" unicode="&#xc8;" horiz-adv-x="448" 
d="M120.42 794.423c-9.14453 2.28906 -34.9707 13.583 -16.6875 24.1816c58.9365 34.1533 117.332 69.209 175.191 105.155c17.3418 10.7793 44.5381 11.123 63.6387 6.3418c9.64062 -2.41309 34.4521 -13.1416 16.6875 -24.1807
c-57.8594 -35.9521 -116.255 -71.002 -175.191 -105.155c-17.917 -10.3848 -44.0137 -11.2529 -63.6387 -6.34277zM405.62 22.9102c8.98633 0.163086 46.5117 -1.62207 46.5117 -17.6836c0 -16.502 -36.1152 -17.4834 -46.5107 -17.6748
c-103.531 -1.88867 -207.136 -0.118164 -310.678 -0.0107422c-26.4297 -2.80176 -58.9814 3.02734 -59.5732 18.1816c-8.69336 222.972 -9.72461 446.039 -2.93652 669.078c0.0117188 0.37207 0.107422 0.71582 0.158203 1.07617
c-0.168945 0.709961 -0.327148 1.41992 -0.327148 2.19824c0 16.3721 36.126 17.6748 46.5107 17.6748c109.665 0.0449219 219.353 1.55566 329.006 0c9.00293 -0.129883 46.5107 -1.42676 46.5107 -17.6748c0 -16.2646 -36.1377 -17.8203 -46.5107 -17.6738
c-94.2178 1.33594 -188.463 0.451172 -282.691 0.135742c-2.81348 -97.2734 -4.11621 -194.547 -3.96973 -291.82c76.3457 -0.355469 152.714 -1.24609 229.049 0.163086c8.98047 0.168945 46.5107 -1.62402 46.5107 -17.6748
c0 -16.502 -36.1152 -17.4824 -46.5107 -17.6738c-76.3125 -1.40918 -152.658 -0.518555 -228.987 -0.163086c0.535156 -103.525 2.76758 -207.045 6.61816 -310.548c92.5996 -0.355469 185.238 -1.60156 277.82 0.0898438z" />
    <glyph glyph-name="Igrave" unicode="&#xcc;" horiz-adv-x="154" 
d="M164.223 930.1c9.64062 -2.41309 34.4521 -13.1396 16.6875 -24.1787c-57.8594 -35.9521 -116.255 -71.002 -175.191 -105.155c-17.917 -10.3848 -44.0137 -11.2529 -63.6387 -6.34277c-9.15039 2.28906 -34.9707 13.5811 -16.6875 24.1797
c58.9365 34.1533 117.332 69.209 175.191 105.155c17.3418 10.7793 44.5381 11.123 63.6387 6.3418zM124.787 674.753c-5.8291 -226.016 -4.94336 -452.054 2.52051 -678.024c0.817383 -24.71 -92.1768 -25.6064 -93.0225 0
c-7.46387 225.971 -8.34863 452.009 -2.51953 678.024c0.665039 25.8096 93.6533 24.541 93.0215 0z" />
    <glyph glyph-name="Ntilde" unicode="&#xd1;" horiz-adv-x="598" 
d="M131.108 831.84c-5.37305 -27.8672 -97.0146 -20.6963 -93.0176 0c15.0303 77.9248 113.662 87.0576 177.024 72.4502c40.3604 -9.30176 74.7051 -31.8975 112.945 -46.5615c31.5713 -12.1045 55.9209 5.12402 77.4961 31.875
c11.749 14.5674 40.8906 14.2236 57.2119 12.3408c6.65234 -0.766602 43.9736 -7.49805 32.4844 -21.7393c-45.3838 -56.2588 -122.113 -73.7812 -191.203 -59.8105c-39.041 7.89258 -72.3877 27.5908 -108.469 43.2471c-14.1279 6.12793 -26.4238 13.209 -37.4512 7.79688
c-14.9629 -7.33984 -24.0225 -24.0439 -27.0215 -39.5986zM568.988 674.751c-4.87695 -226.016 -4.1377 -452.039 2.10352 -678.016c0.585938 -21.1016 -66.5254 -24.7549 -87.0859 -9.69629c-5.77344 1.9502 -10.3115 4.70703 -12.7305 8.43359
c-115.071 177.351 -235.882 350.767 -348.433 529.634c-1.87207 -176.139 -0.394531 -352.272 4.4707 -528.378c0.6875 -24.8174 -92.3174 -25.5166 -93.0225 0c-6.24121 225.981 -6.98535 452.014 -2.1084 678.023c0.541016 25.0479 88.6191 24.6533 92.8359 1.91602
c1.08203 -0.998047 2.02344 -2.06348 2.7168 -3.23633c108.441 -184.116 229.021 -360.193 347.255 -537.928c-3.16797 179.735 -2.90332 359.494 0.975586 539.247c0.552734 25.7363 93.5527 24.6201 93.0225 0z" />
    <glyph glyph-name="Ograve" unicode="&#xd2;" horiz-adv-x="586" 
d="M182.947 794.423c-9.15039 2.28906 -34.9707 13.583 -16.6875 24.1816c58.9365 34.1533 117.332 69.209 175.191 105.155c17.3418 10.7793 44.5381 11.123 63.6387 6.3418c9.64062 -2.41309 34.4521 -13.1416 16.6875 -24.1807
c-57.8594 -35.9521 -116.255 -71.002 -175.191 -105.155c-17.917 -10.3848 -44.0137 -11.2529 -63.6387 -6.34277zM335.938 689.078c267.988 -38.0322 296.565 -424.829 162.991 -603.021c-121.425 -151.609 -364.743 -109.946 -450.673 57.3926
c-63.3623 123.387 -48.749 297.817 21.5928 415.77c57.5381 96.4834 154.017 145.763 266.089 129.858zM409.228 95.4561c77.4395 103.306 93.5156 248.376 58.3818 370.974c-21.6035 75.3594 -71.0352 169.008 -154.586 187.877
c-15.9941 3.61328 -31.6328 3.06055 -40.2363 -0.0966797c-8.58594 -3.15137 -24.2246 -10.8467 -34.4912 -17.6738c-35.5625 -23.6445 -62.9727 -58.2314 -83.6748 -95.2148c-56.1514 -100.312 -70.127 -242.128 -32.7432 -351.082
c20.8203 -60.6846 63.2949 -118.279 121.51 -147.376c25.415 -12.7021 53.6992 -20.4092 81.623 -12.1504c34.9033 10.3174 62.1055 37.1357 84.2168 64.7432z" />
    <glyph glyph-name="Oslash" unicode="&#xd8;" horiz-adv-x="587" 
d="M466.178 631.797c143.717 -122.71 141.495 -402.037 33.7695 -545.736c-79.9883 -99.8779 -212.869 -115.844 -318.812 -67.292c-31.0527 -63.2041 -62.9795 -126.003 -96.3213 -188.164c-12.3125 -22.957 -101.749 -13.0625 -89.7012 9.39844
c39.8984 74.3955 77.7891 149.704 114.541 225.537c-24.1465 21.626 -44.8594 47.6836 -60.3799 77.9131c-63.3623 123.387 -48.749 297.817 21.5928 415.77c57.5381 96.4834 154.017 145.763 266.089 129.858c19.7939 -2.80762 38.252 -7.56543 55.4639 -13.959
c20.6963 43.8447 41.6689 87.5654 63.1152 131.077c11.3428 23.0127 101.27 14.0713 89.7012 -9.39844c-26.9707 -54.7305 -53.2031 -109.788 -79.0576 -165.004zM145.533 140.352c76.5547 161.673 148.936 325.26 224.633 487.4
c-16.665 12.5215 -35.3369 21.8467 -56.123 26.543c-15.9941 3.61426 -31.6328 3.06152 -40.2363 -0.0957031c-8.58594 -3.15137 -24.2246 -10.8467 -34.4912 -17.6738c-35.5625 -23.6445 -62.9727 -58.2314 -83.6748 -95.2148
c-56.1514 -100.312 -70.127 -242.128 -32.7432 -351.082c5.85742 -17.0654 13.4854 -33.8662 22.6357 -49.877zM410.244 95.4502c77.4453 103.306 93.5225 248.376 58.377 370.979c-8.30469 28.9727 -20.7412 60.6396 -37.6318 89.7305
c-75.0713 -162.693 -147.786 -326.401 -225.654 -487.753c12.0703 -9.91113 25.1045 -18.5703 39.0693 -25.5498c25.415 -12.7021 53.6992 -20.4092 81.623 -12.1504c34.9033 10.3174 62.1055 37.1357 84.2168 64.7432z" />
    <glyph glyph-name="Ugrave" unicode="&#xd9;" horiz-adv-x="607" 
d="M192.298 794.423c-9.15039 2.28906 -34.9707 13.583 -16.6875 24.1816c58.9365 34.1533 117.332 69.209 175.191 105.155c17.3418 10.7793 44.5381 11.123 63.6387 6.3418c9.64062 -2.41309 34.4521 -13.1416 16.6875 -24.1807
c-57.8594 -35.9521 -116.255 -71.002 -175.191 -105.155c-17.917 -10.3848 -44.0195 -11.2529 -63.6387 -6.34277zM589.43 695.59c4.76953 -144.658 6.22461 -292.862 -24.2695 -435.085c-23.3906 -109.123 -71.0234 -228.643 -190.909 -256.933
c-113.329 -26.7393 -235.244 15.6279 -293.154 118.426c-53.4961 94.9561 -64.2637 211.854 -65.9326 318.762c-1.29688 83.168 5.11914 166.02 14.6016 248.572c3.1123 27.1064 95.6211 22.6074 93.0225 0c-9.97852 -86.9277 -16.5518 -174.222 -14.3252 -261.786
c2.54297 -100.03 12.7812 -209.695 63.5098 -298.19c21.0342 -36.6904 50.3789 -70.3701 90.0625 -87.1426c36.4531 -15.4082 61.3154 -16.3154 95.5986 5.18164c91.6914 57.4873 114.97 193.633 127.869 291.718c15.5264 118.048 14.8164 237.708 10.9043 356.478
c-0.811523 24.7158 92.1768 25.6123 93.0225 0z" />
    <glyph glyph-name="germandbls" unicode="&#xdf;" horiz-adv-x="553" 
d="M470.501 233.2c48.1289 -34.6436 64.3994 -100.361 28.2842 -150.289c-41.8877 -57.8828 -126.239 -77.8633 -192.488 -88.6309c-73.1094 -11.8848 -149.596 -14.8955 -223.382 -5.61621c-23.4023 -0.197266 -47.1592 5.9707 -47.5938 18.8643
c-2.76855 82.4346 -4.61816 164.875 -5.57129 247.321c-0.524414 1.90527 -0.518555 3.6416 -0.0615234 5.21973c-1.52734 138.271 -0.506836 276.558 3.1123 414.834c0.304688 11.5459 19.0898 17.6514 39.6953 18.7002c73.0703 13.874 152.962 11.8955 225.542 1.9502
c78.6123 -10.7676 174.453 -34.4971 220.463 -105.848c43.7764 -67.8945 28.7686 -168.618 -23.9043 -227.307c-38.2295 -42.5928 -90.9873 -68.7969 -145.966 -85.7773c43.8555 -6.29199 87.1025 -18.3965 121.87 -43.4219zM125.558 663.155
c-3.21875 -128.055 -4.19238 -256.115 -2.99707 -384.164c19.3262 1.40918 38.6582 2.68848 58.001 3.62402c20.5273 2.2666 40.4512 5.13574 60.2451 9.19531c63.3682 13.001 130.536 36.7637 171.917 89.3125c43.3936 55.1025 54.2295 146.377 11.9863 205.15
c-40.0557 55.7285 -114.902 72.4219 -178.474 78.3135c-18.001 1.66309 -26.4629 2.05762 -45.3828 2.24902c-8.18555 0.0849609 -16.377 0.0341797 -24.5625 -0.146484c-2.54297 -0.0507812 -16.1074 -0.620117 -16.9189 -0.591797
c-11.292 -0.670898 -22.5732 -1.65723 -33.8145 -2.94238zM421.139 114.533c16.4961 46.9561 -8.75684 93.1699 -51.9131 113.037c-47.9258 22.0664 -102.324 21.7793 -152.657 21.0518c-4.81445 -0.0673828 -9.57812 -0.203125 -14.3252 -0.355469
c-12.8594 -1.39258 -25.7363 -2.63281 -38.6406 -3.56348c-13.5361 -0.975586 -27.0889 -1.69727 -40.6416 -2.37402c0.935547 -73.8486 2.59277 -147.691 4.9834 -221.528c53.417 -4.54395 109.186 -1.75879 162.924 9.82129
c48.9805 10.5537 111.869 31.5371 130.271 83.9111z" />
    <glyph glyph-name="agrave" unicode="&#xe0;" horiz-adv-x="595" 
d="M176.938 794.423c-9.15039 2.28906 -34.9707 13.583 -16.6816 24.1816c58.9307 34.1533 117.326 69.209 175.186 105.155c17.3418 10.7793 44.5381 11.123 63.6387 6.3418c9.64062 -2.41309 34.4521 -13.1416 16.6875 -24.1807
c-57.8594 -35.9521 -116.255 -71.002 -175.191 -105.155c-17.917 -10.3848 -44.0137 -11.2529 -63.6387 -6.34277zM603.798 14.5771c10.6777 -25.5166 -80.2568 -31.9668 -89.7002 -9.39941c-20.9502 50.0801 -41.043 100.521 -61.0684 150.973
c-11.1172 28.0137 -22.1445 56.0615 -33.1836 84.1035c-83.3193 0.0957031 -166.645 0.0283203 -249.964 0.00585938c-30.7256 -76.8311 -60.0195 -154.163 -86.5957 -232.296c-9.64062 -28.335 -98.7334 -16.7949 -93.0225 0
c18.3447 53.9248 38.7021 107.162 59.4375 160.213c65.8486 168.455 135.751 335.41 207.119 501.593c8.07324 18.79 82.1582 19.6699 89.7012 0c8.16309 -21.2656 16.3438 -42.5254 24.5352 -63.7852c76.1377 -197.613 151.012 -396.016 232.741 -591.407zM184.135 275.613
c73.9277 0.0283203 147.849 0.0625 221.771 -0.00488281c-35.8164 91.252 -71.2715 182.645 -106.524 274.122c-38.8154 -91.0264 -77.9297 -182.239 -115.246 -274.117z" />
    <glyph glyph-name="ae" unicode="&#xe6;" horiz-adv-x="931" 
d="M888.068 22.9072c8.98047 0.163086 46.5137 -1.62109 46.5078 -17.6826c0 -16.502 -36.1152 -17.4834 -46.5107 -17.6748c-103.531 -1.88867 -207.136 -0.118164 -310.678 -0.0107422c-21.1133 -2.23828 -46.0938 1.03711 -55.6104 10.1699
c-3.7041 1.99609 -6.42676 4.46582 -7.67871 7.46484c-20.9502 50.0801 -41.043 100.521 -61.0684 150.973c-11.1172 28.0137 -22.1445 56.0615 -33.1836 84.1035c-83.3193 0.0957031 -166.645 0.0283203 -249.964 0.00585938
c-30.7256 -76.8311 -60.0195 -154.163 -86.5957 -232.296c-9.64062 -28.335 -98.7334 -16.7949 -93.0225 0c18.3447 53.9248 38.7021 107.162 59.4375 160.213c65.8486 168.455 135.751 335.41 207.119 501.593c8.07324 18.79 82.1582 19.6699 89.7012 0
c8.16309 -21.2656 16.3438 -42.5254 24.5352 -63.7852c46.6689 -121.132 92.876 -242.546 140.464 -363.391c-2.09766 144.061 -1.02637 288.138 3.35938 432.209c0.0117188 0.37207 0.107422 0.71582 0.158203 1.07617
c-0.168945 0.709961 -0.327148 1.41992 -0.327148 2.19824c0 16.3721 36.126 17.6748 46.5107 17.6748c109.665 0.0449219 219.353 1.55566 329.006 0c9.00391 -0.129883 46.5117 -1.42676 46.5117 -17.6748c0 -16.2646 -36.1377 -17.8203 -46.5107 -17.6738
c-94.2178 1.33594 -188.463 0.451172 -282.691 0.135742c-2.81348 -97.2734 -4.11621 -194.547 -3.96973 -291.82c76.3457 -0.355469 152.714 -1.24609 229.049 0.163086c8.98047 0.168945 46.5107 -1.62402 46.5107 -17.6748
c0 -16.502 -36.1152 -17.4834 -46.5107 -17.6748c-76.3125 -1.40918 -152.658 -0.518555 -228.987 -0.163086c0.535156 -103.525 2.76758 -207.045 6.61816 -310.548c92.5996 -0.355469 185.238 -1.60156 277.82 0.0898438zM184.136 275.615
c73.9277 0.0283203 147.849 0.0625 221.771 -0.00488281c-35.8164 91.252 -71.2715 182.645 -106.524 274.122c-38.8154 -91.0264 -77.9297 -182.239 -115.246 -274.117z" />
    <glyph glyph-name="ccedilla" unicode="&#xe7;" horiz-adv-x="532" 
d="M441.08 136.242c6.92285 28.1777 97.7715 19.3281 93.0244 -0.00390625c-24.6709 -100.453 -119.367 -141.873 -214.645 -146.181c-0.738281 -39.6553 -1.99023 -79.3057 -3.85059 -118.944c-1.22949 -26.1592 -94.1562 -24.1074 -93.0234 -0.000976562
c1.97363 42.0908 3.29297 84.1992 4.00293 126.308c-220.451 47.7236 -260.248 338.635 -178.073 517.351c37.293 81.0986 104.066 150.375 193.57 169.74c106.282 22.9902 228.26 -13.4014 260.941 -125.846c5.36133 -18.4414 -84.876 -28.0371 -93.0225 -0.000976562
c-11.9238 41.0312 -41.6738 80.5742 -84.1318 93.1299c-35.5176 10.5029 -69.7441 -6.62402 -97.7129 -27.7881c-128.444 -97.1943 -155.24 -305.97 -101.006 -447.859c19.3652 -50.666 52.2441 -103.046 99.9844 -130.856
c0.333008 59.7256 -0.591797 119.457 -2.80176 179.172c-0.913086 24.6367 92.0752 25.6738 93.0225 0c2.44727 -66.0459 3.27637 -132.114 2.61133 -198.166c57.9219 7.62207 106.451 50.2715 121.109 109.946z" />
    <glyph glyph-name="egrave" unicode="&#xe8;" horiz-adv-x="450" 
d="M121.42 794.423c-9.14453 2.28906 -34.9707 13.583 -16.6875 24.1816c58.9365 34.1533 117.332 69.209 175.191 105.155c17.3418 10.7793 44.5381 11.123 63.6387 6.3418c9.64062 -2.41309 34.4521 -13.1416 16.6875 -24.1807
c-57.8594 -35.9521 -116.255 -71.002 -175.191 -105.155c-17.917 -10.3848 -44.0137 -11.2529 -63.6387 -6.34277zM406.62 22.9102c8.98633 0.163086 46.5117 -1.62207 46.5117 -17.6836c0 -16.502 -36.1152 -17.4834 -46.5107 -17.6748
c-103.531 -1.88867 -207.136 -0.118164 -310.678 -0.0107422c-26.4297 -2.80176 -58.9814 3.02734 -59.5732 18.1816c-8.69336 222.972 -9.72461 446.039 -2.93652 669.078c0.0117188 0.37207 0.107422 0.71582 0.158203 1.07617
c-0.168945 0.709961 -0.327148 1.41992 -0.327148 2.19824c0 16.3721 36.126 17.6748 46.5107 17.6748c109.665 0.0449219 219.353 1.55566 329.006 0c9.00293 -0.129883 46.5107 -1.42676 46.5107 -17.6748c0 -16.2646 -36.1377 -17.8203 -46.5107 -17.6738
c-94.2178 1.33594 -188.463 0.451172 -282.691 0.135742c-2.81348 -97.2734 -4.11621 -194.547 -3.96973 -291.82c76.3457 -0.355469 152.714 -1.24609 229.049 0.163086c8.98047 0.168945 46.5107 -1.62402 46.5107 -17.6748
c0 -16.502 -36.1152 -17.4824 -46.5107 -17.6738c-76.3125 -1.40918 -152.658 -0.518555 -228.987 -0.163086c0.535156 -103.525 2.76758 -207.045 6.61816 -310.548c92.5996 -0.355469 185.238 -1.60156 277.82 0.0898438z" />
    <glyph glyph-name="igrave" unicode="&#xec;" horiz-adv-x="156" 
d="M165.223 930.1c9.64062 -2.41309 34.4521 -13.1396 16.6875 -24.1787c-57.8594 -35.9521 -116.255 -71.002 -175.191 -105.155c-17.917 -10.3848 -44.0137 -11.2529 -63.6387 -6.34277c-9.15039 2.28906 -34.9707 13.5811 -16.6875 24.1797
c58.9365 34.1533 117.332 69.209 175.191 105.155c17.3418 10.7793 44.5381 11.123 63.6387 6.3418zM125.787 674.753c-5.8291 -226.016 -4.94336 -452.054 2.52051 -678.024c0.817383 -24.71 -92.1768 -25.6064 -93.0225 0
c-7.46387 225.971 -8.34863 452.009 -2.51953 678.024c0.665039 25.8096 93.6533 24.541 93.0215 0z" />
    <glyph glyph-name="ntilde" unicode="&#xf1;" horiz-adv-x="599" 
d="M131.108 831.84c-5.37305 -27.8672 -97.0146 -20.6963 -93.0176 0c15.0303 77.9248 113.662 87.0576 177.024 72.4502c40.3604 -9.30176 74.7051 -31.8975 112.945 -46.5615c31.5713 -12.1045 55.9209 5.12402 77.4961 31.875
c11.749 14.5674 40.8906 14.2236 57.2119 12.3408c6.65234 -0.766602 43.9736 -7.49805 32.4844 -21.7393c-45.3838 -56.2588 -122.113 -73.7812 -191.203 -59.8105c-39.041 7.89258 -72.3877 27.5908 -108.469 43.2471c-14.1279 6.12793 -26.4238 13.209 -37.4512 7.79688
c-14.9629 -7.33984 -24.0225 -24.0439 -27.0215 -39.5986zM568.988 674.751c-4.87695 -226.016 -4.1377 -452.039 2.10352 -678.016c0.585938 -21.1016 -66.5254 -24.7549 -87.0859 -9.69629c-5.77344 1.9502 -10.3115 4.70703 -12.7305 8.43359
c-115.071 177.351 -235.882 350.767 -348.433 529.634c-1.87207 -176.139 -0.394531 -352.272 4.4707 -528.378c0.6875 -24.8174 -92.3174 -25.5166 -93.0225 0c-6.24121 225.981 -6.98535 452.014 -2.1084 678.023c0.541016 25.0479 88.6191 24.6533 92.8359 1.91602
c1.08203 -0.998047 2.02344 -2.06348 2.7168 -3.23633c108.441 -184.116 229.021 -360.193 347.255 -537.928c-3.16797 179.735 -2.90332 359.494 0.975586 539.247c0.552734 25.7363 93.5527 24.6201 93.0225 0z" />
    <glyph glyph-name="ograve" unicode="&#xf2;" horiz-adv-x="587" 
d="M183.947 794.423c-9.15039 2.28906 -34.9707 13.583 -16.6875 24.1816c58.9365 34.1533 117.332 69.209 175.191 105.155c17.3418 10.7793 44.5381 11.123 63.6387 6.3418c9.64062 -2.41309 34.4521 -13.1416 16.6875 -24.1807
c-57.8594 -35.9521 -116.255 -71.002 -175.191 -105.155c-17.917 -10.3848 -44.0137 -11.2529 -63.6387 -6.34277zM336.938 689.078c267.988 -38.0322 296.565 -424.829 162.991 -603.021c-121.425 -151.609 -364.743 -109.946 -450.673 57.3926
c-63.3623 123.387 -48.749 297.817 21.5928 415.77c57.5381 96.4834 154.017 145.763 266.089 129.858zM410.228 95.4561c77.4395 103.306 93.5156 248.376 58.3818 370.974c-21.6035 75.3594 -71.0352 169.008 -154.586 187.877
c-15.9941 3.61328 -31.6328 3.06055 -40.2363 -0.0966797c-8.58594 -3.15137 -24.2246 -10.8467 -34.4912 -17.6738c-35.5625 -23.6445 -62.9727 -58.2314 -83.6748 -95.2148c-56.1514 -100.312 -70.127 -242.128 -32.7432 -351.082
c20.8203 -60.6846 63.2949 -118.279 121.51 -147.376c25.415 -12.7021 53.6992 -20.4092 81.623 -12.1504c34.9033 10.3174 62.1055 37.1357 84.2168 64.7432z" />
    <glyph glyph-name="divide" unicode="&#xf7;" horiz-adv-x="608" 
d="M511.403 353.331c9.00879 -0.321289 46.5098 -1.29492 46.5039 -17.667c0 -16.124 -36.1602 -18.041 -46.5107 -17.6748c-134.392 4.75293 -268.828 3.48438 -403.102 -4.01367c-12.0195 -0.676758 -50.3389 -3.12402 -57.2109 12.3398
c-7.04199 15.8418 22.1279 21.1582 32.4844 21.7393c142.572 7.96582 285.11 10.3281 427.835 5.27637zM282.636 408.689c-9.94531 0.890625 -40.0371 5.80859 -32.4883 21.7461c5.77344 12.1826 10.3008 24.5518 13.7061 37.5918
c4.39746 16.8564 32.8906 17.4424 46.5117 17.6738c10.4414 0.180664 23.0645 -1.25684 32.8906 -5.1748c2.93164 -1.17285 15.1484 -6.63574 13.6211 -12.499c-4.2168 -16.1465 -9.88281 -31.9092 -17.0312 -46.9902
c-3.13477 -6.62402 -14.9453 -8.94141 -21.3721 -10.5654c-11.5625 -2.91504 -24.0215 -2.8418 -35.8379 -1.78223zM343.255 272.062c2.9375 -1.17285 15.1514 -6.64062 13.6182 -12.498c-4.2168 -16.1465 -9.88281 -31.9092 -17.0312 -46.9902
c-3.13477 -6.62402 -14.9453 -8.94141 -21.3721 -10.5654c-11.5625 -2.91504 -24.0215 -2.8418 -35.8379 -1.78223c-9.94531 0.890625 -40.0342 5.80664 -32.4854 21.7393c5.77344 12.1885 10.3008 24.5518 13.7061 37.5977
c4.39746 16.8564 32.8906 17.4424 46.5117 17.6738c10.4414 0.180664 23.0645 -1.25684 32.8906 -5.1748z" />
    <glyph glyph-name="oslash" unicode="&#xf8;" horiz-adv-x="588" 
d="M466.178 631.797c143.717 -122.71 141.495 -402.037 33.7695 -545.736c-79.9883 -99.8779 -212.869 -115.844 -318.812 -67.292c-31.0527 -63.2041 -62.9795 -126.003 -96.3213 -188.164c-12.3125 -22.957 -101.749 -13.0625 -89.7012 9.39844
c39.8984 74.3955 77.7891 149.704 114.541 225.537c-24.1465 21.626 -44.8594 47.6836 -60.3799 77.9131c-63.3623 123.387 -48.749 297.817 21.5928 415.77c57.5381 96.4834 154.017 145.763 266.089 129.858c19.7939 -2.80762 38.252 -7.56543 55.4639 -13.959
c20.6963 43.8447 41.6689 87.5654 63.1152 131.077c11.3428 23.0127 101.27 14.0713 89.7012 -9.39844c-26.9707 -54.7305 -53.2031 -109.788 -79.0576 -165.004zM145.533 140.352c76.5547 161.673 148.936 325.26 224.633 487.4
c-16.665 12.5215 -35.3369 21.8467 -56.123 26.543c-15.9941 3.61426 -31.6328 3.06152 -40.2363 -0.0957031c-8.58594 -3.15137 -24.2246 -10.8467 -34.4912 -17.6738c-35.5625 -23.6445 -62.9727 -58.2314 -83.6748 -95.2148
c-56.1514 -100.312 -70.127 -242.128 -32.7432 -351.082c5.85742 -17.0654 13.4854 -33.8662 22.6357 -49.877zM410.244 95.4502c77.4453 103.306 93.5225 248.376 58.377 370.979c-8.30469 28.9727 -20.7412 60.6396 -37.6318 89.7305
c-75.0713 -162.693 -147.786 -326.401 -225.654 -487.753c12.0703 -9.91113 25.1045 -18.5703 39.0693 -25.5498c25.415 -12.7021 53.6992 -20.4092 81.623 -12.1504c34.9033 10.3174 62.1055 37.1357 84.2168 64.7432z" />
    <glyph glyph-name="ugrave" unicode="&#xf9;" horiz-adv-x="609" 
d="M193.298 794.423c-9.15039 2.28906 -34.9707 13.583 -16.6875 24.1816c58.9365 34.1533 117.332 69.209 175.191 105.155c17.3418 10.7793 44.5381 11.123 63.6387 6.3418c9.64062 -2.41309 34.4521 -13.1416 16.6875 -24.1807
c-57.8594 -35.9521 -116.255 -71.002 -175.191 -105.155c-17.917 -10.3848 -44.0195 -11.2529 -63.6387 -6.34277zM590.43 695.59c4.76953 -144.658 6.22461 -292.862 -24.2695 -435.085c-23.3906 -109.123 -71.0234 -228.643 -190.909 -256.933
c-113.329 -26.7393 -235.244 15.6279 -293.154 118.426c-53.4961 94.9561 -64.2637 211.854 -65.9326 318.762c-1.29688 83.168 5.11914 166.02 14.6016 248.572c3.1123 27.1064 95.6211 22.6074 93.0225 0c-9.97852 -86.9277 -16.5518 -174.222 -14.3252 -261.786
c2.54297 -100.03 12.7812 -209.695 63.5098 -298.19c21.0342 -36.6904 50.3789 -70.3701 90.0625 -87.1426c36.4531 -15.4082 61.3154 -16.3154 95.5986 5.18164c91.6914 57.4873 114.97 193.633 127.869 291.718c15.5264 118.048 14.8164 237.708 10.9043 356.478
c-0.811523 24.7158 92.1768 25.6123 93.0225 0z" />
    <glyph glyph-name="OE" unicode="&#x152;" horiz-adv-x="979" 
d="M937.074 22.9072c8.98047 0.163086 46.5088 -1.62109 46.5088 -17.6885c0 -16.502 -36.1152 -17.4834 -46.5107 -17.6748c-103.531 -1.88867 -207.136 -0.118164 -310.678 -0.0107422c-26.4297 -2.80176 -58.9814 3.02734 -59.5732 18.1816
c-2.7959 71.7119 -4.70703 143.43 -5.91309 215.158c-13.0342 -50.7061 -33.9102 -97.3809 -61.9805 -134.826c-121.425 -151.609 -364.743 -109.946 -450.673 57.3926c-63.3623 123.387 -48.749 297.817 21.5928 415.77c57.5381 96.4834 154.017 145.763 266.089 129.858
c121.465 -17.2344 193.74 -106.118 224.037 -214.751c0.631836 66.8291 1.87793 133.653 3.91309 200.482c0.0117188 0.37207 0.107422 0.71582 0.158203 1.07617c-0.168945 0.709961 -0.327148 1.41992 -0.327148 2.19824c0 16.3721 36.126 17.6748 46.5107 17.6748
c109.665 0.0449219 219.353 1.55566 329.006 0c9.00391 -0.129883 46.5117 -1.42676 46.5117 -17.6748c0 -16.2646 -36.1377 -17.8203 -46.5107 -17.6738c-94.2178 1.33594 -188.463 0.451172 -282.691 0.135742c-2.81934 -97.2734 -4.11621 -194.547 -3.96973 -291.82
c76.3457 -0.355469 152.714 -1.24609 229.049 0.163086c8.98047 0.168945 46.5107 -1.62402 46.5107 -17.6748c0 -16.502 -36.1152 -17.4834 -46.5107 -17.6748c-76.3125 -1.40918 -152.658 -0.518555 -228.987 -0.163086
c0.535156 -103.525 2.76758 -207.045 6.61816 -310.548c92.5996 -0.355469 185.238 -1.60156 277.82 0.0898438zM409.225 95.4561c77.4395 103.306 93.5156 248.376 58.3818 370.974c-21.6035 75.3594 -71.0352 169.008 -154.586 187.877
c-15.9941 3.61328 -31.6328 3.06055 -40.2363 -0.0966797c-8.58594 -3.15137 -24.2246 -10.8467 -34.4912 -17.6738c-35.5625 -23.6445 -62.9727 -58.2314 -83.6748 -95.2148c-56.1514 -100.312 -70.127 -242.128 -32.7432 -351.082
c20.8203 -60.6846 63.2949 -118.279 121.51 -147.376c25.415 -12.7021 53.6992 -20.4092 81.623 -12.1504c34.9033 10.3174 62.1055 37.1357 84.2168 64.7432z" />
    <glyph glyph-name="oe" unicode="&#x153;" horiz-adv-x="981" 
d="M938.074 22.9072c8.98047 0.163086 46.5088 -1.62109 46.5088 -17.6885c0 -16.502 -36.1152 -17.4834 -46.5107 -17.6748c-103.531 -1.88867 -207.136 -0.118164 -310.678 -0.0107422c-26.4297 -2.80176 -58.9814 3.02734 -59.5732 18.1816
c-2.7959 71.7119 -4.70703 143.43 -5.91309 215.158c-13.0342 -50.7061 -33.9102 -97.3809 -61.9805 -134.826c-121.425 -151.609 -364.743 -109.946 -450.673 57.3926c-63.3623 123.387 -48.749 297.817 21.5928 415.77c57.5381 96.4834 154.017 145.763 266.089 129.858
c121.465 -17.2344 193.74 -106.118 224.037 -214.751c0.631836 66.8291 1.87793 133.653 3.91309 200.482c0.0117188 0.37207 0.107422 0.71582 0.158203 1.07617c-0.168945 0.709961 -0.327148 1.41992 -0.327148 2.19824c0 16.3721 36.126 17.6748 46.5107 17.6748
c109.665 0.0449219 219.353 1.55566 329.006 0c9.00391 -0.129883 46.5117 -1.42676 46.5117 -17.6748c0 -16.2646 -36.1377 -17.8203 -46.5107 -17.6738c-94.2178 1.33594 -188.463 0.451172 -282.691 0.135742c-2.81934 -97.2734 -4.11621 -194.547 -3.96973 -291.82
c76.3457 -0.355469 152.714 -1.24609 229.049 0.163086c8.98047 0.168945 46.5107 -1.62402 46.5107 -17.6748c0 -16.502 -36.1152 -17.4834 -46.5107 -17.6748c-76.3125 -1.40918 -152.658 -0.518555 -228.987 -0.163086
c0.535156 -103.525 2.76758 -207.045 6.61816 -310.548c92.5996 -0.355469 185.238 -1.60156 277.82 0.0898438zM410.225 95.4561c77.4395 103.306 93.5156 248.376 58.3818 370.974c-21.6035 75.3594 -71.0352 169.008 -154.586 187.877
c-15.9941 3.61328 -31.6328 3.06055 -40.2363 -0.0966797c-8.58594 -3.15137 -24.2246 -10.8467 -34.4912 -17.6738c-35.5625 -23.6445 -62.9727 -58.2314 -83.6748 -95.2148c-56.1514 -100.312 -70.127 -242.128 -32.7432 -351.082
c20.8203 -60.6846 63.2949 -118.279 121.51 -147.376c25.415 -12.7021 53.6992 -20.4092 81.623 -12.1504c34.9033 10.3174 62.1055 37.1357 84.2168 64.7432z" />
    <glyph glyph-name="perthousand" unicode="&#x2030;" horiz-adv-x="1529" 
d="M637.219 701.161c11.3379 23.0186 101.264 14.0771 89.7012 -9.39844c-114.998 -233.503 -212.57 -474.734 -335.652 -704.369c-12.3066 -22.957 -101.743 -13.0742 -89.7012 9.39746c123.082 229.635 220.654 470.867 335.652 704.37zM353.709 358.118
c-69.3887 -81.1494 -215.399 -71.0234 -273.598 19.3262c-43.6025 67.6865 -37.1816 169.419 2.13574 237.838c33.668 58.5986 92.582 84.4814 158.933 79.2891c159.925 -12.5215 197.788 -221.331 114.282 -334.469
c-0.512695 -0.693359 -1.10449 -1.3584 -1.75293 -1.98438zM265.761 369.502c41.6572 56.4443 49.9277 135.345 29.0234 201.649c-8.25391 26.1816 -22.2188 53.7666 -42.9434 72.3428c-6.98535 6.26367 -21.0742 9.77051 -26.5029 15.9717
c-0.366211 0.135742 -0.744141 0.198242 -1.11621 0.283203c-1.12793 -0.670898 -2.48633 -1.55078 -3.08984 -1.97949c-51.2803 -36.2227 -74.1924 -92.6787 -76.6221 -154.913c-1.63477 -41.832 3.51855 -84.5381 27.7324 -119.796
c11.2246 -16.3496 29.9473 -37.5303 50.5244 -42.3164c13.8916 -3.22461 30.7373 13.8799 42.9941 28.7578zM835.756 388.429c159.931 -12.5156 197.789 -221.33 114.283 -334.468c-0.512695 -0.693359 -1.10449 -1.3584 -1.75293 -1.98438
c-69.3887 -81.1553 -215.395 -71.0244 -273.599 19.3252c-43.6025 67.6865 -37.1816 169.419 2.13574 237.838c33.668 58.5986 92.582 84.4814 158.933 79.2891zM860.343 63.3594c41.6572 56.4395 49.9277 135.343 29.0234 201.653
c-8.25391 26.1816 -22.2188 53.7666 -42.9434 72.3428c-6.98535 6.26367 -21.0742 9.77051 -26.5029 15.9717c-0.366211 0.135742 -0.744141 0.198242 -1.11621 0.283203c-1.12793 -0.676758 -2.48633 -1.55664 -3.08984 -1.97949
c-51.2803 -36.2275 -74.1924 -92.6836 -76.6221 -154.918c-1.63477 -41.8262 3.51855 -84.5371 27.7324 -119.795c11.2246 -16.3496 29.9473 -37.5303 50.5244 -42.3164c13.8916 -3.23047 30.7373 13.8799 42.9941 28.7578zM1321.85 388.428
c159.925 -12.5156 197.783 -221.33 114.283 -334.468c-0.512695 -0.693359 -1.10449 -1.3584 -1.75293 -1.98438c-69.3887 -81.1553 -215.395 -71.0244 -273.599 19.3252c-43.6025 67.6865 -37.1816 169.419 2.13574 237.838c33.668 58.5986 92.582 84.4814 158.933 79.2891
zM1346.43 63.3584c41.6572 56.4395 49.9277 135.344 29.0234 201.654c-8.25391 26.1816 -22.2188 53.7666 -42.9434 72.3428c-6.98535 6.26367 -21.0742 9.77051 -26.5029 15.9717c-0.366211 0.135742 -0.744141 0.197266 -1.11621 0.282227
c-1.12793 -0.676758 -2.48633 -1.55664 -3.08984 -1.97949c-51.2803 -36.2275 -74.1924 -92.6836 -76.6221 -154.918c-1.63477 -41.8262 3.51855 -84.5371 27.7324 -119.795c11.2246 -16.3496 29.9473 -37.5303 50.5244 -42.3164
c13.8916 -3.23047 30.7373 13.8799 42.9941 28.7578z" />
    <glyph glyph-name="Euro" unicode="&#x20ac;" horiz-adv-x="826" 
d="M685.215 133.793c14.2129 22.6406 102.493 10.9883 89.7012 -9.375c-64.3994 -102.601 -189.179 -146.846 -306.133 -124.019c-96.3818 18.8135 -176.815 89.2676 -214.673 179.031c-18.7451 44.4424 -28.0361 91.6582 -29.2373 139.207
c-38.8662 -0.845703 -77.7266 -2.2832 -116.57 -4.49902c-12.0137 -0.6875 -50.3447 -3.11133 -57.2119 12.3418c-7.04688 15.8535 22.1279 21.1533 32.4844 21.7393c47.3008 2.7002 94.5898 4.57715 141.879 5.58105c0.851562 14.9736 2.47559 29.9248 4.83789 44.7744
c-40.6758 -0.817383 -81.3408 -2.31152 -121.988 -4.62891c-12.0137 -0.6875 -50.3447 -3.11133 -57.2119 12.3418c-7.04688 15.8535 22.1279 21.1533 32.4844 21.7393c51.2412 2.91992 102.471 4.8252 153.7 5.75586c6.69238 28.0029 15.9492 55.4131 27.4785 81.6904
c45.2256 103.074 132.3 179.759 247.979 185.909c56.3203 2.99316 116.655 -9.33691 159.964 -47.4531c39.7402 -34.9766 56.5918 -86.3477 64.8906 -137.16c3.55176 -21.7559 -88.5576 -27.3203 -93.0225 0c-7.89844 48.3604 -24.3096 100.385 -65.8936 130.395
c-37.9141 27.3545 -75.6475 20.7021 -113.905 -2.84082c-72.2246 -44.4365 -115.049 -129.938 -134.42 -210.017c43.7764 -0.304688 87.5586 -1.35352 131.369 -3.29883c9.01465 -0.40625 46.5107 -1.23535 46.5107 -17.6748
c0 -16.0566 -36.1719 -18.1367 -46.5117 -17.6748c-46.1387 2.04688 -92.2949 3.22559 -138.451 3.53613c-2.38477 -14.7148 -4.03125 -29.6211 -4.95605 -44.5947c47.7852 -0.174805 95.582 -1.28027 143.406 -3.40527
c9.01465 -0.400391 46.5107 -1.23438 46.5107 -17.6738c0 -16.0566 -36.1719 -18.1367 -46.5117 -17.6748c-48.0391 2.13086 -96.1006 3.30371 -144.156 3.5459c1.06543 -51.8613 11.8164 -103.396 35.0439 -149.562c31.2275 -62.0654 88.2812 -124.267 159.316 -138.13
c70.3584 -13.7334 138.907 47.3008 173.297 102.094z" />
    </font>
</defs>
</svg>
