<?xml version="1.0" standalone="no"?>
<!DOCTYPE svg PUBLIC "-//W3C//DTD SVG 1.1//EN" "http://www.w3.org/Graphics/SVG/1.1/DTD/svg11.dtd" >
<svg xmlns="http://www.w3.org/2000/svg" xmlns:xlink="http://www.w3.org/1999/xlink" version="1.1">
<metadata>
Created by FontForge 20170812 at Fri Jul  8 14:53:30 2022
 By www-data
</metadata>
<defs>
<font id="CommingRegular" horiz-adv-x="0" >
  <font-face 
    font-family="Comming"
    font-weight="400"
    font-stretch="normal"
    units-per-em="1000"
    panose-1="0 0 0 0 0 0 0 0 0 0"
    ascent="800"
    descent="-200"
    x-height="424.053"
    cap-height="803.072"
    bbox="-306.594 -496.594 1422.31 1199"
    underline-thickness="50"
    underline-position="-100"
    unicode-range="U+000A-20AC"
  />
<missing-glyph horiz-adv-x="527" 
d="M50 700h427v-700h-427v700zM78 680l185 -309l186 309h-371zM251 350l-180 300v-601zM264 329l-185 -308h370zM276 350l181 -303v605z" />
    <glyph glyph-name=".notdef" horiz-adv-x="527" 
d="M50 700h427v-700h-427v700zM78 680l185 -309l186 309h-371zM251 350l-180 300v-601zM264 329l-185 -308h370zM276 350l181 -303v605z" />
    <glyph glyph-name=".null" 
 />
    <glyph glyph-name=".null" 
 />
    <glyph glyph-name="LF" unicode="&#xa;" 
 />
    <glyph glyph-name="controlCR" unicode="&#xd;" 
 />
    <glyph glyph-name="space" unicode=" " horiz-adv-x="361" 
 />
    <glyph glyph-name="exclam" unicode="!" horiz-adv-x="229" 
d="M175.232 68.9541c1.46484 -59.9482 -123.599 -98.8818 -124.575 -33.2041c-1.5166 100.682 -0.208984 201.241 1.84863 301.906c2.03418 99.9385 0.790039 204.178 25.002 301.402c3.60352 14.4658 39.8398 34.2256 46.8311 12.6465
c29.3379 -90.5693 31.4883 -190.234 37.2363 -284.977c6.02051 -99.2295 11.2334 -198.383 13.6572 -297.774zM178.393 -97.8779c3.41699 -20.3008 -21.1387 -36.377 -37.1035 -41.1484c-8.51367 -2.54004 -20.207 -2.55762 -28.4131 1.30762
c-6.38672 3.01074 -14.2207 10.8047 -13.8027 18.6973c0.645508 12.1934 0.889648 24.2988 3.71973 36.2129c3.91699 16.4766 10.0371 27.3623 25.2344 36.3301c16.3252 9.62988 34.5859 0.929688 41.1826 -15.0928c4.87012 -11.8213 7.07324 -23.7822 9.18262 -36.3066z
" />
    <glyph glyph-name="quotedbl" unicode="&#x22;" horiz-adv-x="289" 
d="M120.64 662.394c7.78223 -0.958984 15.0977 -8.66504 12.4131 -16.8887c-1.59277 -4.87598 0.708984 -16.6504 0.545898 -21.5146c-0.395508 -11.9141 -2.14453 -23.7871 -2.62109 -35.7246c-1.03418 -25.8799 -1.21973 -51.9043 -0.103516 -77.7842
c1.65039 -38.2646 -78.0859 -63.8301 -79.9229 -21.3057c-2.03418 47.1152 -7.58398 182.755 69.6885 173.218zM236.808 640.314c-5.74805 -42.3848 1.19141 -83.7646 2.27832 -126.208c0.755859 -29.3838 -59.5059 -51.1719 -63.0215 -16.7959
c-4.81836 47.0869 6.61328 94.2666 15.4062 140.261c4.0332 21.0967 49.0508 30.1338 45.3369 2.74316z" />
    <glyph glyph-name="quotedbl" unicode="&#x201d;" horiz-adv-x="289" 
d="M120.64 662.394c7.78223 -0.958984 15.0977 -8.66504 12.4131 -16.8887c-1.59277 -4.87598 0.708984 -16.6504 0.545898 -21.5146c-0.395508 -11.9141 -2.14453 -23.7871 -2.62109 -35.7246c-1.03418 -25.8799 -1.21973 -51.9043 -0.103516 -77.7842
c1.65039 -38.2646 -78.0859 -63.8301 -79.9229 -21.3057c-2.03418 47.1152 -7.58398 182.755 69.6885 173.218zM236.808 640.314c-5.74805 -42.3848 1.19141 -83.7646 2.27832 -126.208c0.755859 -29.3838 -59.5059 -51.1719 -63.0215 -16.7959
c-4.81836 47.0869 6.61328 94.2666 15.4062 140.261c4.0332 21.0967 49.0508 30.1338 45.3369 2.74316z" />
    <glyph glyph-name="quotedbl" unicode="&#x201c;" horiz-adv-x="289" 
d="M120.64 662.394c7.78223 -0.958984 15.0977 -8.66504 12.4131 -16.8887c-1.59277 -4.87598 0.708984 -16.6504 0.545898 -21.5146c-0.395508 -11.9141 -2.14453 -23.7871 -2.62109 -35.7246c-1.03418 -25.8799 -1.21973 -51.9043 -0.103516 -77.7842
c1.65039 -38.2646 -78.0859 -63.8301 -79.9229 -21.3057c-2.03418 47.1152 -7.58398 182.755 69.6885 173.218zM236.808 640.314c-5.74805 -42.3848 1.19141 -83.7646 2.27832 -126.208c0.755859 -29.3838 -59.5059 -51.1719 -63.0215 -16.7959
c-4.81836 47.0869 6.61328 94.2666 15.4062 140.261c4.0332 21.0967 49.0508 30.1338 45.3369 2.74316z" />
    <glyph glyph-name="numbersign" unicode="#" horiz-adv-x="728" 
d="M661.456 360.226c14.8203 -2.11523 20.1768 -15.9121 13.9121 -28.5059c-7.24121 -14.582 -24.9961 -20.6084 -40.165 -19.5918c-26.6123 1.77832 -53.0146 5.43359 -79.4756 8.76367c-6.22461 -22.125 -12.2344 -44.3027 -18.0107 -66.5381
c28.541 -1.2207 57.0762 -2.74902 85.6055 -4.66699c13.0469 -0.87793 16.5742 -14.1689 11.8086 -24.2178c-5.89355 -12.4199 -21.4111 -17.5166 -34.1094 -16.6328c-24.5723 1.71484 -49.1621 3.11523 -73.7568 4.26562
c-16.168 -65.5273 -30.7383 -131.479 -44.9307 -197.441c-8.2002 -38.1074 -16.8945 -76.29 -26.4609 -114.072c-8.35742 -33.0107 -16.5225 -72.333 -40.124 -97.9512c-7.91602 -8.58398 -27.3906 -17.0166 -37.5498 -6.54395
c-22.8457 23.5488 -19.3467 68.415 -18.6436 99.1123c0.860352 37.4043 3.96387 75.4072 8.45605 112.538c8.46191 69.9443 21.1777 139.08 36.3057 207.839c-30.5293 0.307617 -61.0645 0.179688 -91.5938 -0.314453c-15.9707 -62.168 -30.209 -124.726 -45.7324 -186.998
c-16.1504 -64.7949 -29.1104 -131.449 -51.5781 -194.384c-7.02637 -19.6846 -24.0547 -33.1328 -44.7266 -36.3408c-15.1396 -2.34766 -39.4961 2.49316 -39.8975 22.4277c-1.34863 67.0674 11.3965 135.32 21.9385 201.388c10.1475 63.6211 23.875 126.87 37.457 189.846
c-41.0479 -2.05176 -82.0723 -4.74219 -123.033 -8.10156c-31.5342 -2.5918 -14.1807 34.6201 8.8623 37.0264c40.8975 4.26562 81.8291 7.61914 122.79 10.1875c5.18359 23.2471 10.5303 46.4824 16.0801 69.6943c-47.7021 -4.06836 -95.2764 -9.63574 -142.665 -16.6445
c-10.9258 -1.61523 -19.4404 6.56152 -17.9414 17.1621c1.7207 12.1465 16.4072 18.2607 26.8047 19.8652c47.5049 7.33984 95.2012 13.2275 143.037 17.6094c20.6143 82.8574 43.832 165.181 70.7637 245.836c10.7979 32.3418 42.4424 54.8857 76.5518 56.7393
c27.5303 1.49316 60.1631 -17.0635 51.2363 -49.0166c-22.9043 -81.9512 -46.4941 -163.629 -69.3223 -245.545c6.33496 0.208984 12.6641 0.470703 18.999 0.62207c23.2061 0.563477 46.3945 0.62207 69.5771 0.389648c28.2275 102.193 61.999 202.579 102.53 301.006
c11.5713 28.0996 50.9688 44.1221 79.1377 42.8262c23.6709 -1.08691 53.4854 -20.4629 43.3438 -48.6318c-35.3701 -98.2236 -68.8164 -197.371 -98.3398 -297.605c31.1797 -0.360352 62.54 -1.0752 92.8594 -5.39941zM413.707 257.376
c5.60254 23.8799 11.4414 47.6797 17.6191 71.3564c-26.5127 0.348633 -53.0312 0.267578 -79.5381 -0.319336c-3.06836 -0.0693359 -6.13086 -0.197266 -9.19336 -0.27832c-6.54395 -23.8047 -12.9717 -47.6504 -19.3125 -71.5254
c30.1338 0.673828 60.2793 0.935547 90.4248 0.766602z" />
    <glyph glyph-name="dollar" unicode="$" horiz-adv-x="587" 
d="M534.059 67.1641c10.2051 -49.1787 -4.15723 -103.359 -39.1611 -139.653c-49.957 -51.7822 -121.906 -69.9668 -192.158 -65.1836c1.69727 -38.834 4.32422 -77.6211 8.0957 -116.327c2.20801 -22.6309 -44.001 -38.5898 -47.9355 -12.7744
c-6.88672 45.1914 -10.6465 90.9121 -12.291 136.859c-12.8027 2.94629 -25.3447 6.60156 -37.4443 10.9258c-86.3965 30.8721 -181.743 104.523 -160.036 207.908c4.21973 20.0908 47.4004 28.9707 43.5586 2.63184c-9.88574 -67.7881 54.084 -110.301 107.802 -135.478
c14.4541 -6.77051 29.623 -12.7803 45.1982 -17.6797c0.598633 83.875 7.04395 168.069 14.4072 250.968c-49.5859 41.0947 -96.9453 84.1885 -129.409 141.585c-53.4385 94.4639 -23.7236 218.91 74.2041 270.192c33.3301 17.458 71.252 26.5361 108.859 27.46
c6.68359 40.4902 13.8555 80.8994 21.6377 121.221c3.75391 19.4805 45.8193 27.582 41.7744 2.52734c-6.82324 -42.2568 -13.582 -84.6826 -20.1143 -127.242c29.5352 -6.23047 54.6123 -19.8994 83.1191 -34.4229c33.1963 -16.9121 -24.1885 -69.0195 -47.4814 -35.6309
c-9.57812 13.7334 -25.1133 21.1377 -42.6006 23.9736c-12.1875 -81.835 -23.3115 -164.105 -32.2441 -246.591c43.4365 -45.4131 93.6904 -84.4736 136.639 -131.897c35.457 -39.1475 64.6895 -80.8984 75.5811 -133.372zM255.926 420.745
c8.02637 -15.0986 17.1631 -29.1055 27.002 -42.4258c7.6543 66.585 16.5283 133.019 26.7275 199.249c-20.167 -4.19629 -38.8867 -12.6172 -50.7891 -23.2236c-42.2109 -37.6133 -26.5771 -89.1572 -2.94043 -133.6zM365.07 -71.624
c43.4424 7.88086 78.1973 32.377 66.167 81.1084c-11.124 45.0176 -52.1895 82.5322 -85.6299 112.044c-12.8027 11.3037 -25.9492 22.2588 -39.1768 33.127c-4.74805 -75.8838 -6.91016 -151.796 -5.64355 -227.563c21.4336 -2.64453 43.082 -2.56348 64.2832 1.28418z" />
    <glyph glyph-name="percent" unicode="%" horiz-adv-x="724" 
d="M639.213 564.932c-44.0645 -58.2041 -92.3262 -113.147 -136.682 -171.212c-42.4541 -55.5713 -83.0254 -112.544 -122.545 -170.236c-82.7822 -120.843 -156.562 -247.753 -231.969 -373.257c-21.3174 -35.4805 -102.71 -42.6055 -80.7246 13.3262
c53.7354 136.691 126.213 263.852 205.386 387.315c79.626 124.167 168.145 251.624 271.285 357.542c21.3174 21.8926 58.2158 38.6416 88.4307 24.4492c29.9365 -14.0586 23.3115 -46.1455 6.81836 -67.9277zM111.05 290.126
c-67.5322 24.7637 -67.7656 115.972 -53.6084 174.81c6.13672 25.5195 35.4629 44.7041 63.6904 50.3936c42.792 27.5537 106.727 44.5127 148.065 4.5625c40.5371 -39.1768 33.0518 -107.918 8.6543 -153.517c-30.6221 -57.2334 -101.786 -100.095 -166.802 -76.249z
M183.898 377.01c1.34863 -0.767578 1.86523 0.535156 0 0zM175.616 496.5c2.62109 -6.42773 3.49121 -14.4316 1.89844 -24.3057c-4.92285 -30.5518 -6.57324 -60.2725 3.17285 -89.9238c0.883789 -2.69629 1.83691 -4.12012 2.63281 -4.84082
c4.93457 3.76562 9.16016 7.7002 13.0195 13.2676c14.332 20.6895 23.0674 50.6025 17.6162 75.6455c-4.82324 22.166 -20.6836 31.1855 -38.3398 30.1572zM619.466 232.642c69.0137 -45.6914 64.9639 -136.175 29.8145 -202.498
c-36.4746 -68.8223 -143.05 -139.992 -210.135 -65.9277c-51.3584 56.6992 -55.6064 169.72 -2.66797 226.378c3.83008 4.09766 8.16016 7.73047 12.7979 10.8916c19.9922 61.0635 124.062 61.6973 170.19 31.1562zM546.135 31.0498
c2.29004 -1.91211 3.95215 -2.95898 3.94043 -1.95312c-0.0234375 2.68457 -1.71484 2.85938 -3.94043 1.95312zM556.491 48.6523c22.5205 31.6738 36.416 79.2422 10.0078 112.596c-12.6758 16.0117 -26.1533 21.835 -40.6191 22.916
c-1.13867 -40.0312 -17.4229 -73.5303 -4.625 -114.479c2.74316 -8.77539 6.66016 -18.5742 11.8965 -26.1992c-0.0927734 0.139648 5.53906 -5.71875 10.334 -10.1006c4.47461 4.97461 9.10059 9.77539 13.0059 15.2676z" />
    <glyph glyph-name="ampersand" unicode="&#x26;" horiz-adv-x="798" 
d="M731.194 320.77c22.5205 -11.251 20.1387 -36.5918 5.37109 -53.5391c-16.5576 -18.9697 -45.8076 -28.6982 -69.6768 -19.2598c-3.48145 1.37695 -9.25781 1.19727 -15.79 0.285156c16.6445 -99.8281 -25.043 -212.662 -88.6289 -287.936
c-62.6963 -74.2158 -156.852 -118.46 -254.041 -119.437c-91.9121 -0.923828 -210.529 29.4658 -247.526 124.749c-36.0791 92.9238 23.6592 191.461 87.7852 256.256c16.0986 16.2666 33.0518 31.0342 50.6035 44.7959
c-29.0703 -1.23242 -58.2568 2.11523 -82.4805 16.3428c-97.5264 57.292 26.583 192.774 75.5234 237.391c70.6816 64.4463 168.017 118.228 266.321 116.327c42.6348 -0.825195 87.9893 -15.1338 110.632 -54.0137c21.3467 -36.6602 9.7002 -84.5947 -20.1484 -112.828
c-16.3193 -15.4297 -56.4902 -9.1416 -35.0977 16.0234c24.7402 29.0996 -11.4785 63.8828 -37.1318 74.9307c-29.7041 12.7979 -61.8193 6.6084 -91.6504 -2.74805c-57.0127 -17.8887 -106.993 -54.6074 -146.71 -98.6191
c-19.9512 -22.1074 -41.1465 -47.877 -49.8877 -76.918c-9.04297 -30.0527 14.2217 -29.0703 38.0557 -27.5713c70.3564 4.43457 136.43 36.498 207.095 42.6758c20.3467 1.77832 43.501 -9.07227 45.9307 -31.1914c2.68457 -24.4561 -20.0156 -42.6875 -38.3398 -53.5439
c-77.5107 -45.9121 -162.623 -92.5566 -220.183 -163.518c-23.125 -28.5127 -46.3662 -68.1602 -41.252 -106.331c5.18359 -38.7354 36.6074 -69.5781 70.6055 -85.5898c71.1934 -33.5273 159.34 -28.4248 217.097 27.5996c66.1025 64.126 82.375 151.418 83.2988 239.157
c-24.4561 -6.48633 -48.8652 -12.9893 -73.4775 -18.6494c-4.49219 -5.77637 -11.6406 -10.4727 -19.585 -10.9258c-12.8262 -0.738281 -25.1299 -0.279297 -37.9043 0.882812c-22.666 2.06348 -9.125 26.8799 2.48633 33.3945
c48.9463 27.4541 101.315 47.8594 153.667 67.834c44.1113 16.8369 108.645 47.1562 155.039 23.9736z" />
    <glyph glyph-name="quotesingle" unicode="'" horiz-adv-x="180" 
d="M128.544 620.439c-2.24316 -35.1494 0.5 -69.8506 1.55176 -104.977c0.848633 -28.1289 -61.5283 -60.8896 -71.3271 -26.6875c-9.94336 34.7129 -10.5127 68.0137 -6.25293 103.785c3.52148 29.5703 10.4492 67.8574 44.75 74.9883
c34.0566 7.0791 32.8594 -22.3457 31.2783 -47.1094z" />
    <glyph glyph-name="quotesingle" unicode="&#x2019;" horiz-adv-x="180" 
d="M128.544 620.439c-2.24316 -35.1494 0.5 -69.8506 1.55176 -104.977c0.848633 -28.1289 -61.5283 -60.8896 -71.3271 -26.6875c-9.94336 34.7129 -10.5127 68.0137 -6.25293 103.785c3.52148 29.5703 10.4492 67.8574 44.75 74.9883
c34.0566 7.0791 32.8594 -22.3457 31.2783 -47.1094z" />
    <glyph glyph-name="quotesingle" unicode="&#x2018;" horiz-adv-x="180" 
d="M128.544 620.439c-2.24316 -35.1494 0.5 -69.8506 1.55176 -104.977c0.848633 -28.1289 -61.5283 -60.8896 -71.3271 -26.6875c-9.94336 34.7129 -10.5127 68.0137 -6.25293 103.785c3.52148 29.5703 10.4492 67.8574 44.75 74.9883
c34.0566 7.0791 32.8594 -22.3457 31.2783 -47.1094z" />
    <glyph glyph-name="parenleft" unicode="(" horiz-adv-x="528" 
d="M477.083 -144.062c6.56738 -23.1709 -14.6035 -45.7871 -34.166 -54.8594c-105.087 -48.7197 -222.791 -23.3105 -291.666 70.7051c-55.3154 75.5059 -81.0029 173.334 -93.835 264.84c-13.4541 95.957 -8.10742 194.129 12.0713 288.79
c19.6787 92.3193 53.8105 191.612 120.552 260.946c60.7031 63.0566 153.655 110.841 240.308 74.5645c24.4727 -10.2461 -5.75977 -36.9854 -20.5508 -37.6475c-94.8418 -4.24219 -155.289 -75.8428 -184.377 -160.38
c-31.4473 -91.3838 -45.7617 -187.817 -44.3906 -284.257c1.40625 -98.6826 20.248 -195.5 59.46 -286.238c31.7783 -73.5469 94.0098 -143.688 181.656 -114.932c20.0273 6.56738 48.5859 0.87793 54.9385 -21.5322z" />
    <glyph glyph-name="parenright" unicode=")" horiz-adv-x="533" 
d="M329.989 719.396c146.885 -141.782 170.043 -382.466 143.652 -573.706c-14.1455 -102.519 -41.0596 -212.36 -108.76 -293.48c-35.3936 -42.4141 -85.2344 -73.3096 -137.621 -89.8906c-44.5469 -14.0996 -106.349 -18.9814 -144.543 12.5068
c-37.6426 31.0342 26.5068 74.9824 54.6357 76.9521c44.0293 3.08594 72.3555 0.295898 102.891 29.54c27.4951 26.333 48.9521 69.6826 63.0225 108.145c35.376 96.6719 52.6602 201.207 51.957 303.999c-0.708984 103.733 -19.9746 206.729 -60.1279 302.552
c-31.9932 76.3486 -111.562 206.427 -209.111 129.05c-21.5146 -17.0693 -51.4971 4.02734 -26.5303 24.5488c78.1562 64.248 202.317 35.6367 270.535 -30.2158z" />
    <glyph glyph-name="asterisk" unicode="*" horiz-adv-x="431" 
d="M353.816 460.791c-28.5068 0.441406 -56.9775 -0.115234 -85.3965 -1.43457c28.1406 -31.1387 58.8613 -59.668 96.0156 -81.9443c25.002 -14.9883 -11.6641 -46.2441 -31.6445 -35.8184c-31.1045 16.2324 -57.6699 37.6719 -81.748 61.9121
c1.63281 -22.4736 3.42871 -44.9414 4.96875 -67.4326c3.08594 -44.9941 -91.0518 -70.8682 -90.7842 -24.2002c0.179688 32.0283 2.95801 63.9053 6.99121 95.6543c-22.4277 -25.8096 -44.3086 -51.8574 -66.2129 -76.9756
c-15.5459 -17.8242 -55.1299 -8.01953 -34.6377 15.8145c29.1514 33.9111 58.3027 69.3623 88.7383 103.797c-29.1689 -3.5918 -58.251 -7.96191 -87.2109 -13.291c-30.8311 -5.67188 -29.2383 29.5469 -2.93457 35.0908c35.9746 7.57812 72.1348 13.541 108.446 17.958
c-26.2627 34.3994 -52.084 69.1592 -81.416 99.665c-16.9414 17.6211 22.0264 43.1172 37.0898 28.0244c21.5264 -21.5674 41.1289 -44.8662 60.2666 -68.5195c0.523438 3.66113 1.08105 7.31055 1.56348 10.9775c2.90625 22.0029 1.68555 50.6318 15.3086 68.8691
c11.6875 15.6455 53.793 12.0479 38.834 -11.5938c-4.25391 -6.71875 -1.51074 -29.3965 -2.01074 -37.6377c-0.673828 -11.1816 -1.65039 -22.3691 -2.03418 -33.5625c-0.0927734 -2.63281 -0.0986328 -5.27148 -0.145508 -7.9043
c22.1191 19.9512 45.2842 38.4902 69.8906 54.8389c23.3926 15.54 55.6943 -7.0791 27.5596 -25.502c-31.1797 -20.417 -59.9707 -44.5186 -87.2393 -70.6074c35.5332 2.17969 71.1943 2.96387 106.96 2.32422c32.5742 -0.586914 15.6621 -38.8916 -9.21777 -38.502z" />
    <glyph glyph-name="plus" unicode="+" horiz-adv-x="338" 
d="M270.913 279.013c31.6504 1.93555 15.0869 -36.3447 -8.96777 -37.5244c-13.9541 -0.679688 -27.8906 -1.54004 -41.8213 -2.45801c-0.389648 -58.2217 -0.383789 -116.449 -0.62793 -174.671c-0.133789 -31.2031 -27.4775 -54.5781 -56.0186 -62.1162
c-21.5791 -5.69531 -64.7373 -0.87207 -63.7373 30.1973c2.10938 65.6719 5.78223 131.269 10.3672 196.813c-14.3262 -1.60449 -28.6465 -3.29004 -42.9492 -5.14941c-10.3389 -1.34863 -18.4287 6.06738 -16.9873 16.249c1.61523 11.4258 15.5283 17.4121 25.3789 18.8125
c12.3379 1.75488 24.6934 3.32422 37.0488 4.89355c2.8125 36.4043 6.97363 72.7627 11.3262 109.005c4.38184 36.4629 7.06152 76.4238 24.9844 109.092c9.47852 17.2783 46.2549 32.8594 58.2266 9.8623c15.5576 -29.8721 11.8438 -70.3564 12.3262 -103.245
c0.517578 -35.1787 1.40137 -70.4326 1.01172 -105.611c-0.0292969 -2.5918 -0.0351562 -5.18359 -0.0644531 -7.77539c16.8193 1.37695 33.6504 2.59766 50.5039 3.62598z" />
    <glyph glyph-name="comma" unicode="," horiz-adv-x="256" 
d="M111.882 85.8193c18.1611 45.3027 115.438 45.3955 90.5117 -14.9414c-14.7969 -35.8232 -29.9189 -71.6055 -48.0801 -105.883c-15.9648 -30.1338 -33.2783 -64.1152 -66.835 -77.1338c-15.9883 -6.20703 -43.71 2.40625 -36.2188 19.1436
c1.09863 25.9082 12.9375 53.6709 21.3936 77.2021c12.2979 34.2021 25.7109 67.8809 39.2285 101.612z" />
    <glyph glyph-name="hyphen" unicode="-" horiz-adv-x="356" 
d="M273.194 279.1c59.1689 -1.96973 28.4082 -70.1465 -16.7373 -69.9199c-64.1963 0.325195 -130.572 -6.81152 -194.321 0.65625c-21.6426 2.53418 -10.2051 26.8965 2.46484 33.1035c63.0977 30.8896 139.027 38.4736 208.594 36.1602z" />
    <glyph glyph-name="period" unicode="." horiz-adv-x="178" 
d="M128.344 -39.8467c3.97559 -42.7861 -84.2119 -62.2256 -78.0342 -12.8262c3.95801 31.6797 4.45801 70.4844 23.6016 97.0205c6.43945 8.93262 29.6865 17.5801 38.5029 6.71191c17.5801 -21.6777 13.4365 -64.0449 15.9297 -90.9062z" />
    <glyph glyph-name="slash" unicode="/" horiz-adv-x="641" 
d="M554.535 770.55c31.1279 -5.42188 45.4053 -34.7998 30.5508 -62.6494c-80.4863 -150.982 -165.732 -299.036 -240.616 -453.018c-37.6133 -77.3418 -72.5361 -155.875 -107.331 -234.514c-35.0332 -79.1729 -64.626 -161.845 -106.859 -237.577
c-15.6104 -27.9951 -86.5303 -45.4014 -79.835 3.7832c11.4141 83.834 44.3203 165.232 73.3965 244.19c29.7734 80.8584 63.4814 160.356 98.5898 239.035c70.3047 157.556 147.815 314.129 243.859 457.707c18.9521 28.3262 52.8115 49.2139 88.2451 43.042z" />
    <glyph glyph-name="zero" unicode="0" horiz-adv-x="564" 
d="M453.31 50.5195c-68.2471 -106.674 -248.132 -210.568 -350.819 -86.3145c-43.9834 53.2178 -52.5264 123.905 -52.4912 190.774c0.0410156 75.6162 11.3271 150.169 30.4941 223.158c1.56934 5.97461 4.06836 11.6064 7.27637 16.8428
c-3.45215 35.9922 7.81641 83.2178 14.6162 101.983c21.2881 58.7334 65.3701 103.164 124.83 122.697c54.3799 17.8652 115.27 11.083 163.582 -19.6963c56.873 -36.2305 86.7744 -97.3525 102.978 -160.985c31.4883 -123.661 30.2334 -277.95 -40.4658 -388.46z
M155.296 510.872c-11.1992 -21.1143 -16.5215 -45.8428 -18.1777 -69.5371c-0.0927734 -1.37695 -0.208984 -5.13086 -0.301758 -10.0068c6.8291 2.10352 13.7744 3.43457 20.5801 3.80664c30.1973 1.63867 56.96 -16.9414 51.4736 -49.2432
c-9.62988 -56.7051 -19.0332 -114.287 -20.1553 -171.893c-0.982422 -50.6201 -1.63867 -111.144 25.8154 -155.777c14.6689 -23.8516 36.1836 -39.7988 62.0518 -30.0645c10.333 3.89355 24.9434 14.8662 35.4453 26.1523c11.3789 12.2275 20.5146 25.083 28.4824 39.7695
c42.6699 78.627 43.9307 183.383 34.748 270.21c-7.89258 74.6279 -33.1855 189.096 -126.021 196.453c-38.9209 3.08594 -75.4355 -14.9707 -93.9404 -49.8701z" />
    <glyph glyph-name="one" unicode="1" horiz-adv-x="481" 
d="M392.774 285.342c-2.06934 -92.0986 -4.22461 -184.176 -6.21777 -276.269c-0.325195 -15.0469 -5.63672 -28.5127 -14.0518 -39.8857c11.6465 0.0751953 23.1074 -0.326172 34.1846 -1.37207c19.4229 -1.83105 28.1113 -20.1787 21.9854 -36.8877
c-7.31152 -19.9346 -29.3848 -31.5693 -49.5459 -33.5049c-30.6221 -2.94629 -61.709 -1.73145 -92.459 -4.31152c-30.2734 -2.5459 -59.6748 -9.375 -89.7617 -12.8096c-37.125 -4.23633 -30.5693 39.6768 -4.55566 50.8467c17.6562 7.58398 36.8291 14.25 56.752 19.8467
c-3.83594 5.2998 -6.42188 11.7217 -7.0498 19.5615c-6.00977 75.2031 4.05566 151.272 11.0938 226.099c6.73535 71.6123 13.3896 143.05 14.0811 215.017c0.354492 36.8809 0.255859 73.8203 -3.25977 110.579c-2.16211 22.5498 -5.93945 67.916 -39.252 52.9971
c-57.751 -25.8623 -95.1494 -95.5742 -126.504 -146.868c-12.2861 -20.0967 -61.4121 -20.126 -44.8311 7.4043c38.2236 63.458 80.1553 132.379 146.693 169.783c29 16.3018 63.1494 26.9834 95.9971 17.167c35.8584 -10.7227 54.3105 -40.293 65.5674 -73.9482
c28.251 -84.4619 33.1211 -175.025 31.1338 -263.444z" />
    <glyph glyph-name="two" unicode="2" horiz-adv-x="564" 
d="M266.556 66.6123c52.1777 76.8369 87.0137 163.054 110.423 252.642c13.0361 49.876 23.2646 102.67 18.7373 154.383c-3.51562 40.1992 -11.0938 92.1152 -51.7812 111.463c-47.3945 22.5381 -97.0791 -9.4668 -128.3 -44.0635
c-14.8086 -16.4121 -26.9727 -35.0557 -36.2129 -55.1348c-2.8125 -6.11426 -18.7539 -70.0254 -21.4502 -70.3223c27.5244 3.03906 17.4121 -31.4131 -2.88867 -35.1035c-61.0459 -11.1006 -37.1074 67.4561 -24.5195 99.3271
c19.1729 48.5449 53.2061 92.0166 96.7012 121.133c85.6006 57.2979 195.587 60.6279 250.845 -37.915c55.0137 -98.1016 34.9512 -227.441 2.66699 -329.698c-28.7734 -91.1338 -71.7568 -178.699 -132.286 -252.897c48.0283 -0.453125 95.6377 -4.53906 143.241 -14.5176
c53.7988 -11.2803 -1.50586 -78.4463 -44.1982 -62.458c-42.042 15.7441 -90.6104 28.2334 -139.527 32.1797c-37.5898 -37.2588 -80.9219 -67.9971 -131.571 -85.1533c-29.6982 -10.0547 -63.7197 -15.7207 -93.2783 -2.40625
c-21.5732 9.7168 -39.543 28.1631 -30.9707 53.124c6.56738 19.1143 25.8857 34.6143 46.5352 36.6777c3.90527 0.790039 7.93848 1.4873 11.9717 2.13867c3.99219 1.74316 13.7734 3.54492 15.8652 4.30078c6.93359 2.49316 13.7275 5.39355 20.6611 7.89258
c5.12598 1.84766 10.2871 3.56836 15.4648 5.21875c7.10156 4.50391 13.5059 9.62988 22.4502 16.8594c30.7266 24.8281 58.3613 58.3672 81.4219 92.3311z" />
    <glyph glyph-name="three" unicode="3" horiz-adv-x="545" 
d="M258.379 -67.5273c43.8896 -2.93457 82.7256 22.6289 95.3721 64.5605c15.6104 51.7246 7.77637 128.556 -29.4531 169.94c-19.4053 21.5791 -45.4297 35.1553 -72.8896 43.6865c-15.0752 4.68457 -50.4863 14.501 -59.7793 9.33398
c-24.5889 -12.7275 -62.627 -15.4414 -81.1543 8.64844c-17.5801 22.8691 -0.842773 57.5938 21.2881 71.4082c5.43359 3.39453 10.8848 6.39355 16.3477 9.17773c-0.0986328 0.208984 -0.203125 0.423828 -0.307617 0.632812
c45.5986 20.7363 85.5537 50.0859 119.523 86.9434c29.2852 31.7783 73.21 79.2598 63.5566 126.567c-11.002 53.8975 -81.1025 52.9268 -121.36 37.4326c-25.4033 -9.77539 -47.2842 -26.333 -67.416 -44.3145c-18.3994 -16.4414 -51.0088 -42.501 -45.0225 -69.7871
c4.09766 -18.6904 -38.1475 -36.2363 -44.3076 -16.5752c-10.4727 33.4229 10.7051 61.5107 29.5703 87.7852c23.3633 32.54 52.3525 59.2852 86.9092 79.6553c64.917 38.2705 159.241 53.5723 222.851 4.21387c69.8105 -54.165 35.1963 -149.396 -5.86328 -208.925
c-19.1846 -27.8203 -40.4727 -53.5254 -63.8184 -76.9697c39.4092 -11.8154 77.5977 -29.4014 107.383 -58.4189c71.5361 -69.7061 81.8516 -191.99 40.5068 -279.852c-41.1582 -87.4658 -142.613 -137.458 -236.949 -129.81
c-45.0234 3.64941 -90.4766 20.7529 -118.925 57.0996c-28.6289 36.5732 -38.0205 83.2998 -37.0498 128.893c0.953125 44.9014 95.1729 75.7207 95.0098 25.3213c-0.174805 -56.6406 18.8125 -122.156 85.9785 -126.648z" />
    <glyph glyph-name="four" unicode="4" horiz-adv-x="654" 
d="M408.996 475.78c-0.714844 -54.165 -8.8584 -108.918 -22.458 -161.322c-4.44043 -17.1328 -9.60742 -34.1729 -15.6338 -50.8643c5.99219 0.691406 11.9785 1.35352 17.9707 1.99316c20.7881 2.20801 41.6113 3.96289 62.4521 5.54395
c2.77246 103.896 8.71777 209.059 26.9727 310.805c5.33496 29.7207 39.5254 49.4805 66.5498 54.0713c20.3818 3.46387 61.4355 -3.85352 59.3604 -33.377c-8.06641 -114.787 -22.6709 -228.69 -27.2676 -343.791c-2.30762 -57.7979 -4.4873 -115.636 -5.15527 -173.474
c-0.301758 -26.0186 -1.15625 -51.9502 -1.74902 -77.958c-0.331055 -14.4131 -0.0341797 -28.8027 -0.0751953 -43.2158c-0.0292969 -9.78711 -3.28418 -25.2578 0.999023 -34.5859c16.6562 -36.2588 -39.7344 -57.2793 -65.8115 -49.3867
c-48.0918 14.5527 -48.5215 104.041 -50.9736 144.903c-3.64941 60.7559 -5.3291 121.906 -4.23633 182.755c0.151367 8.30469 0.314453 16.627 0.483398 24.9609c-0.423828 -0.0292969 -0.871094 -0.0820312 -1.29492 -0.111328
c-21.4395 -1.5752 -42.8672 -3.36523 -64.248 -5.57324c-10.2227 -1.05176 -20.4336 -2.24316 -30.627 -3.5332c-26.1641 -55.1533 -64.2021 -103.286 -120.732 -132.676c-37.9795 -19.748 -81.9912 -25.9551 -123.736 -15.7959
c-26.3213 6.41016 -65.876 21.8633 -58.9951 55.7686c15.2324 75.0703 138.278 99.6543 198.767 112.963c13.0244 29.3496 22.2764 60.7852 30.5117 90.2217c24.8564 88.8496 32.6094 181.651 48.7021 272.215c2.82422 15.8896 29.9072 27.542 42.2568 15.9648
c38.8633 -36.4453 38.625 -96.7588 37.9688 -146.501zM171.883 148.161c21.8516 13.0586 39.0332 30.8066 53.0508 51.1299c-30.6104 -7.58398 -61.7324 -16.8887 -88.8154 -31.6328c-16.5518 -9.00781 -49.1094 -37.1133 -8.45605 -35.3115
c16.499 0.732422 30.1797 7.42773 44.2207 15.8145z" />
    <glyph glyph-name="five" unicode="5" horiz-adv-x="594" 
d="M268.53 -60.7451c55.792 16.7725 81.6035 83.8369 91.6582 135.503c12.542 64.4922 6.78809 133.198 -46.0576 177.995c-42.3496 35.8994 -103.919 42.2051 -151.639 12.7861c-20.7422 -12.792 -47.4238 -23.7881 -71.5254 -12.4668
c-21.6602 10.1709 -23.5195 32.1855 -14.6162 51.998c20.9102 46.5342 39.3506 93.998 57.9307 141.491c12.2803 31.3887 23.166 64.0156 36.2188 95.4863c-38.6943 -2.23145 -77.0459 0.401367 -112.119 18.5625c-24.5605 12.7158 10.8154 43.0879 30.0693 34.0391
c32.6562 -15.3545 67.7881 -15.459 102.356 -9.25195c0.78418 1.46484 1.49902 2.96973 2.30078 4.42285c8.07227 14.5986 43.4189 28.4248 50.7998 7.71191c30.3369 7.18359 60.6104 13.9248 91.709 18.4463c49.3877 7.18359 195.907 32.3135 207.78 -43.1396
c4.39355 -27.9082 -43.1465 -53.6543 -65.5156 -39.834c-13.6514 8.43262 -22.6074 18.4111 -38.7236 21.5264c-18.377 3.55078 -37.8574 3.22559 -56.4785 3.20215c-40.9844 -0.0527344 -81.4922 -2.96484 -122.278 -6.61426
c-4.59082 -0.413086 -9.22266 -0.883789 -13.8662 -1.37793c-1.69727 -34.6201 -9.33398 -70.0195 -16.2324 -102.461c-5.04492 -23.7354 -11.2871 -47.1914 -18.2266 -70.4502c64.3701 11.8447 131.914 0.779297 187.422 -39.2402
c86.6934 -62.5049 98.2178 -172.834 74.6982 -270.197c-24.5137 -101.49 -101.083 -193.083 -207.089 -213.494c-101.396 -19.5215 -200.986 38.4561 -211.965 145.81c-3.70801 36.2129 73.1406 73.001 87.7744 32.8359c11.2344 -30.8428 22.3867 -62.4121 51.2129 -81.3408
c21.416 -14.0645 49.6787 -19.3818 74.4014 -11.9482z" />
    <glyph glyph-name="six" unicode="6" horiz-adv-x="511" 
d="M252.457 423.684c-36.6836 -77.1562 -63.5986 -161.036 -69.166 -246.701c-0.720703 -11.0889 -1.13867 -22.7764 -1.10938 -34.7832c54.2178 22.875 120.488 27.4258 174.647 8.66602c51.5498 -17.8535 102.861 -60.4766 103.919 -118.919
c0.982422 -54.2295 -34.0332 -102.321 -78.7539 -129.637c-48.5225 -29.6338 -119.188 -46.8887 -175.724 -36.7236c-140.016 25.165 -164.506 182.116 -154.19 300.013c10.9375 125.016 62.7666 257.487 142.097 355.275c36.2246 44.6572 85.3682 90.3086 140.934 108.941
c32.6152 10.9375 113.038 20.1719 110.266 -34.6387c-0.917969 -18.0977 -38.1475 -33.7773 -40.6934 -10.8447c-3.3125 29.8428 -39.3281 -9.96777 -48.3359 -16.959c-14.5352 -11.292 -26.8906 -23.834 -38.7812 -37.8926
c-26.6758 -31.5518 -47.418 -68.5898 -65.1084 -105.797zM400.876 49.9395c-34.0508 83.8633 -144.739 54.1416 -214.097 30.918c7.72949 -48.5566 26.501 -95.0615 65.8691 -122.842c30.8955 -21.8057 68.4102 -29.1514 103.733 -13.7852
c39.833 17.3301 61.0752 64.876 44.4941 105.709z" />
    <glyph glyph-name="seven" unicode="7" horiz-adv-x="461" 
d="M409.383 561.241c7.52637 -39.9492 -8.14844 -88.0068 -17.7324 -126.457c-15.9648 -64.0684 -36.9219 -128.131 -56.502 -192.641c13.9307 1.59277 27.8672 3.18555 41.7979 4.77832c32.6963 3.7373 15.2207 -36.3398 -9.33398 -38.9902l-44.0596 -4.76074
c-28.5068 -98.2881 -50.8877 -197.825 -44.8145 -300.228c3.75391 -63.2949 -121.518 -108.911 -134.844 -35.9395c-15.1807 83.1133 7.46191 173.294 28.5879 253.739c6.00977 22.8867 12.5303 45.6104 19.4229 68.2119
c-17.2783 -1.87109 -34.5625 -3.73633 -51.8408 -5.60156c-31.6562 -3.41699 -14.4365 34.8418 8.98438 37.5205c18.3184 2.09766 36.6367 4.18945 54.9551 6.28125c14.3262 43.7158 30.1104 86.9434 47.1621 129.712c15.9062 39.8916 33.2832 79.208 48.8184 119.233
c10.5312 27.1289 44.6514 83.8398 9.24609 104.564c-19.1553 11.2109 -48.0742 6.84082 -69.4092 6.3291c-20.8291 -0.5 -41.7686 -1.89453 -62.2021 -6.16016c-37.8047 -7.89258 -70.3682 -29.3613 -109.19 -33.3135c-33.7549 -3.44043 -15.4482 37.2764 9.57129 39.9727
s47.1973 17.0742 70.8564 24.8848c18.8818 6.23633 38.4844 10.0254 58.1865 12.5303c40.9668 5.20117 86.4023 6.82227 127.235 -0.639648c35.085 -6.41016 68.0254 -25.4434 75.1045 -63.0273z" />
    <glyph glyph-name="eight" unicode="8" horiz-adv-x="492" 
d="M55.7139 -16.4023c-26.0137 111.51 40.4961 220.298 124.661 290.672c-57.0889 50.9395 -109.127 105.227 -104.594 185.138c7.04395 124.277 174.683 207.902 269.129 116.833c40.9844 -39.5195 52.0557 -96.585 53.6016 -151.349
c1.46484 -51.7246 -4.71289 -103.129 -13.1055 -154.127c4.69043 -5.93945 9.25293 -12.0244 13.6113 -18.3184c75.2617 -108.795 49.8936 -268.989 -56.333 -349.551c-48.9814 -37.1426 -115.572 -57.21 -176.078 -40.6465
c-57.8672 15.8428 -97.4971 63.9346 -110.893 121.349zM209.888 542.062c-31.3193 -45.5752 23.3623 -112.143 52.4561 -143.974c26.2568 -28.7217 55.0654 -54.4033 82.1543 -81.7646c6.2998 47.9697 8.46777 96.375 -0.575195 143.043
c-6.39258 32.999 -20.8057 68.6191 -49.0859 88.9893c-24.9609 17.9814 -65.835 21.5146 -84.9492 -6.29395zM290.728 163.586c-20.8174 30.9062 -50.7383 58.2168 -81.6738 85.4268c-35.3291 -39.5254 -56.4199 -88.6865 -68.1533 -141.817
c-13.3203 -60.3193 -4.03906 -151.552 65.5039 -174.438c50.1377 -16.5049 90.9473 15.7617 107.79 61.5576c20.7773 56.4961 9.7002 120.023 -23.4668 169.271z" />
    <glyph glyph-name="nine" unicode="9" horiz-adv-x="653" 
d="M229.102 436.685c-19.1494 -27.4141 -35.1719 -59.8818 -43.4424 -92.3057c-6.43945 -25.2578 -10.9609 -67.6895 10.3799 -88.3096c33.4346 -32.3018 100.002 60.3252 116.205 85.502c40.5479 63.0049 62.8477 133.21 94.9805 200.085
c11.2686 23.4502 31.3652 41.1006 58.6631 42.0186c29.959 1.00586 50.0439 -20.0322 65.6836 -42.9531c38.165 -55.9434 55.1758 -127.509 63.8701 -193.873c18.417 -140.545 7.13672 -291.87 -81.2881 -408.174c-43.5527 -57.2803 -108.905 -103.507 -182.255 -109.807
c-62.9463 -5.41113 -128.084 26.2979 -146.101 90.2559c-8.25293 29.2969 9.8916 53.6367 36.3057 66.5215c18.958 9.24609 66.6543 16.4756 74.7734 -12.3447c6.67773 -23.7061 28.6455 -38.8281 52.5088 -35.5908c14.6631 1.9873 31.6387 19.4629 45.1738 35.5908
c42.8086 50.9922 60.5459 120.919 68.7695 185.545c8.8916 69.874 9.61816 141.916 4.04492 212.093c-2.85938 35.9805 -8.45605 72.1523 -15.459 107.558c-0.65625 3.3125 -3.37598 12.3555 -5.96191 21.7119c-0.360352 -0.610352 -0.738281 -1.23242 -1.0459 -1.81348
c-59.8838 -112.021 -95.5732 -249.694 -212.139 -319.999c-60.1973 -36.3057 -143.531 -24.4668 -172.607 45.5469c-26.5537 63.9346 3.37695 146.815 38.7412 201.701c35.9277 55.7637 83.3916 100.677 140.869 133.705c46.3311 26.623 123.011 58.0234 170.039 18.2656
c16.0928 -13.5996 -11.4375 -31.3896 -23.2236 -32.7148c-63.8359 -7.18945 -121.697 -56.9844 -157.485 -108.215z" />
    <glyph glyph-name="colon" unicode=":" horiz-adv-x="173" 
d="M82.7793 358.168c-13.4189 -2.20312 -30.0908 2.26074 -31.9912 17.9932c-2.62109 21.6484 1.05176 49.0449 14.9355 66.4277c8.8916 11.1348 33.3643 19.8467 45.209 7.88086c14.4707 -14.6221 11.6055 -44.7734 7.71777 -63.1562
c-3.38281 -15.9824 -20.9287 -26.6934 -35.8711 -29.1455zM121.296 -29.874c8.1543 -18.8242 -10.9141 -36.0488 -26.5938 -41.9248c-13.791 -5.16699 -41.6348 -4.86523 -42.3848 16.1211c-0.569336 15.9473 -0.953125 31.8076 4.74805 46.9238
c6.4043 16.9648 18.7598 28.0889 37.415 29.8672c9.90918 0.941406 19.3184 -5.01562 18.8535 -15.3955c-0.157227 -3.43457 -1.4707 -6.5791 -3.38867 -9.41504c1.50488 -2.73145 3.28906 -5.53223 4.05664 -7.72949c2.19141 -6.24805 4.66113 -12.374 7.29395 -18.4473z
" />
    <glyph glyph-name="semicolon" unicode=";" horiz-adv-x="207" 
d="M77.5518 388.075c-5.59668 2.64453 -12.9932 9.80957 -12.4355 16.8418c1.52246 19.1787 2.13281 38.6309 8.87988 56.6816c6.72461 18.0049 35.0039 32.0928 48.5742 13.123c3.60938 -5.04492 6.15527 -8.52051 7.73633 -14.6689
c0.917969 -3.55664 1.74316 -7.14258 2.55078 -10.7227c1.90625 -8.47363 3.13281 -16.6855 3.73145 -25.3623c1.2959 -18.7598 -17.5752 -32.3359 -33.4355 -37.0723c-7.67188 -2.29004 -18.209 -2.30762 -25.6016 1.17969zM135.602 61.2061
c28.0527 -59.1396 26.9434 -122.877 5.46289 -185.039c-7.76465 -22.4736 -29.6924 -38.915 -53.8105 -39.8857c-18.7949 -0.755859 -43.0352 11.8965 -36.0088 34.4521c18.1729 58.3438 29.8135 118.896 41.0186 178.768c2.89453 15.4707 34.8184 29.6572 43.3379 11.7051z
" />
    <glyph glyph-name="less" unicode="&#x3c;" horiz-adv-x="466" 
d="M402.759 355.826c15.3721 -2.0459 16.4365 -17.9268 7.84668 -27.8877c-31.8486 -36.9336 -85.8457 -58.2568 -129.312 -77.959c-19.2256 -8.71777 -38.4619 -17.4062 -57.6924 -26.1006c9.35059 -1.30762 18.7012 -2.62109 28.0469 -3.93457
c35.998 -5.05078 72.7285 -8.51465 108.308 -15.9707c27.46 -5.75391 40.7627 -29.8262 27.0586 -55.4795c-14.959 -28.001 -48.0273 -40.3164 -78.1436 -38.1133c-61.0059 4.46387 -123.313 14.6982 -183.703 24.5254c-25.4492 4.14355 -55.252 11.4951 -69.1592 35.7822
c-16.0225 27.9775 2.71484 55.9609 24.3633 74.0176c45.8018 38.2002 109.51 56.5127 164.89 75.7207c48.167 16.709 105.522 42.3213 157.497 35.3994z" />
    <glyph glyph-name="equal" unicode="=" horiz-adv-x="442" 
d="M172.173 268.337c-35.335 -0.667969 -86.042 -11.8486 -116.483 9.76465c-15.5234 11.0244 4.66602 30.5928 13.7383 35.7598c37.5781 21.3926 88.9941 26.0303 131.454 28.6982c45.1514 2.83594 93.8828 5.08496 138.383 -4.25488
c55.0605 -11.5537 8.625 -73.6406 -28.8955 -73.8037c-46.1445 -0.197266 -91.9463 4.70801 -138.196 3.83594zM355.928 211.005c20.1025 -0.5 40.8672 -10.2627 35.7822 -34.2246c-4.99805 -23.5146 -31.5283 -37.376 -53.4561 -39.6191
c-47.1562 -4.82324 -95.2832 -4.00391 -142.648 -4.0791c-23.9092 -0.0351562 -47.7607 0.0400391 -71.6582 0.53418c-10.0195 0.208984 -20.085 -0.0927734 -30.0752 0.685547c-2.76074 0.214844 -21.7363 0.488281 -10.7344 2.30176
c-15.0176 -2.48145 -34.4463 4.77734 -24.6016 23.4268c20.9863 39.752 86.5254 38.4854 125.109 41.4668c57.0713 4.41113 115.002 10.9258 172.282 9.50781z" />
    <glyph glyph-name="greater" unicode="&#x3e;" horiz-adv-x="465" 
d="M402.236 267.006c46.0518 -52.8926 -39.8584 -98.3154 -77.46 -118.25c-53.9092 -28.5938 -110.771 -51.9805 -168.033 -72.8506c-22.4912 -8.2002 -53.7871 -0.301758 -61.1973 23.9854c-7.58984 24.8799 16.3135 52.1719 38.0664 61.1104
c34.8877 14.332 70.4551 26.9199 105.622 40.543c18.4287 7.13672 36.5557 14.9131 54.793 22.5088c3.76562 1.56934 7.55469 3.08008 11.3379 4.59082c-25.9785 18.4404 -71.4434 23.8623 -95.3291 27.7793c-25.9375 4.25391 -51.9736 7.61328 -77.9463 11.5654
c-22.8926 3.48145 -46.1689 12.9951 -69.0557 14.1514c-28.1865 1.42969 -4.7832 38.3164 14.9648 38.2236c33.1504 -0.157227 66.0039 9.06641 99.7354 8.56641c28.7568 -0.429688 57.4199 -1.91797 85.9209 -5.80566c47.9873 -6.5498 105.064 -17.6328 138.581 -56.1182z
" />
    <glyph glyph-name="question" unicode="?" horiz-adv-x="455" 
d="M336.976 631.377c88.7275 -49.876 71.3115 -157.987 54.9287 -242.926c-18.5049 -95.916 -50.5859 -188.903 -70.2295 -284.703c-11.8389 -57.71 -135.483 -83.043 -124.825 -7.54883c10.3975 73.6455 37.1895 143.764 60.0117 214.173
c21.0039 64.8066 49.3125 137.877 50.0859 206.786c0.866211 77.3193 -82.1943 90.7559 -137.673 57.0654c-51.166 -31.0752 -102.263 -117.042 -40.9785 -163.722c20.0908 -15.3018 -20.9287 -41.2393 -38.585 -29.1514c-72.1875 49.4287 -33.0049 147.902 15.3604 198.883
c57.3496 60.4473 154.899 94.4287 231.904 51.1436zM257.659 -4.83301c9.65332 1.64453 24.5557 -0.174805 29.0244 -10.8799c8.97949 -21.5029 3.11523 -48.6963 0.917969 -71.1758c-1.95312 -19.957 -29.2217 -32.5977 -45.9941 -34.0908
c-18.8242 -1.67383 -33.0049 10.6123 -30.7793 29.4482c2.58594 21.8516 4.01562 45.9639 15.0117 65.5146c6.49707 11.5596 19.0215 19.0098 31.8193 21.1836z" />
    <glyph glyph-name="at" unicode="@" horiz-adv-x="873" 
d="M613.061 702.878c166.459 -56.7627 248.501 -242.9 193.308 -406.849c-29.0879 -86.3857 -90.6748 -178.002 -182.884 -203.945c-49.0332 -13.7969 -102.942 -0.261719 -137.627 37.5723c-6.76465 7.38086 -12.4658 15.1396 -17.4756 23.1602
c-27.3096 -29.0938 -60.1455 -51.5908 -98.0781 -59.5645c-41.873 -8.80469 -83.2471 5.99219 -106.477 42.4609c-21.835 34.2832 -16.918 79.3301 -6.84668 116.653c20.626 76.4062 69.8047 151.069 145.531 181.331c56.8096 22.7002 144.938 7.26465 149.495 -66.2646
c1.11035 -17.8652 -31.5225 -37.4561 -44.8604 -21.8809c-20.4863 23.9326 -55.0889 37.1016 -81.7646 15.5811c-26.6064 -21.4688 -42.5186 -60.0352 -50.4395 -92.2383c-4.67871 -19.0156 -10.3281 -44.7031 -3.19727 -63.7246
c0.214844 -0.563477 1.59766 -2.91113 3.26562 -5.57324c9.58398 10.6123 21.4229 23.7061 23.3057 26.4492c13.0527 19.0273 23.0781 40.1299 31.749 61.4238c13.9482 34.2363 94.9639 63.9346 113.434 19.208c13.9775 -33.8359 25.793 -78.3945 53.9854 -103.629
c6.68359 -5.98047 19.8066 -8.64844 17.8477 -11.4492c7.53223 4.50391 14.1631 13.5234 20.1836 20.6836c42.8555 50.9688 60.5117 121.331 55.4209 186.922c-8.93848 115.055 -107.29 221.921 -226.099 226.64c-129.194 5.13184 -231.934 -119.407 -280.281 -225.651
c-58.2041 -127.898 -61.1445 -291.923 24.5781 -408.587c40.1006 -54.5723 102.524 -101.077 171.782 -106.395c74.1748 -5.70117 142.747 37.7471 198.296 81.9395c14.6982 11.6992 45.001 19.748 60.3086 4.26562c15.7734 -15.9531 3.54004 -38.1367 -11.1641 -49.7432
c-83.3809 -65.8115 -185.754 -117.391 -294.869 -104.454c-101.223 12.001 -187.189 83.1367 -234.688 170.736c-87.7979 161.932 -49.127 373.182 52.3809 519.491c103.344 148.954 277.625 258.261 461.88 195.431z" />
    <glyph glyph-name="A" unicode="A" horiz-adv-x="982" 
d="M156.157 -151.634c47.4932 78.4932 65.8418 178.243 87.8975 266.354c13.1865 52.6484 25.6006 105.488 38.415 158.224c-67.6016 -9.31055 -135.668 -16.1455 -203.956 -16.2207c-32.8418 -0.0351562 -67.9678 -0.535156 -100.426 4.97461
c-20.3467 3.45215 -40.6699 11.1699 -48.458 31.749c-8.375 22.1191 36.0732 43.0938 44.2383 21.5732c9.54297 -25.1475 65.1963 -19.2949 86.3047 -19.8701c34.7715 -0.947266 69.5957 0.104492 104.298 2.42383c42.6348 2.85352 85.084 7.72949 127.399 13.5996
c6.50879 26.2051 13.1748 52.375 20.1777 78.4639c20.8818 77.7842 43.7041 155.98 75.3369 230.167c25.6816 60.2324 66.1426 136.308 139.19 145.101c76.7959 9.24609 115.77 -84.1602 131.892 -143.887c21.5439 -79.8008 27.4141 -163.745 34.6436 -245.83
c0.244141 -2.7373 0.5 -5.46875 0.744141 -8.20605c22.8867 0.703125 45.7148 0.0175781 68.2812 -2.9873c30.2969 -4.0332 1.62793 -40.9375 -20.7119 -37.9502c-14.5117 1.94141 -29.25 2.88281 -44.1162 3.08594c6.75879 -72.6934 13.8604 -145.433 16.7949 -218.364
c1.83105 -45.6338 3.27832 -91.3252 5.37598 -136.93c0.90625 -19.6377 2.67285 -39.0605 8.44434 -57.8848c3.75391 -12.2393 5.58496 -32.1035 14.9072 -40.2686c29.4941 -25.8506 73.5703 35.4746 87.8086 56.0654c21.3525 30.8779 37.6133 65.1846 53.0264 99.2998
c35.8057 79.2432 64.5674 161.34 91.9463 243.797c6.71289 20.2129 53.6191 28.251 45.3379 2.74316c-29.5234 -90.8896 -60.7842 -181.541 -100.664 -268.502c-31.4238 -68.5205 -74.5 -147.392 -146.693 -179.908c-34.2539 -15.4238 -62.1738 -9.94336 -96.1836 2.0752
c-18.958 6.70117 -33.3242 9.18848 -47.3076 24.7871c-11.0947 12.3789 -19.4229 28.2568 -25.2578 43.6924c-30.1162 79.6904 -37.4561 173.828 -45.7783 257.883c-5.14355 51.957 -9.26367 104.286 -12.3027 156.638
c-11.8555 -1.86523 -23.6123 -3.72461 -35.1895 -5.46777c-60.541 -9.0957 -120.86 -19.5801 -181.372 -28.8203c-17.0107 -68.2646 -33.3125 -136.709 -51.3984 -204.7c-20.8057 -78.2256 -39.5195 -163.85 -82.166 -233.584
c-11.1064 -18.1611 -55.4844 -18.1201 -40.4785 6.68457zM339.901 318.706c-0.0410156 -0.168945 -0.0791016 -0.34082 -0.120117 -0.509766c7.32812 1.12207 14.6504 2.26074 21.9736 3.41699c61.0283 9.6416 121.918 20.1953 183.074 28.9766
c-1.25 26.0479 -2.25586 52.0781 -2.92969 78.0508c-2.0459 79.0742 2.5918 161.664 -16.6221 238.989c-2.72559 10.9551 -10.0537 46.8945 -25.123 48.8643c-9.81055 1.27832 -31.1748 -33.7783 -34.8652 -39.5381c-22.4219 -34.9863 -38.125 -74.0059 -52.2529 -112.915
c-29.1514 -80.2715 -52.0439 -162.635 -73.1348 -245.335z" />
    <glyph glyph-name="A" unicode="&#xc5;" horiz-adv-x="982" 
d="M156.157 -151.634c47.4932 78.4932 65.8418 178.243 87.8975 266.354c13.1865 52.6484 25.6006 105.488 38.415 158.224c-67.6016 -9.31055 -135.668 -16.1455 -203.956 -16.2207c-32.8418 -0.0351562 -67.9678 -0.535156 -100.426 4.97461
c-20.3467 3.45215 -40.6699 11.1699 -48.458 31.749c-8.375 22.1191 36.0732 43.0938 44.2383 21.5732c9.54297 -25.1475 65.1963 -19.2949 86.3047 -19.8701c34.7715 -0.947266 69.5957 0.104492 104.298 2.42383c42.6348 2.85352 85.084 7.72949 127.399 13.5996
c6.50879 26.2051 13.1748 52.375 20.1777 78.4639c20.8818 77.7842 43.7041 155.98 75.3369 230.167c25.6816 60.2324 66.1426 136.308 139.19 145.101c76.7959 9.24609 115.77 -84.1602 131.892 -143.887c21.5439 -79.8008 27.4141 -163.745 34.6436 -245.83
c0.244141 -2.7373 0.5 -5.46875 0.744141 -8.20605c22.8867 0.703125 45.7148 0.0175781 68.2812 -2.9873c30.2969 -4.0332 1.62793 -40.9375 -20.7119 -37.9502c-14.5117 1.94141 -29.25 2.88281 -44.1162 3.08594c6.75879 -72.6934 13.8604 -145.433 16.7949 -218.364
c1.83105 -45.6338 3.27832 -91.3252 5.37598 -136.93c0.90625 -19.6377 2.67285 -39.0605 8.44434 -57.8848c3.75391 -12.2393 5.58496 -32.1035 14.9072 -40.2686c29.4941 -25.8506 73.5703 35.4746 87.8086 56.0654c21.3525 30.8779 37.6133 65.1846 53.0264 99.2998
c35.8057 79.2432 64.5674 161.34 91.9463 243.797c6.71289 20.2129 53.6191 28.251 45.3379 2.74316c-29.5234 -90.8896 -60.7842 -181.541 -100.664 -268.502c-31.4238 -68.5205 -74.5 -147.392 -146.693 -179.908c-34.2539 -15.4238 -62.1738 -9.94336 -96.1836 2.0752
c-18.958 6.70117 -33.3242 9.18848 -47.3076 24.7871c-11.0947 12.3789 -19.4229 28.2568 -25.2578 43.6924c-30.1162 79.6904 -37.4561 173.828 -45.7783 257.883c-5.14355 51.957 -9.26367 104.286 -12.3027 156.638
c-11.8555 -1.86523 -23.6123 -3.72461 -35.1895 -5.46777c-60.541 -9.0957 -120.86 -19.5801 -181.372 -28.8203c-17.0107 -68.2646 -33.3125 -136.709 -51.3984 -204.7c-20.8057 -78.2256 -39.5195 -163.85 -82.166 -233.584
c-11.1064 -18.1611 -55.4844 -18.1201 -40.4785 6.68457zM339.901 318.706c-0.0410156 -0.168945 -0.0791016 -0.34082 -0.120117 -0.509766c7.32812 1.12207 14.6504 2.26074 21.9736 3.41699c61.0283 9.6416 121.918 20.1953 183.074 28.9766
c-1.25 26.0479 -2.25586 52.0781 -2.92969 78.0508c-2.0459 79.0742 2.5918 161.664 -16.6221 238.989c-2.72559 10.9551 -10.0537 46.8945 -25.123 48.8643c-9.81055 1.27832 -31.1748 -33.7783 -34.8652 -39.5381c-22.4219 -34.9863 -38.125 -74.0059 -52.2529 -112.915
c-29.1514 -80.2715 -52.0439 -162.635 -73.1348 -245.335z" />
    <glyph glyph-name="A" unicode="&#xc4;" horiz-adv-x="982" 
d="M156.157 -151.634c47.4932 78.4932 65.8418 178.243 87.8975 266.354c13.1865 52.6484 25.6006 105.488 38.415 158.224c-67.6016 -9.31055 -135.668 -16.1455 -203.956 -16.2207c-32.8418 -0.0351562 -67.9678 -0.535156 -100.426 4.97461
c-20.3467 3.45215 -40.6699 11.1699 -48.458 31.749c-8.375 22.1191 36.0732 43.0938 44.2383 21.5732c9.54297 -25.1475 65.1963 -19.2949 86.3047 -19.8701c34.7715 -0.947266 69.5957 0.104492 104.298 2.42383c42.6348 2.85352 85.084 7.72949 127.399 13.5996
c6.50879 26.2051 13.1748 52.375 20.1777 78.4639c20.8818 77.7842 43.7041 155.98 75.3369 230.167c25.6816 60.2324 66.1426 136.308 139.19 145.101c76.7959 9.24609 115.77 -84.1602 131.892 -143.887c21.5439 -79.8008 27.4141 -163.745 34.6436 -245.83
c0.244141 -2.7373 0.5 -5.46875 0.744141 -8.20605c22.8867 0.703125 45.7148 0.0175781 68.2812 -2.9873c30.2969 -4.0332 1.62793 -40.9375 -20.7119 -37.9502c-14.5117 1.94141 -29.25 2.88281 -44.1162 3.08594c6.75879 -72.6934 13.8604 -145.433 16.7949 -218.364
c1.83105 -45.6338 3.27832 -91.3252 5.37598 -136.93c0.90625 -19.6377 2.67285 -39.0605 8.44434 -57.8848c3.75391 -12.2393 5.58496 -32.1035 14.9072 -40.2686c29.4941 -25.8506 73.5703 35.4746 87.8086 56.0654c21.3525 30.8779 37.6133 65.1846 53.0264 99.2998
c35.8057 79.2432 64.5674 161.34 91.9463 243.797c6.71289 20.2129 53.6191 28.251 45.3379 2.74316c-29.5234 -90.8896 -60.7842 -181.541 -100.664 -268.502c-31.4238 -68.5205 -74.5 -147.392 -146.693 -179.908c-34.2539 -15.4238 -62.1738 -9.94336 -96.1836 2.0752
c-18.958 6.70117 -33.3242 9.18848 -47.3076 24.7871c-11.0947 12.3789 -19.4229 28.2568 -25.2578 43.6924c-30.1162 79.6904 -37.4561 173.828 -45.7783 257.883c-5.14355 51.957 -9.26367 104.286 -12.3027 156.638
c-11.8555 -1.86523 -23.6123 -3.72461 -35.1895 -5.46777c-60.541 -9.0957 -120.86 -19.5801 -181.372 -28.8203c-17.0107 -68.2646 -33.3125 -136.709 -51.3984 -204.7c-20.8057 -78.2256 -39.5195 -163.85 -82.166 -233.584
c-11.1064 -18.1611 -55.4844 -18.1201 -40.4785 6.68457zM339.901 318.706c-0.0410156 -0.168945 -0.0791016 -0.34082 -0.120117 -0.509766c7.32812 1.12207 14.6504 2.26074 21.9736 3.41699c61.0283 9.6416 121.918 20.1953 183.074 28.9766
c-1.25 26.0479 -2.25586 52.0781 -2.92969 78.0508c-2.0459 79.0742 2.5918 161.664 -16.6221 238.989c-2.72559 10.9551 -10.0537 46.8945 -25.123 48.8643c-9.81055 1.27832 -31.1748 -33.7783 -34.8652 -39.5381c-22.4219 -34.9863 -38.125 -74.0059 -52.2529 -112.915
c-29.1514 -80.2715 -52.0439 -162.635 -73.1348 -245.335z" />
    <glyph glyph-name="A" unicode="&#xc3;" horiz-adv-x="982" 
d="M156.157 -151.634c47.4932 78.4932 65.8418 178.243 87.8975 266.354c13.1865 52.6484 25.6006 105.488 38.415 158.224c-67.6016 -9.31055 -135.668 -16.1455 -203.956 -16.2207c-32.8418 -0.0351562 -67.9678 -0.535156 -100.426 4.97461
c-20.3467 3.45215 -40.6699 11.1699 -48.458 31.749c-8.375 22.1191 36.0732 43.0938 44.2383 21.5732c9.54297 -25.1475 65.1963 -19.2949 86.3047 -19.8701c34.7715 -0.947266 69.5957 0.104492 104.298 2.42383c42.6348 2.85352 85.084 7.72949 127.399 13.5996
c6.50879 26.2051 13.1748 52.375 20.1777 78.4639c20.8818 77.7842 43.7041 155.98 75.3369 230.167c25.6816 60.2324 66.1426 136.308 139.19 145.101c76.7959 9.24609 115.77 -84.1602 131.892 -143.887c21.5439 -79.8008 27.4141 -163.745 34.6436 -245.83
c0.244141 -2.7373 0.5 -5.46875 0.744141 -8.20605c22.8867 0.703125 45.7148 0.0175781 68.2812 -2.9873c30.2969 -4.0332 1.62793 -40.9375 -20.7119 -37.9502c-14.5117 1.94141 -29.25 2.88281 -44.1162 3.08594c6.75879 -72.6934 13.8604 -145.433 16.7949 -218.364
c1.83105 -45.6338 3.27832 -91.3252 5.37598 -136.93c0.90625 -19.6377 2.67285 -39.0605 8.44434 -57.8848c3.75391 -12.2393 5.58496 -32.1035 14.9072 -40.2686c29.4941 -25.8506 73.5703 35.4746 87.8086 56.0654c21.3525 30.8779 37.6133 65.1846 53.0264 99.2998
c35.8057 79.2432 64.5674 161.34 91.9463 243.797c6.71289 20.2129 53.6191 28.251 45.3379 2.74316c-29.5234 -90.8896 -60.7842 -181.541 -100.664 -268.502c-31.4238 -68.5205 -74.5 -147.392 -146.693 -179.908c-34.2539 -15.4238 -62.1738 -9.94336 -96.1836 2.0752
c-18.958 6.70117 -33.3242 9.18848 -47.3076 24.7871c-11.0947 12.3789 -19.4229 28.2568 -25.2578 43.6924c-30.1162 79.6904 -37.4561 173.828 -45.7783 257.883c-5.14355 51.957 -9.26367 104.286 -12.3027 156.638
c-11.8555 -1.86523 -23.6123 -3.72461 -35.1895 -5.46777c-60.541 -9.0957 -120.86 -19.5801 -181.372 -28.8203c-17.0107 -68.2646 -33.3125 -136.709 -51.3984 -204.7c-20.8057 -78.2256 -39.5195 -163.85 -82.166 -233.584
c-11.1064 -18.1611 -55.4844 -18.1201 -40.4785 6.68457zM339.901 318.706c-0.0410156 -0.168945 -0.0791016 -0.34082 -0.120117 -0.509766c7.32812 1.12207 14.6504 2.26074 21.9736 3.41699c61.0283 9.6416 121.918 20.1953 183.074 28.9766
c-1.25 26.0479 -2.25586 52.0781 -2.92969 78.0508c-2.0459 79.0742 2.5918 161.664 -16.6221 238.989c-2.72559 10.9551 -10.0537 46.8945 -25.123 48.8643c-9.81055 1.27832 -31.1748 -33.7783 -34.8652 -39.5381c-22.4219 -34.9863 -38.125 -74.0059 -52.2529 -112.915
c-29.1514 -80.2715 -52.0439 -162.635 -73.1348 -245.335z" />
    <glyph glyph-name="A" unicode="&#xc2;" horiz-adv-x="982" 
d="M156.157 -151.634c47.4932 78.4932 65.8418 178.243 87.8975 266.354c13.1865 52.6484 25.6006 105.488 38.415 158.224c-67.6016 -9.31055 -135.668 -16.1455 -203.956 -16.2207c-32.8418 -0.0351562 -67.9678 -0.535156 -100.426 4.97461
c-20.3467 3.45215 -40.6699 11.1699 -48.458 31.749c-8.375 22.1191 36.0732 43.0938 44.2383 21.5732c9.54297 -25.1475 65.1963 -19.2949 86.3047 -19.8701c34.7715 -0.947266 69.5957 0.104492 104.298 2.42383c42.6348 2.85352 85.084 7.72949 127.399 13.5996
c6.50879 26.2051 13.1748 52.375 20.1777 78.4639c20.8818 77.7842 43.7041 155.98 75.3369 230.167c25.6816 60.2324 66.1426 136.308 139.19 145.101c76.7959 9.24609 115.77 -84.1602 131.892 -143.887c21.5439 -79.8008 27.4141 -163.745 34.6436 -245.83
c0.244141 -2.7373 0.5 -5.46875 0.744141 -8.20605c22.8867 0.703125 45.7148 0.0175781 68.2812 -2.9873c30.2969 -4.0332 1.62793 -40.9375 -20.7119 -37.9502c-14.5117 1.94141 -29.25 2.88281 -44.1162 3.08594c6.75879 -72.6934 13.8604 -145.433 16.7949 -218.364
c1.83105 -45.6338 3.27832 -91.3252 5.37598 -136.93c0.90625 -19.6377 2.67285 -39.0605 8.44434 -57.8848c3.75391 -12.2393 5.58496 -32.1035 14.9072 -40.2686c29.4941 -25.8506 73.5703 35.4746 87.8086 56.0654c21.3525 30.8779 37.6133 65.1846 53.0264 99.2998
c35.8057 79.2432 64.5674 161.34 91.9463 243.797c6.71289 20.2129 53.6191 28.251 45.3379 2.74316c-29.5234 -90.8896 -60.7842 -181.541 -100.664 -268.502c-31.4238 -68.5205 -74.5 -147.392 -146.693 -179.908c-34.2539 -15.4238 -62.1738 -9.94336 -96.1836 2.0752
c-18.958 6.70117 -33.3242 9.18848 -47.3076 24.7871c-11.0947 12.3789 -19.4229 28.2568 -25.2578 43.6924c-30.1162 79.6904 -37.4561 173.828 -45.7783 257.883c-5.14355 51.957 -9.26367 104.286 -12.3027 156.638
c-11.8555 -1.86523 -23.6123 -3.72461 -35.1895 -5.46777c-60.541 -9.0957 -120.86 -19.5801 -181.372 -28.8203c-17.0107 -68.2646 -33.3125 -136.709 -51.3984 -204.7c-20.8057 -78.2256 -39.5195 -163.85 -82.166 -233.584
c-11.1064 -18.1611 -55.4844 -18.1201 -40.4785 6.68457zM339.901 318.706c-0.0410156 -0.168945 -0.0791016 -0.34082 -0.120117 -0.509766c7.32812 1.12207 14.6504 2.26074 21.9736 3.41699c61.0283 9.6416 121.918 20.1953 183.074 28.9766
c-1.25 26.0479 -2.25586 52.0781 -2.92969 78.0508c-2.0459 79.0742 2.5918 161.664 -16.6221 238.989c-2.72559 10.9551 -10.0537 46.8945 -25.123 48.8643c-9.81055 1.27832 -31.1748 -33.7783 -34.8652 -39.5381c-22.4219 -34.9863 -38.125 -74.0059 -52.2529 -112.915
c-29.1514 -80.2715 -52.0439 -162.635 -73.1348 -245.335z" />
    <glyph glyph-name="A" unicode="&#xc1;" horiz-adv-x="982" 
d="M156.157 -151.634c47.4932 78.4932 65.8418 178.243 87.8975 266.354c13.1865 52.6484 25.6006 105.488 38.415 158.224c-67.6016 -9.31055 -135.668 -16.1455 -203.956 -16.2207c-32.8418 -0.0351562 -67.9678 -0.535156 -100.426 4.97461
c-20.3467 3.45215 -40.6699 11.1699 -48.458 31.749c-8.375 22.1191 36.0732 43.0938 44.2383 21.5732c9.54297 -25.1475 65.1963 -19.2949 86.3047 -19.8701c34.7715 -0.947266 69.5957 0.104492 104.298 2.42383c42.6348 2.85352 85.084 7.72949 127.399 13.5996
c6.50879 26.2051 13.1748 52.375 20.1777 78.4639c20.8818 77.7842 43.7041 155.98 75.3369 230.167c25.6816 60.2324 66.1426 136.308 139.19 145.101c76.7959 9.24609 115.77 -84.1602 131.892 -143.887c21.5439 -79.8008 27.4141 -163.745 34.6436 -245.83
c0.244141 -2.7373 0.5 -5.46875 0.744141 -8.20605c22.8867 0.703125 45.7148 0.0175781 68.2812 -2.9873c30.2969 -4.0332 1.62793 -40.9375 -20.7119 -37.9502c-14.5117 1.94141 -29.25 2.88281 -44.1162 3.08594c6.75879 -72.6934 13.8604 -145.433 16.7949 -218.364
c1.83105 -45.6338 3.27832 -91.3252 5.37598 -136.93c0.90625 -19.6377 2.67285 -39.0605 8.44434 -57.8848c3.75391 -12.2393 5.58496 -32.1035 14.9072 -40.2686c29.4941 -25.8506 73.5703 35.4746 87.8086 56.0654c21.3525 30.8779 37.6133 65.1846 53.0264 99.2998
c35.8057 79.2432 64.5674 161.34 91.9463 243.797c6.71289 20.2129 53.6191 28.251 45.3379 2.74316c-29.5234 -90.8896 -60.7842 -181.541 -100.664 -268.502c-31.4238 -68.5205 -74.5 -147.392 -146.693 -179.908c-34.2539 -15.4238 -62.1738 -9.94336 -96.1836 2.0752
c-18.958 6.70117 -33.3242 9.18848 -47.3076 24.7871c-11.0947 12.3789 -19.4229 28.2568 -25.2578 43.6924c-30.1162 79.6904 -37.4561 173.828 -45.7783 257.883c-5.14355 51.957 -9.26367 104.286 -12.3027 156.638
c-11.8555 -1.86523 -23.6123 -3.72461 -35.1895 -5.46777c-60.541 -9.0957 -120.86 -19.5801 -181.372 -28.8203c-17.0107 -68.2646 -33.3125 -136.709 -51.3984 -204.7c-20.8057 -78.2256 -39.5195 -163.85 -82.166 -233.584
c-11.1064 -18.1611 -55.4844 -18.1201 -40.4785 6.68457zM339.901 318.706c-0.0410156 -0.168945 -0.0791016 -0.34082 -0.120117 -0.509766c7.32812 1.12207 14.6504 2.26074 21.9736 3.41699c61.0283 9.6416 121.918 20.1953 183.074 28.9766
c-1.25 26.0479 -2.25586 52.0781 -2.92969 78.0508c-2.0459 79.0742 2.5918 161.664 -16.6221 238.989c-2.72559 10.9551 -10.0537 46.8945 -25.123 48.8643c-9.81055 1.27832 -31.1748 -33.7783 -34.8652 -39.5381c-22.4219 -34.9863 -38.125 -74.0059 -52.2529 -112.915
c-29.1514 -80.2715 -52.0439 -162.635 -73.1348 -245.335z" />
    <glyph glyph-name="B" unicode="B" horiz-adv-x="918" 
d="M110.959 -145.984c-65.3643 12.5186 -77.8232 106.798 -89.8477 161.213c-14.3779 65.0391 -25.333 131.299 -31.4355 197.634c-12.6465 137.534 -12.251 277.654 8.71777 414.357c9.50781 62.0049 138.58 87.4141 131.345 7.94434
c-11.5713 -127.119 -17.5977 -254.187 -9.1123 -381.725c1.19727 -17.9639 2.52832 -35.916 4.01074 -53.8564c3.98145 23.1133 8.45605 46.1396 13.4072 69.0664c21.0498 97.416 47.5283 196.053 91.9062 285.722c37.6777 76.1338 93.4814 158.562 178.763 185.19
c33.4697 10.4492 78.0459 8.90918 94.6904 -27.5996c14.1279 -30.9766 3.38184 -74.0996 -7.02148 -104.425c-14.4072 -41.9951 -35.248 -76.377 -64.708 -109.55c138.418 -18.6377 267.949 -98.665 325.775 -228.312c58.3086 18.3066 121.715 32.0283 181.407 29.5234
c34.1436 -1.42969 16.5225 -41.5068 -9.68848 -40.4609c-52.207 2.08105 -106.813 -9.03711 -158.143 -24.5488c0.831055 -2.57422 1.74902 -5.09668 2.52734 -7.7002c53.2178 -178.564 -33.5684 -376.802 -172.235 -492.699
c-72.0244 -60.2031 -166.209 -96.1025 -260.376 -93.8711c-67.8398 1.60938 -160.612 25.2461 -172.893 104.838c-6.29395 40.7861 12.7393 84.4961 31.2607 119.709c21.0967 40.1064 48.6787 77.1738 79.1035 110.655c60.4072 66.4746 131.055 122.981 207.433 170.033
c45.4766 28.0186 92.9062 53.0029 141.719 74.8779c-1.16797 2.25488 -2.30078 4.52148 -3.52734 6.75879c-70.333 128.078 -206.519 178.303 -346.546 165.854c-21.5791 -1.92383 -46.8887 9.12402 -51.2646 31.7725c-19.1143 -58.9893 -33.417 -119.809 -45.6914 -179.814
c-17.5049 -85.5889 -28.0527 -172.259 -29.54 -259.435c0.953125 -7.00293 1.94141 -14.0059 2.86523 -21.0088c3.54492 -26.9082 10.4375 -55.252 3.57422 -81.9688c-4.73047 -18.417 -28.1338 -31.6855 -46.4756 -28.1748zM575.612 -163.604
c80.3525 98.0264 111.184 231.834 67.1484 349.469c-51.6543 -23.125 -101.792 -50.1143 -148.873 -80.6602c-64.2021 -41.6523 -125.469 -90.3018 -175.839 -148.187c-41.9258 -48.1846 -103.582 -125.835 -84.5605 -194.832
c20.3877 -73.96 121.762 -58.4951 176.322 -40.502c65.4453 21.585 122.243 61.5693 165.802 114.712zM353.454 661.693c-34.0156 -33.8652 -59.1777 -76.5635 -80.1875 -119.355c-11.9492 -24.3398 -22.5439 -49.4004 -32.0928 -74.9424
c8.04297 8.96777 18.1436 16.2383 27.7559 20.8232c37.9102 18.0859 73.4717 42.0479 103.35 71.7344c28.1582 27.9834 76.1631 65.5908 84.6885 105.936c6.50293 30.7676 -17.9062 43.3613 -44.9951 34.6494c-22.1543 -7.125 -42.2744 -22.6709 -58.5186 -38.8447z" />
    <glyph glyph-name="C" unicode="C" horiz-adv-x="605" 
d="M-30.752 396.289c26.124 83.7812 63.6738 165.505 114.979 236.901c44.7793 62.3252 107.9 132.292 190.357 136.157c69.4092 3.25488 108.493 -49.707 120.32 -112.276c16.7148 -88.4365 -17.8477 -178.396 -49.1318 -259.434
c-4.56836 -11.8271 -15.6455 -21.1836 -28.9365 -21.4453c-9.55469 -0.185547 -23.8809 6.3877 -19.3652 18.5283c28.8145 77.4414 62.4697 164.309 44.4766 248.241c-5.67773 26.4902 -24.2168 66.7129 -56.2744 67.5967
c-26.3965 0.732422 -51.0908 -33.0508 -64.7139 -52.1602c-36.0264 -50.5273 -59.3193 -110.277 -81.0723 -167.947c-24.4844 -64.9229 -45.3311 -131.682 -58.9941 -199.748c-13.8555 -69.0137 -21.7363 -138.87 -20.0918 -209.308
c1.52246 -65.1494 3.85254 -134.007 39.3564 -190.99c32.8828 -52.7764 87.1123 -71.5889 147.112 -55.6592c60.7031 16.1162 114.264 67.666 155.05 113.038c87.4658 97.2939 143.218 217.916 197.895 335.411c9.53125 20.4863 54.793 20.6777 42.1113 -6.95117
c-71.5947 -156.01 -149.326 -323.306 -291.655 -427.894c-58.8672 -43.2568 -135.518 -80.5391 -209.89 -78.749c-76.7441 1.84766 -139.755 47.9287 -176.427 113.45c-40.6006 72.542 -43.71 165.982 -40.8271 247.056c3.21973 90.5986 18.7432 179.663 45.7207 266.182z
" />
    <glyph glyph-name="D" unicode="D" horiz-adv-x="873" 
d="M897.527 274.481c36.0039 -10.3389 1.59277 -54.0684 -25.2051 -46.1641c-40.8154 12.0244 -82.8398 10.1416 -124.266 3.10938c-7.50293 -86.8271 -29.2676 -172.067 -62.2314 -253.193c-45.7959 -112.701 -119.691 -220.381 -226.958 -281.653
c-86.002 -49.126 -218.485 -65.1719 -285.61 23.8691c-72.3154 95.916 3.47461 220.211 70.2979 294.49c79.3242 88.1748 186.155 151.871 294.7 197.545c26.4199 11.1182 53.2988 21.1553 80.5439 30.082c4.94043 60.0928 3.74316 120.65 -3.33008 180.081
c-6.11426 51.3926 -16.3193 101.774 -35.0273 150.191c-16.918 43.791 -40.3857 92.4814 -79.7832 120.284c-90.9355 64.1729 -183.312 -88.0879 -215.904 -153.586c-44.5117 -89.4541 -66.9043 -188.125 -87.2158 -285.35
c-20.3467 -97.3984 -39.3223 -195.1 -60.7676 -292.266c0.592773 -28.3555 1.85352 -57.7393 -3.77246 -84.8506c-4.60254 -22.1777 -46.4121 -44.2217 -64.0859 -24.2178c-44.041 49.8467 -44.7207 138.998 -50.8574 201.938
c-7.0498 72.3379 -11.2461 145.188 -13.3613 217.828c-4.32422 148.304 -3.42383 296.555 7.42676 444.567c2.61523 35.707 29.2383 61.4883 63.6377 70.5723c24.4443 6.45703 73.6406 0.994141 72.4082 -34.3066c-5.12012 -146.52 -10.6533 -293.126 -11.124 -439.756
c-0.12793 -40.5713 -0.191406 -81.1426 -0.203125 -121.714c11.4023 54.334 23.6016 108.441 36.9863 162.072c29.8838 119.744 75.3369 246.898 167.511 333.487c37.3291 35.0684 85.4619 62.5166 138.18 59.8721c55.4844 -2.77832 105.319 -29.3145 143.793 -68.6943
c85.3975 -87.4023 119.57 -218.643 126.457 -337.301c1.2666 -21.8574 1.50488 -43.6807 0.876953 -65.4336c48.8008 8.74121 98.6943 12.3271 146.885 -1.50488zM485.488 -141.453c70.1299 100.403 111.992 217.596 128.347 338.357
c-32.3018 -10.8213 -64.0166 -23.3574 -94.9639 -37.7236c-99.0137 -45.9707 -202.45 -112.241 -258.702 -208.704c-37.9043 -64.998 -66.8643 -191.449 39.5596 -206.827c79.3594 -11.4668 143.852 54.8975 185.76 114.897z" />
    <glyph glyph-name="E" unicode="E" horiz-adv-x="862" 
d="M857.865 282.757c11.6523 17.3945 56.2939 17.5977 40.4746 -6.68359c-67.0322 -102.902 -134.628 -206.351 -216.974 -297.879c-67.2012 -74.6924 -155.97 -165.96 -257.651 -189.131c-49.248 -11.2227 -102.32 -2.29004 -140.603 32.1904
c-35.8408 32.2842 -55.4033 77.2842 -69.4326 122.343c-18.2783 58.7217 -30.5352 118.757 -38.0791 179.513c-33.7598 -12.2275 -67.125 -25.4727 -99.752 -40.1992c-27.0713 -12.2217 -41.4551 17.1797 -14.9248 30.5986c36.4971 18.458 73.0879 36.248 110.097 53.0381
c-12.582 143.062 -0.900391 289.343 18.6152 431.393c-64.3066 -24.1074 -126.992 -52.0156 -189.91 -82.085c-28.9131 -13.8203 -41.7686 16.3545 -15.7148 32.2207c66.6309 40.5771 138.98 74.5645 213.26 102.821c1.56348 10.3506 3.13867 20.6895 4.75391 30.9824
c5.16113 32.918 44.3955 54.9854 73.8203 59.9834c22.4219 3.8125 68.3984 -4.27148 65.8525 -37.0205c-0.168945 -2.20312 -0.37207 -4.40039 -0.546875 -6.60254c6.33496 1.78418 12.6699 3.5625 18.9932 5.27148c66.7246 18.0508 135.309 33.5039 204.381 38.6123
c47.7256 3.52734 139.382 12.1924 165.232 -40.2354c14.1689 -28.7275 -35.2891 -55.4502 -58.0938 -43.5947c-24.4902 12.7334 -43.8545 20.666 -71.9189 22.6416c-30.8311 2.16797 -62.0869 0.255859 -92.7549 -3.07422
c-57.4775 -6.24805 -114.45 -18.6797 -170.388 -33.1621c-9.24609 -103.1 -20.6895 -206.188 -24.583 -309.572c-1.40625 -37.3057 -1.72559 -74.6455 -1.01074 -111.957c39.3682 13.7334 79.5215 25.4092 119.82 36.0098c40.874 10.752 87.1064 27.1465 129.526 26.9434
c15.7031 -0.0751953 31.0342 -6.89844 30.1504 -24.6182c-0.935547 -18.7891 -19.5039 -29.6396 -35.085 -35.3467c-38.9854 -14.2734 -84.2471 -17.4932 -124.842 -27.082c-39.5781 -9.3457 -78.6504 -20.3535 -117.693 -31.6865
c2.62695 -52.7881 7.56738 -105.454 15.2275 -157.806c10.002 -68.3633 36.9512 -201.394 137.54 -161.624c45.5693 18.0225 87.6689 58.751 122.923 91.8369c34.4922 32.3652 66.4795 67.3809 96.6885 103.757c62.8887 75.7266 117.879 157.515 172.602 239.204z" />
    <glyph glyph-name="E" unicode="&#xcb;" horiz-adv-x="862" 
d="M857.865 282.757c11.6523 17.3945 56.2939 17.5977 40.4746 -6.68359c-67.0322 -102.902 -134.628 -206.351 -216.974 -297.879c-67.2012 -74.6924 -155.97 -165.96 -257.651 -189.131c-49.248 -11.2227 -102.32 -2.29004 -140.603 32.1904
c-35.8408 32.2842 -55.4033 77.2842 -69.4326 122.343c-18.2783 58.7217 -30.5352 118.757 -38.0791 179.513c-33.7598 -12.2275 -67.125 -25.4727 -99.752 -40.1992c-27.0713 -12.2217 -41.4551 17.1797 -14.9248 30.5986c36.4971 18.458 73.0879 36.248 110.097 53.0381
c-12.582 143.062 -0.900391 289.343 18.6152 431.393c-64.3066 -24.1074 -126.992 -52.0156 -189.91 -82.085c-28.9131 -13.8203 -41.7686 16.3545 -15.7148 32.2207c66.6309 40.5771 138.98 74.5645 213.26 102.821c1.56348 10.3506 3.13867 20.6895 4.75391 30.9824
c5.16113 32.918 44.3955 54.9854 73.8203 59.9834c22.4219 3.8125 68.3984 -4.27148 65.8525 -37.0205c-0.168945 -2.20312 -0.37207 -4.40039 -0.546875 -6.60254c6.33496 1.78418 12.6699 3.5625 18.9932 5.27148c66.7246 18.0508 135.309 33.5039 204.381 38.6123
c47.7256 3.52734 139.382 12.1924 165.232 -40.2354c14.1689 -28.7275 -35.2891 -55.4502 -58.0938 -43.5947c-24.4902 12.7334 -43.8545 20.666 -71.9189 22.6416c-30.8311 2.16797 -62.0869 0.255859 -92.7549 -3.07422
c-57.4775 -6.24805 -114.45 -18.6797 -170.388 -33.1621c-9.24609 -103.1 -20.6895 -206.188 -24.583 -309.572c-1.40625 -37.3057 -1.72559 -74.6455 -1.01074 -111.957c39.3682 13.7334 79.5215 25.4092 119.82 36.0098c40.874 10.752 87.1064 27.1465 129.526 26.9434
c15.7031 -0.0751953 31.0342 -6.89844 30.1504 -24.6182c-0.935547 -18.7891 -19.5039 -29.6396 -35.085 -35.3467c-38.9854 -14.2734 -84.2471 -17.4932 -124.842 -27.082c-39.5781 -9.3457 -78.6504 -20.3535 -117.693 -31.6865
c2.62695 -52.7881 7.56738 -105.454 15.2275 -157.806c10.002 -68.3633 36.9512 -201.394 137.54 -161.624c45.5693 18.0225 87.6689 58.751 122.923 91.8369c34.4922 32.3652 66.4795 67.3809 96.6885 103.757c62.8887 75.7266 117.879 157.515 172.602 239.204z" />
    <glyph glyph-name="E" unicode="&#xca;" horiz-adv-x="862" 
d="M857.865 282.757c11.6523 17.3945 56.2939 17.5977 40.4746 -6.68359c-67.0322 -102.902 -134.628 -206.351 -216.974 -297.879c-67.2012 -74.6924 -155.97 -165.96 -257.651 -189.131c-49.248 -11.2227 -102.32 -2.29004 -140.603 32.1904
c-35.8408 32.2842 -55.4033 77.2842 -69.4326 122.343c-18.2783 58.7217 -30.5352 118.757 -38.0791 179.513c-33.7598 -12.2275 -67.125 -25.4727 -99.752 -40.1992c-27.0713 -12.2217 -41.4551 17.1797 -14.9248 30.5986c36.4971 18.458 73.0879 36.248 110.097 53.0381
c-12.582 143.062 -0.900391 289.343 18.6152 431.393c-64.3066 -24.1074 -126.992 -52.0156 -189.91 -82.085c-28.9131 -13.8203 -41.7686 16.3545 -15.7148 32.2207c66.6309 40.5771 138.98 74.5645 213.26 102.821c1.56348 10.3506 3.13867 20.6895 4.75391 30.9824
c5.16113 32.918 44.3955 54.9854 73.8203 59.9834c22.4219 3.8125 68.3984 -4.27148 65.8525 -37.0205c-0.168945 -2.20312 -0.37207 -4.40039 -0.546875 -6.60254c6.33496 1.78418 12.6699 3.5625 18.9932 5.27148c66.7246 18.0508 135.309 33.5039 204.381 38.6123
c47.7256 3.52734 139.382 12.1924 165.232 -40.2354c14.1689 -28.7275 -35.2891 -55.4502 -58.0938 -43.5947c-24.4902 12.7334 -43.8545 20.666 -71.9189 22.6416c-30.8311 2.16797 -62.0869 0.255859 -92.7549 -3.07422
c-57.4775 -6.24805 -114.45 -18.6797 -170.388 -33.1621c-9.24609 -103.1 -20.6895 -206.188 -24.583 -309.572c-1.40625 -37.3057 -1.72559 -74.6455 -1.01074 -111.957c39.3682 13.7334 79.5215 25.4092 119.82 36.0098c40.874 10.752 87.1064 27.1465 129.526 26.9434
c15.7031 -0.0751953 31.0342 -6.89844 30.1504 -24.6182c-0.935547 -18.7891 -19.5039 -29.6396 -35.085 -35.3467c-38.9854 -14.2734 -84.2471 -17.4932 -124.842 -27.082c-39.5781 -9.3457 -78.6504 -20.3535 -117.693 -31.6865
c2.62695 -52.7881 7.56738 -105.454 15.2275 -157.806c10.002 -68.3633 36.9512 -201.394 137.54 -161.624c45.5693 18.0225 87.6689 58.751 122.923 91.8369c34.4922 32.3652 66.4795 67.3809 96.6885 103.757c62.8887 75.7266 117.879 157.515 172.602 239.204z" />
    <glyph glyph-name="E" unicode="&#xc9;" horiz-adv-x="862" 
d="M857.865 282.757c11.6523 17.3945 56.2939 17.5977 40.4746 -6.68359c-67.0322 -102.902 -134.628 -206.351 -216.974 -297.879c-67.2012 -74.6924 -155.97 -165.96 -257.651 -189.131c-49.248 -11.2227 -102.32 -2.29004 -140.603 32.1904
c-35.8408 32.2842 -55.4033 77.2842 -69.4326 122.343c-18.2783 58.7217 -30.5352 118.757 -38.0791 179.513c-33.7598 -12.2275 -67.125 -25.4727 -99.752 -40.1992c-27.0713 -12.2217 -41.4551 17.1797 -14.9248 30.5986c36.4971 18.458 73.0879 36.248 110.097 53.0381
c-12.582 143.062 -0.900391 289.343 18.6152 431.393c-64.3066 -24.1074 -126.992 -52.0156 -189.91 -82.085c-28.9131 -13.8203 -41.7686 16.3545 -15.7148 32.2207c66.6309 40.5771 138.98 74.5645 213.26 102.821c1.56348 10.3506 3.13867 20.6895 4.75391 30.9824
c5.16113 32.918 44.3955 54.9854 73.8203 59.9834c22.4219 3.8125 68.3984 -4.27148 65.8525 -37.0205c-0.168945 -2.20312 -0.37207 -4.40039 -0.546875 -6.60254c6.33496 1.78418 12.6699 3.5625 18.9932 5.27148c66.7246 18.0508 135.309 33.5039 204.381 38.6123
c47.7256 3.52734 139.382 12.1924 165.232 -40.2354c14.1689 -28.7275 -35.2891 -55.4502 -58.0938 -43.5947c-24.4902 12.7334 -43.8545 20.666 -71.9189 22.6416c-30.8311 2.16797 -62.0869 0.255859 -92.7549 -3.07422
c-57.4775 -6.24805 -114.45 -18.6797 -170.388 -33.1621c-9.24609 -103.1 -20.6895 -206.188 -24.583 -309.572c-1.40625 -37.3057 -1.72559 -74.6455 -1.01074 -111.957c39.3682 13.7334 79.5215 25.4092 119.82 36.0098c40.874 10.752 87.1064 27.1465 129.526 26.9434
c15.7031 -0.0751953 31.0342 -6.89844 30.1504 -24.6182c-0.935547 -18.7891 -19.5039 -29.6396 -35.085 -35.3467c-38.9854 -14.2734 -84.2471 -17.4932 -124.842 -27.082c-39.5781 -9.3457 -78.6504 -20.3535 -117.693 -31.6865
c2.62695 -52.7881 7.56738 -105.454 15.2275 -157.806c10.002 -68.3633 36.9512 -201.394 137.54 -161.624c45.5693 18.0225 87.6689 58.751 122.923 91.8369c34.4922 32.3652 66.4795 67.3809 96.6885 103.757c62.8887 75.7266 117.879 157.515 172.602 239.204z" />
    <glyph glyph-name="F" unicode="F" horiz-adv-x="748" 
d="M798.139 723.221c-44.3086 0.244141 -88.8311 -3.60547 -132.547 -10.8408c-37.2236 -6.17773 -74.209 -14.5059 -110.834 -24.3047c0.860352 -2.75488 1.46484 -5.68359 1.55762 -8.96094c3.3125 -117.524 2.70215 -235.014 2.8125 -352.55
c64.126 11.873 128.996 20.8633 193.896 22.2754c33.0166 0.720703 15.7676 -38.5781 -9.33301 -38.9912c-61.7959 -1.0166 -123.458 -8.99609 -184.504 -19.876c0.0527344 -20.457 0.139648 -40.9141 0.291016 -61.377c0.557617 -74.7383 3.25391 -149.32 5.77051 -224.007
c1.2959 -38.5029 3.8584 -76.9297 4.53809 -115.438c0.336914 -19.0391 -2.41211 -37.8047 -2.34863 -56.6924c0.0527344 -14.2275 1.27344 -23.1836 -4.81738 -36.4229c-14.1924 -30.8545 -59.4658 -25.2754 -75.2559 -1.24414
c-20.5791 31.3135 -26.4141 74.1924 -32.4287 110.486c-12.251 73.8955 -19.9805 148.088 -25.4727 222.71c-50.498 68.4326 -154.47 80.166 -236.212 68.5312c-31.627 -4.50391 -16.3652 32.1855 3.16211 38.4385c74.0352 23.7119 149.175 44.7324 224.931 62.5508
c-2.72559 115.892 0.139648 231.864 7.375 347.587c0.0751953 1.17969 0.244141 2.32422 0.37793 3.48047c-2.43555 -0.87207 -4.89355 -1.70312 -7.32324 -2.58105c-77.627 -28.0703 -152.627 -63.2832 -225.325 -102.285
c-35.8408 -19.2314 -70.6992 -39.9736 -105.087 -61.6748c-34.8584 -21.9971 -68.752 -49.6553 -106.83 -65.748c-8.47363 -3.58008 -26.0596 -6.74121 -30.6738 5.0625c-0.197266 0.494141 -0.388672 0.988281 -0.580078 1.48242
c-3.44043 8.79297 2.01074 18.6152 9.65332 23.8867c28.3145 34.957 72.7627 61.999 109.51 86.3496c39.4619 26.1523 79.9873 50.8467 121.431 73.7334c84.5723 46.6973 174.45 84.3691 265.909 115.275c96.6084 32.6445 197.256 58.4307 299.211 66.1367
c58.4424 4.41699 259.481 18.417 239.96 -84.0957c-6.12598 -32.1797 -66.9111 -50.417 -76.8438 -12.6348c-9.61816 36.5674 -94.835 31.5811 -123.969 31.7383zM320.336 235.303c38.2471 -6.16016 74.71 -18.7588 104.873 -39.541
c-1.17383 21.9736 -2.15039 43.9473 -2.89453 65.9326c-34.2314 -8.01465 -68.2129 -16.8193 -101.979 -26.3916z" />
    <glyph glyph-name="G" unicode="G" horiz-adv-x="885" 
d="M136.865 96.166c-56.5479 -8.61914 -119.545 -0.220703 -156.908 47.168c-33.8711 42.9658 -45.4072 95.8291 -41.3799 149.588c9.1709 122.447 76.9121 237.438 165.297 320.354c94.0215 88.2158 220.571 166.477 349.963 185.626
c60.0527 8.8916 120.494 3.00391 162.513 -44.5127c30.7617 -34.7891 52.9795 -81.2539 48.6152 -128.201c-1.59277 -17.1035 -42.7285 -27.9424 -42.1416 -6.92676c2.19727 78.3184 -75.3604 98.5312 -140.068 94.2129
c-65.2539 -4.35254 -132.396 -43.3086 -186.521 -77.5049c-110.48 -69.8047 -198.767 -175.362 -224.797 -305.771c-8.88574 -44.4883 -9.21094 -99.2285 16.6396 -138.301c37.0674 -56.0244 95.3643 -45.8887 148.896 -18.4404
c105.947 54.3223 180.547 151.651 260.051 237.13c34.0098 36.5615 76.5752 94.4873 132.938 89.5303c54.5312 -4.79492 89.7734 -76.668 101.484 -122.668c12.0771 -47.4473 16.4414 -96.1729 15.1807 -145.026c50.2598 20.2305 101.536 37.9043 153.493 52.8809
c32.9463 9.49609 30.3486 -29.6807 3.16699 -37.8867c-53.8164 -16.25 -107.156 -35.5156 -159.165 -57.9717c-6.24805 -69.5137 -22.6895 -138.586 -43.4199 -203.887c-41.6934 -131.327 -124.812 -251.223 -261.486 -294.572
c-53.5898 -16.999 -121.418 -18.3301 -166.749 19.7773c-50.9219 42.8037 -45.4824 113.776 -18.749 168.197c56.7979 115.601 178.251 187.648 284.942 250.933c21.2588 12.6113 42.8438 24.6826 64.7188 36.2246c0.90625 4.77148 1.84766 9.53711 2.70801 14.3145
c11.9609 66.4043 9.91504 130.827 7.47949 197.824c-0.453125 12.4482 2.23145 80.1318 -19.1152 75.8018c-9.50781 -1.92969 -21.875 -20.417 -28.6514 -27.3564c-10.6416 -10.8916 -21.0732 -21.9922 -31.4004 -33.1797
c-39.334 -42.5996 -76.9707 -86.7803 -117.618 -128.159c-77.0576 -78.4404 -168.121 -152.168 -279.915 -169.196zM557.536 -9.14746c13.332 39.6357 24.7354 79.9121 34.2666 120.629c-29.3662 -17.668 -57.9541 -36.5439 -85.502 -56.7803
c-54.6475 -40.1416 -110.87 -84.165 -150.11 -140.242c-18.5566 -26.5127 -36.0146 -58.4365 -32.5273 -91.9004c3.21973 -30.8896 23.0781 -53.2939 54.8213 -53.4512c44.8545 -0.220703 81.9502 36.1602 106.987 69.3975c33.7715 44.8369 54.3213 99.6064 72.0645 152.348
z" />
    <glyph glyph-name="H" unicode="H" horiz-adv-x="1097" 
d="M1091.79 284.181c5.97461 20.2422 52.0527 28.3926 44.7188 2.6875c-33.1787 -116.565 -67.2061 -236.031 -132.779 -339.253c-49.5449 -77.999 -141.823 -159.956 -240.785 -112.312c-99.1016 47.7139 -115.921 186.23 -128.875 282.374
c-14.1631 105.093 -15.3604 212.662 -7.70605 320.074c-79.5215 -11.542 -158.369 -27.2158 -237.152 -42.9307c-35.8057 -7.14258 -71.6289 -14.2383 -107.505 -21.0146c-1.27246 -20.457 -2.44629 -40.9316 -3.46289 -61.4121
c-3.90527 -78.6611 -6.02051 -157.566 -7.28125 -236.315c-1.15039 -71.792 5.84082 -158.643 -26.3789 -224.542c-5.69531 -11.6523 -34.6201 -24.3799 -42.2803 -8.32227c-23.5957 28.1807 -30.7031 65.126 -36.916 100.758
c-6.47461 37.1191 -10.6064 74.3369 -13.5186 111.881c-5.99805 77.377 -7.91602 154.638 -7.33496 232.241c0.157227 20.7773 0.523438 41.5654 1.08691 62.3477c-68.543 -10.2637 -143.665 -19.4053 -200.091 29.5176c-17.958 15.5693 20.5674 41.3496 36.5898 27.6455
c43.7852 -37.4395 106.371 -33.3076 164.634 -23.1084c4.88184 126.98 17.9004 253.699 42.124 378.425c11.4951 59.1748 134.762 85.0312 127.195 7.68945c-11.7334 -119.884 -23.6299 -239.768 -31.9004 -359.931c55.9785 10.8564 111.823 22.416 167.767 33.4121
c58.9424 11.583 118.064 22.5557 177.501 31.3662c11.2461 124.882 33.7959 249.131 61.2393 368.579c14.0059 60.9707 144.409 89.6104 133.722 8.08984c-15.5117 -118.298 -38.9502 -235.34 -53.3105 -353.812c-0.255859 -2.10938 -0.476562 -4.21875 -0.726562 -6.32812
c49.1787 3.72559 98.6367 4.05078 147.042 -4.15527c30.6221 -5.18945 1.68555 -42.3145 -20.9746 -38.4326c-42.623 7.2998 -86.5186 7.66016 -130.351 4.75391c-9.41504 -88.1582 -14.7441 -176.223 -12.4199 -265.171
c1.36621 -52.1543 6.37598 -103.844 12.9893 -155.568c5.39941 -42.2334 11.2051 -91.4414 38.2178 -126.276c10.6299 -13.71 26.3271 -28.5996 43.2803 -33.7314c25.9141 -7.83984 49.9512 8.63672 67.8691 26.0605c33.167 32.2432 57.2393 75.2793 78.1377 116.136
c43.541 85.1182 70.6641 177.217 97.6357 268.577z" />
    <glyph glyph-name="I" unicode="I" horiz-adv-x="631" 
d="M388.658 -265.549c-50.2539 -40.1592 -119.496 -57.4443 -173.429 -14.7344c-55.7227 44.1279 -55.3389 121.65 -54.915 186.236c0.470703 72.4658 9.91504 145.252 20.1963 216.87c20.1318 140.277 43.292 279.881 44.4951 421.948
c0.301758 35.0967 -0.459961 70.0771 -4.16211 105c-2.56836 24.2178 -3.89355 48.9463 -15.54 70.9092c-38.3398 72.3213 -118.861 28.7275 -168.558 -4.6377c-20.8291 -13.9775 -49.7715 5.27051 -24.8223 22.9668c57.4199 40.7227 113.235 64.6787 184.394 64.0625
c61.209 -0.535156 110.557 -55.7871 129.666 -109.598c46.5049 -130.961 38.2695 -273.365 24.9785 -409.074c-13.46 -137.406 -41.8965 -273.615 -51.8984 -411.318c-2.09766 -28.9072 -4.66016 -65.3057 14.0186 -89.9883
c5.27734 -6.97363 17.6504 -17.3066 27.2168 -19.7363c-1.08105 0.941406 7.06152 2.49902 8.06152 3.07422c5.44531 3.13281 11.1465 5.20215 16.4697 8.63086c52.9912 34.1201 84.0898 107.952 110.324 162.594c58.3496 121.54 99.3857 250.52 158.427 371.775
c10.3799 21.3232 58.1816 21.4512 44.2861 -7.31055c-66.9102 -138.534 -110.312 -287.5 -182.988 -423.36c-28.21 -52.7354 -58.751 -106.377 -106.221 -144.31z" />
    <glyph glyph-name="I" unicode="&#xcf;" horiz-adv-x="631" 
d="M388.658 -265.549c-50.2539 -40.1592 -119.496 -57.4443 -173.429 -14.7344c-55.7227 44.1279 -55.3389 121.65 -54.915 186.236c0.470703 72.4658 9.91504 145.252 20.1963 216.87c20.1318 140.277 43.292 279.881 44.4951 421.948
c0.301758 35.0967 -0.459961 70.0771 -4.16211 105c-2.56836 24.2178 -3.89355 48.9463 -15.54 70.9092c-38.3398 72.3213 -118.861 28.7275 -168.558 -4.6377c-20.8291 -13.9775 -49.7715 5.27051 -24.8223 22.9668c57.4199 40.7227 113.235 64.6787 184.394 64.0625
c61.209 -0.535156 110.557 -55.7871 129.666 -109.598c46.5049 -130.961 38.2695 -273.365 24.9785 -409.074c-13.46 -137.406 -41.8965 -273.615 -51.8984 -411.318c-2.09766 -28.9072 -4.66016 -65.3057 14.0186 -89.9883
c5.27734 -6.97363 17.6504 -17.3066 27.2168 -19.7363c-1.08105 0.941406 7.06152 2.49902 8.06152 3.07422c5.44531 3.13281 11.1465 5.20215 16.4697 8.63086c52.9912 34.1201 84.0898 107.952 110.324 162.594c58.3496 121.54 99.3857 250.52 158.427 371.775
c10.3799 21.3232 58.1816 21.4512 44.2861 -7.31055c-66.9102 -138.534 -110.312 -287.5 -182.988 -423.36c-28.21 -52.7354 -58.751 -106.377 -106.221 -144.31z" />
    <glyph glyph-name="I" unicode="&#xce;" horiz-adv-x="631" 
d="M388.658 -265.549c-50.2539 -40.1592 -119.496 -57.4443 -173.429 -14.7344c-55.7227 44.1279 -55.3389 121.65 -54.915 186.236c0.470703 72.4658 9.91504 145.252 20.1963 216.87c20.1318 140.277 43.292 279.881 44.4951 421.948
c0.301758 35.0967 -0.459961 70.0771 -4.16211 105c-2.56836 24.2178 -3.89355 48.9463 -15.54 70.9092c-38.3398 72.3213 -118.861 28.7275 -168.558 -4.6377c-20.8291 -13.9775 -49.7715 5.27051 -24.8223 22.9668c57.4199 40.7227 113.235 64.6787 184.394 64.0625
c61.209 -0.535156 110.557 -55.7871 129.666 -109.598c46.5049 -130.961 38.2695 -273.365 24.9785 -409.074c-13.46 -137.406 -41.8965 -273.615 -51.8984 -411.318c-2.09766 -28.9072 -4.66016 -65.3057 14.0186 -89.9883
c5.27734 -6.97363 17.6504 -17.3066 27.2168 -19.7363c-1.08105 0.941406 7.06152 2.49902 8.06152 3.07422c5.44531 3.13281 11.1465 5.20215 16.4697 8.63086c52.9912 34.1201 84.0898 107.952 110.324 162.594c58.3496 121.54 99.3857 250.52 158.427 371.775
c10.3799 21.3232 58.1816 21.4512 44.2861 -7.31055c-66.9102 -138.534 -110.312 -287.5 -182.988 -423.36c-28.21 -52.7354 -58.751 -106.377 -106.221 -144.31z" />
    <glyph glyph-name="I" unicode="&#xcd;" horiz-adv-x="631" 
d="M388.658 -265.549c-50.2539 -40.1592 -119.496 -57.4443 -173.429 -14.7344c-55.7227 44.1279 -55.3389 121.65 -54.915 186.236c0.470703 72.4658 9.91504 145.252 20.1963 216.87c20.1318 140.277 43.292 279.881 44.4951 421.948
c0.301758 35.0967 -0.459961 70.0771 -4.16211 105c-2.56836 24.2178 -3.89355 48.9463 -15.54 70.9092c-38.3398 72.3213 -118.861 28.7275 -168.558 -4.6377c-20.8291 -13.9775 -49.7715 5.27051 -24.8223 22.9668c57.4199 40.7227 113.235 64.6787 184.394 64.0625
c61.209 -0.535156 110.557 -55.7871 129.666 -109.598c46.5049 -130.961 38.2695 -273.365 24.9785 -409.074c-13.46 -137.406 -41.8965 -273.615 -51.8984 -411.318c-2.09766 -28.9072 -4.66016 -65.3057 14.0186 -89.9883
c5.27734 -6.97363 17.6504 -17.3066 27.2168 -19.7363c-1.08105 0.941406 7.06152 2.49902 8.06152 3.07422c5.44531 3.13281 11.1465 5.20215 16.4697 8.63086c52.9912 34.1201 84.0898 107.952 110.324 162.594c58.3496 121.54 99.3857 250.52 158.427 371.775
c10.3799 21.3232 58.1816 21.4512 44.2861 -7.31055c-66.9102 -138.534 -110.312 -287.5 -182.988 -423.36c-28.21 -52.7354 -58.751 -106.377 -106.221 -144.31z" />
    <glyph glyph-name="J" unicode="J" horiz-adv-x="814" 
d="M578.335 191.27c3.83008 43.4658 5.31738 86.5312 5.99121 127.399c1.49316 90.0527 0.254883 179.495 -8.48633 269.188c-6.36426 65.3291 -10.3105 177.524 -92.9648 188.421c-42.751 5.6377 -86.8213 -5.96875 -127.689 -17.4121
c-39.6592 -11.1064 -78.4873 -24.9678 -116.281 -41.334c-78.2783 -33.8994 -151.657 -77.4346 -221.502 -126.224c-22.1953 -15.5059 -53.0322 5.72461 -26.5312 24.5488c91.3896 64.9053 188.847 121.18 294.23 160.077c93.1211 34.3701 209.419 69.083 300.691 11.9424
c38.3398 -24.002 66.0264 -50.3291 86.3096 -91.4062c22.9971 -46.5752 35.5615 -98.7354 44.8252 -149.547c17.168 -94.1553 21.2764 -192.188 15.9873 -287.9c31.999 11.4082 64.4863 21.5381 97.4268 30.2031c31.7725 8.35742 29.7969 -29.5059 3.05176 -36.4854
c-34.7598 -9.07227 -69.2402 -19.876 -103.238 -32.2549c-17.0518 -186.445 -96.1611 -400.572 -279.463 -480.094c-72.5713 -31.4883 -193.652 -41.8682 -238.821 40.6465c-22.7178 41.4961 0.366211 92.7842 22.7295 129.421
c25.2168 41.3154 59.0645 74.6748 94.6611 106.988c75.4072 68.4502 159.282 126.741 249.073 173.822zM477.797 -119.278c57.5713 75.3896 83.9053 171.8 96.1328 269.07c-79.7891 -43.8203 -154.005 -97.584 -218.735 -160.902
c-40.0371 -39.1592 -138.609 -157.985 -34.458 -185.236c62.4639 -16.3428 121.72 30.7959 157.061 77.0684z" />
    <glyph glyph-name="K" unicode="K" horiz-adv-x="732" 
d="M771.323 255.587c-37.6367 -96.335 -75.6729 -192.539 -127.025 -282.562c-37.7881 -66.2539 -89.8838 -130.403 -172.341 -135.326c-15 -0.894531 -8.46191 -0.365234 -21.8809 -1.45801c-9.78711 -0.795898 -18.627 0.163086 -28.0537 2.52246
c-19.6318 4.91113 -36.8574 15.8604 -51.6191 29.5527c-29.0645 26.9551 -46.1738 63.0977 -56.751 100.676c-25.2227 89.6045 -26.083 184.097 -45.959 274.689c-7.47363 34.0625 -22.5605 69.3047 -60.2148 75.6689c-20.9336 3.53906 -42.4482 -1.10449 -63.4746 -1.15723
c-12.4082 -0.0292969 -24.1826 0.65625 -36.166 0.65625c-0.191406 -5.98633 -0.476562 -11.9609 -0.62793 -17.9473c-1.94141 -76.4473 -0.320312 -153.074 2.64941 -229.475c1.45898 -37.4619 3.46973 -74.9121 5.19043 -112.362
c1.66797 -36.2705 6.16602 -76.0576 -4.73047 -111.213c-6.13672 -19.7949 -44.8604 -45.0293 -62.4463 -23.5957c-24.3164 29.6279 -31.3721 69.7578 -39.0498 106.493c-7.93262 37.9443 -13.6982 76.0225 -18.4521 114.49
c-9.28711 75.1396 -13.041 150.709 -13.7559 226.4c-1.4707 156.788 13.6689 313.675 45.9355 467.081c12.4258 59.0586 140.318 84.5898 127.788 7.72949c-20.1318 -123.429 -34.0156 -247.822 -40.2578 -372.692c72.0186 57.5879 130.106 129.821 190.984 198.975
c33.7598 38.3457 68.6885 75.6855 107.005 109.551c31.0225 27.4199 72.4131 66.3525 116.873 46.9766c24.915 -10.8623 -10.374 -42.5654 -30.0762 -34.04c-19.0039 8.22363 -55.1064 -32.3135 -67.2646 -43.4482c-16.5342 -15.1455 -32.2959 -31.1572 -47.6738 -47.4707
c-29.5234 -31.3193 -57.4023 -64.1318 -85.5137 -96.7061c-32.7021 -37.8984 -65.957 -75.5234 -101.873 -110.295c19.1318 5.67773 39.3154 8.9209 59.0518 8.87988c52.8867 -0.110352 98.4561 -30.1748 124.155 -75.5059
c25.1475 -44.3604 29.3613 -103.576 36.8584 -153.249c8.18262 -54.2295 16.0576 -108.406 23.125 -162.769c2.99902 -23.0547 6.99121 -45.6387 17.4814 -66.5898c9.33398 -18.6436 23.8047 -28.4014 37.4102 -43.2852c9.16504 -10.0371 5.18359 -13.8145 16.9004 -10.7168
c10.4375 2.76074 18.3994 3.66113 28.041 9.08887c23.0605 12.9834 39.8213 38.2822 53.7988 59.9424c58.6172 90.8486 97.2939 194.547 136.802 294.636c7.28809 18.4697 54.4092 21.5381 45.1572 -2.14453z" />
    <glyph glyph-name="L" unicode="L" horiz-adv-x="431" 
d="M120.771 65.6494c-1.13867 -40.6533 -3.66309 -81.2656 -9.7832 -121.244c-9.82227 -64.1035 -24.1191 -147.24 -76.1338 -191.892c-45.5869 -39.1357 -102.507 -40.5186 -155.445 -15.1621c-49.7305 23.8105 -68.8975 75.8369 -52.3574 127.812
c17.0049 53.4268 63.4053 94.3408 105.883 128.159c16.7432 13.3262 34.1846 25.7461 52.0732 37.5088c-0.917969 75.8428 -5.50293 151.802 -5.48535 227.453c0.0292969 130.177 3.74316 262.178 26.7812 390.506c5.68945 31.7031 42.1523 52.7705 70.9727 57.6699
c22.4502 3.8125 64.6377 -4.11426 63.3125 -35.5967c-3.65527 -86.9434 -11.9541 -173.55 -15.7666 -260.493c-3.6377 -82.8516 -2.51562 -165.541 -2.92871 -248.416c-0.0927734 -18.4814 -0.139648 -37.0557 -0.331055 -55.6592
c47.9004 22.9385 96.7188 43.9424 144.968 66.1377c60.5176 27.8379 121.441 57.5186 167.824 106.622c14.5928 15.4473 50.7305 7.96777 31.8828 -14.5527c-78.0459 -93.2314 -205.909 -132.257 -312.449 -182.859c-11.0361 -5.24219 -22.0498 -10.5713 -33.0166 -15.9932z
M-60.1318 -236.042c38.7412 -6.66016 38.2412 100.455 40.4434 124.179c3.02832 32.668 4.35938 65.3994 4.72559 98.1719c-38.5488 -26.9375 -78.3418 -59.1113 -100.642 -99.2354c-29.3145 -52.7471 -6.77051 -112.416 55.4727 -123.115z" />
    <glyph glyph-name="M" unicode="M" horiz-adv-x="1012" 
d="M254.271 453.349c-19.1377 -51.5732 -35.9307 -103.979 -51.4482 -156.731c-31.9707 -108.714 -60.0469 -218.666 -70.3398 -331.814c-0.296875 -3.25488 -1.98828 -6.24219 -4.49902 -8.8457c0.220703 -1.83105 0.412109 -3.64453 0.632812 -5.47559
c4.11426 -33.7432 -61.6855 -71.2344 -85.0781 -41.4961c-38.3047 48.6904 -50.0439 114.124 -59.6104 174.27c-9.63574 60.5752 -12.5186 123.226 -13.2217 184.498c-1.51074 131.048 9.47363 262.91 37.0908 391.029c12.8379 59.5527 139.423 86.6582 129.566 7.83398
c-15.0527 -120.401 -26.8623 -240.948 -29.46 -362.297c-1.3252 -61.8887 0.453125 -122.818 4.43457 -183.632c11.7275 58.2334 26.5996 115.874 43.1631 173.056c16.2959 56.2627 34.0566 112.125 54.5547 167.005c17.999 48.1787 35.8643 98.793 66.0215 140.922
c23.084 32.249 73.0762 59.7617 109.894 29.4307c38.3633 -31.5986 39.6709 -101.775 42.9316 -146.851c4.19043 -57.9717 1.64453 -116.089 1.03418 -174.107c-0.0175781 -1.66211 0 -3.32422 -0.0117188 -4.98047c24.624 79.7598 52.3223 158.525 87.6572 234.147
c21.9971 47.0693 50.748 100.606 95.7246 129.606c41.0537 26.4668 98.5605 17.3652 129.886 -20.0332c37.2764 -44.5117 49.3242 -111.521 56.3564 -167.621c8.04297 -64.1377 3.73047 -130.996 -0.314453 -195.309c-4.06836 -64.6494 -10.165 -129.618 -9.52539 -194.437
c0.307617 -31.627 4.63184 -62.0801 8.85742 -93.2891c3.28906 -24.2754 5.61914 -60.6738 41.4248 -56.8613c26.6816 2.83594 44.5469 41.6113 56.1699 62.208c14.6396 25.9258 27.7969 52.665 39.8623 79.8809c26.3564 59.4424 47.3604 121.035 68.3926 182.5
c7.08984 20.7188 55.333 28.7158 46.5225 2.81348c-22.0498 -64.8125 -44.2217 -129.735 -71.9141 -192.409c-23.1426 -52.3691 -50.0332 -120.471 -96.7363 -156.753c-42.2803 -32.8477 -93.2842 -26.3564 -136.14 1.33594
c-25.3389 16.377 -45.2617 29.7559 -60.9531 56.4434c-15.2676 25.9668 -23.5957 54.3457 -29.4541 83.7295c-12.1289 60.8311 -5.89258 124.923 -1.38867 186.225c4.87598 66.3232 10.2637 132.251 13.0645 198.708c1.39453 33.1211 1.59766 66.5557 -0.34375 99.665
c-1.30762 22.2939 3.01074 64.998 -9.97266 84.5195c-29.4658 44.291 -96.748 -97.6484 -106.797 -120.221c-50.0684 -112.479 -85.8682 -230.666 -120.809 -348.562c-0.854492 -11.1406 -2.55762 -22.0264 -5.94629 -32.1738
c-15.4189 -46.1797 -93.1104 -84.1475 -126.017 -34.0332c-22.5146 34.2949 -18.2314 92.0107 -16.3428 131.542c2.17969 45.7148 6.98047 91.7959 12.3799 137.243c5.2832 44.4541 11.5078 88.7861 16.0176 133.339c0.790039 7.77637 8.58984 67.8926 6.89844 93.9697
c-12.4316 -15.3545 -22.4219 -41.792 -28.1641 -54.2061c-12.6406 -27.3438 -23.5781 -55.5537 -34.0508 -83.7812z" />
    <glyph glyph-name="N" unicode="N" horiz-adv-x="772" 
d="M767.848 274.685c6.45703 19.2422 51.0371 26.501 42.9531 2.5918c-27.3789 -81.0791 -54.8975 -162.385 -90.5527 -240.291c-27.4951 -60.0928 -60.7559 -148.314 -125.568 -177.675c-58.7158 -26.6006 -123.29 20.7588 -152.209 69.3506
c-38.7588 65.1318 -45.9482 150.157 -46.3086 224.222c-0.383789 79.4111 7.68848 159.09 14.3662 238.164c6.86914 81.376 6.76465 162.734 8.31055 244.227c0.407227 21.335 2.14453 113.578 -38.2988 90.1572c-27.71 -16.0459 -45.2842 -57.373 -58.8662 -84.9961
c-35.835 -72.8965 -63.1094 -150.366 -88.6289 -227.365c-49.8301 -150.366 -89.6631 -304.068 -121.162 -459.281c-0.807617 -10.333 -3.07422 -20.3584 -8.47949 -29.6396c-7.85156 -13.4893 -25.6123 -23.0615 -41.3799 -20.1846
c-57.4492 10.4902 -61.4941 101.874 -67.8525 147.833c-8.68848 62.8418 -12.9717 126.829 -14.1396 190.264c-2.42969 131.571 -1.5752 268.35 21.1426 398.247c5.34668 30.5635 40.752 50.9102 68.4443 55.6172c22.4502 3.81836 61.3193 -4.00391 61.0518 -34.3232
c-1.11035 -126.282 -16.9121 -252.21 -18.5049 -378.655c-0.557617 -44.3145 -0.749023 -88.5938 -0.841797 -132.879c26.6699 109.086 58.0068 217.097 95.4287 322.73c24.1182 68.084 49.1836 138.493 84.7979 201.544c27.5996 48.8594 74.1104 111.533 138.307 94.8828
c70.6875 -18.3301 95.3232 -93.7891 106.778 -158.148c14.1572 -79.5273 13.1865 -161.402 9.37988 -241.871c-3.69043 -78.1152 -6.45117 -156.149 -8.00293 -234.328c-0.77832 -39.4443 -2.49316 -79.167 0.697266 -118.559
c1.46484 -18.0449 3.01074 -36.4854 6.93945 -54.1875c3.32422 -14.9648 5.48047 -37.4443 12.2686 -50.8057c24.9668 -49.1553 68.4854 28.4482 80.2715 48.3125c17.8184 30.0352 33.1963 61.4414 47.4004 93.3301c32.1094 72.0713 57.1699 146.99 82.2588 221.717z" />
    <glyph glyph-name="O" unicode="O" horiz-adv-x="678" 
d="M221.842 -168.784c-106.227 -8.83984 -198.383 55.2891 -245.603 147.532c-54.1768 105.837 -40.9609 228.767 -28.21 342.508c3.35938 29.9531 36.6484 50.916 68.2871 54.9844c-74.7734 168.446 24.2988 421.936 217.585 448.844
c99.7178 13.8838 182.819 -54.4912 232.823 -134.652c60.6455 -97.2129 86.3213 -222.839 87.8262 -336.098c0.413086 -31.1973 -0.394531 -62.9639 -2.78906 -94.7539c47.2373 10.833 93.4639 26.2109 138.324 45.4414c25.7109 11.0186 39.5254 -16.4707 14.1338 -28.9717
c-49.7891 -24.5195 -102.298 -42.8086 -156.189 -55.0771c-8.60156 -71.4492 -26.5771 -141.87 -59.6631 -204.956c-52.0088 -99.1709 -153.237 -175.374 -266.525 -184.801zM409.781 126.419c7.31738 25.4668 13.3799 51.2666 18.4014 77.2744
c-32.2666 -2.05176 -64.6787 -2.08691 -96.9863 -0.111328c-92.7139 5.66602 -191.81 28.6689 -259.58 93.7656c-8.35742 -91.1973 -11.8564 -187.823 35.1777 -269.048c35.6201 -61.5225 105.953 -108.354 172.898 -81.1543
c70.3154 28.5703 109.521 107.702 130.089 179.273zM39.6689 528.521c-5.99219 -90.9238 33.1836 -183.54 112.321 -232.184c75.1865 -46.2148 170.609 -56.8789 257.128 -54.8564c8.60742 0.197266 17.1797 0.621094 25.7402 1.14453
c8.60742 56.9258 12.4434 114.636 12.7744 172.021c0.529297 92.5918 -7.58984 195.941 -52.3164 278.897c-43.5469 80.7773 -143.305 119.466 -225.25 71.2754c-78.708 -46.29 -124.58 -147.995 -130.397 -236.298z" />
    <glyph glyph-name="O" unicode="&#xd6;" horiz-adv-x="678" 
d="M221.842 -168.784c-106.227 -8.83984 -198.383 55.2891 -245.603 147.532c-54.1768 105.837 -40.9609 228.767 -28.21 342.508c3.35938 29.9531 36.6484 50.916 68.2871 54.9844c-74.7734 168.446 24.2988 421.936 217.585 448.844
c99.7178 13.8838 182.819 -54.4912 232.823 -134.652c60.6455 -97.2129 86.3213 -222.839 87.8262 -336.098c0.413086 -31.1973 -0.394531 -62.9639 -2.78906 -94.7539c47.2373 10.833 93.4639 26.2109 138.324 45.4414c25.7109 11.0186 39.5254 -16.4707 14.1338 -28.9717
c-49.7891 -24.5195 -102.298 -42.8086 -156.189 -55.0771c-8.60156 -71.4492 -26.5771 -141.87 -59.6631 -204.956c-52.0088 -99.1709 -153.237 -175.374 -266.525 -184.801zM409.781 126.419c7.31738 25.4668 13.3799 51.2666 18.4014 77.2744
c-32.2666 -2.05176 -64.6787 -2.08691 -96.9863 -0.111328c-92.7139 5.66602 -191.81 28.6689 -259.58 93.7656c-8.35742 -91.1973 -11.8564 -187.823 35.1777 -269.048c35.6201 -61.5225 105.953 -108.354 172.898 -81.1543
c70.3154 28.5703 109.521 107.702 130.089 179.273zM39.6689 528.521c-5.99219 -90.9238 33.1836 -183.54 112.321 -232.184c75.1865 -46.2148 170.609 -56.8789 257.128 -54.8564c8.60742 0.197266 17.1797 0.621094 25.7402 1.14453
c8.60742 56.9258 12.4434 114.636 12.7744 172.021c0.529297 92.5918 -7.58984 195.941 -52.3164 278.897c-43.5469 80.7773 -143.305 119.466 -225.25 71.2754c-78.708 -46.29 -124.58 -147.995 -130.397 -236.298z" />
    <glyph glyph-name="O" unicode="&#xd5;" horiz-adv-x="678" 
d="M221.842 -168.784c-106.227 -8.83984 -198.383 55.2891 -245.603 147.532c-54.1768 105.837 -40.9609 228.767 -28.21 342.508c3.35938 29.9531 36.6484 50.916 68.2871 54.9844c-74.7734 168.446 24.2988 421.936 217.585 448.844
c99.7178 13.8838 182.819 -54.4912 232.823 -134.652c60.6455 -97.2129 86.3213 -222.839 87.8262 -336.098c0.413086 -31.1973 -0.394531 -62.9639 -2.78906 -94.7539c47.2373 10.833 93.4639 26.2109 138.324 45.4414c25.7109 11.0186 39.5254 -16.4707 14.1338 -28.9717
c-49.7891 -24.5195 -102.298 -42.8086 -156.189 -55.0771c-8.60156 -71.4492 -26.5771 -141.87 -59.6631 -204.956c-52.0088 -99.1709 -153.237 -175.374 -266.525 -184.801zM409.781 126.419c7.31738 25.4668 13.3799 51.2666 18.4014 77.2744
c-32.2666 -2.05176 -64.6787 -2.08691 -96.9863 -0.111328c-92.7139 5.66602 -191.81 28.6689 -259.58 93.7656c-8.35742 -91.1973 -11.8564 -187.823 35.1777 -269.048c35.6201 -61.5225 105.953 -108.354 172.898 -81.1543
c70.3154 28.5703 109.521 107.702 130.089 179.273zM39.6689 528.521c-5.99219 -90.9238 33.1836 -183.54 112.321 -232.184c75.1865 -46.2148 170.609 -56.8789 257.128 -54.8564c8.60742 0.197266 17.1797 0.621094 25.7402 1.14453
c8.60742 56.9258 12.4434 114.636 12.7744 172.021c0.529297 92.5918 -7.58984 195.941 -52.3164 278.897c-43.5469 80.7773 -143.305 119.466 -225.25 71.2754c-78.708 -46.29 -124.58 -147.995 -130.397 -236.298z" />
    <glyph glyph-name="O" unicode="&#xd4;" horiz-adv-x="678" 
d="M221.842 -168.784c-106.227 -8.83984 -198.383 55.2891 -245.603 147.532c-54.1768 105.837 -40.9609 228.767 -28.21 342.508c3.35938 29.9531 36.6484 50.916 68.2871 54.9844c-74.7734 168.446 24.2988 421.936 217.585 448.844
c99.7178 13.8838 182.819 -54.4912 232.823 -134.652c60.6455 -97.2129 86.3213 -222.839 87.8262 -336.098c0.413086 -31.1973 -0.394531 -62.9639 -2.78906 -94.7539c47.2373 10.833 93.4639 26.2109 138.324 45.4414c25.7109 11.0186 39.5254 -16.4707 14.1338 -28.9717
c-49.7891 -24.5195 -102.298 -42.8086 -156.189 -55.0771c-8.60156 -71.4492 -26.5771 -141.87 -59.6631 -204.956c-52.0088 -99.1709 -153.237 -175.374 -266.525 -184.801zM409.781 126.419c7.31738 25.4668 13.3799 51.2666 18.4014 77.2744
c-32.2666 -2.05176 -64.6787 -2.08691 -96.9863 -0.111328c-92.7139 5.66602 -191.81 28.6689 -259.58 93.7656c-8.35742 -91.1973 -11.8564 -187.823 35.1777 -269.048c35.6201 -61.5225 105.953 -108.354 172.898 -81.1543
c70.3154 28.5703 109.521 107.702 130.089 179.273zM39.6689 528.521c-5.99219 -90.9238 33.1836 -183.54 112.321 -232.184c75.1865 -46.2148 170.609 -56.8789 257.128 -54.8564c8.60742 0.197266 17.1797 0.621094 25.7402 1.14453
c8.60742 56.9258 12.4434 114.636 12.7744 172.021c0.529297 92.5918 -7.58984 195.941 -52.3164 278.897c-43.5469 80.7773 -143.305 119.466 -225.25 71.2754c-78.708 -46.29 -124.58 -147.995 -130.397 -236.298z" />
    <glyph glyph-name="O" unicode="&#xd3;" horiz-adv-x="678" 
d="M221.842 -168.784c-106.227 -8.83984 -198.383 55.2891 -245.603 147.532c-54.1768 105.837 -40.9609 228.767 -28.21 342.508c3.35938 29.9531 36.6484 50.916 68.2871 54.9844c-74.7734 168.446 24.2988 421.936 217.585 448.844
c99.7178 13.8838 182.819 -54.4912 232.823 -134.652c60.6455 -97.2129 86.3213 -222.839 87.8262 -336.098c0.413086 -31.1973 -0.394531 -62.9639 -2.78906 -94.7539c47.2373 10.833 93.4639 26.2109 138.324 45.4414c25.7109 11.0186 39.5254 -16.4707 14.1338 -28.9717
c-49.7891 -24.5195 -102.298 -42.8086 -156.189 -55.0771c-8.60156 -71.4492 -26.5771 -141.87 -59.6631 -204.956c-52.0088 -99.1709 -153.237 -175.374 -266.525 -184.801zM409.781 126.419c7.31738 25.4668 13.3799 51.2666 18.4014 77.2744
c-32.2666 -2.05176 -64.6787 -2.08691 -96.9863 -0.111328c-92.7139 5.66602 -191.81 28.6689 -259.58 93.7656c-8.35742 -91.1973 -11.8564 -187.823 35.1777 -269.048c35.6201 -61.5225 105.953 -108.354 172.898 -81.1543
c70.3154 28.5703 109.521 107.702 130.089 179.273zM39.6689 528.521c-5.99219 -90.9238 33.1836 -183.54 112.321 -232.184c75.1865 -46.2148 170.609 -56.8789 257.128 -54.8564c8.60742 0.197266 17.1797 0.621094 25.7402 1.14453
c8.60742 56.9258 12.4434 114.636 12.7744 172.021c0.529297 92.5918 -7.58984 195.941 -52.3164 278.897c-43.5469 80.7773 -143.305 119.466 -225.25 71.2754c-78.708 -46.29 -124.58 -147.995 -130.397 -236.298z" />
    <glyph glyph-name="P" unicode="P" horiz-adv-x="673" 
d="M690.066 302.343c31.7666 8.53711 29.667 -29.2715 3.05469 -36.501c-46.9932 -12.7393 -94.8467 -18.9287 -142.921 -23.9385c-7.95605 -21.4746 -17.5449 -42.3848 -29.0752 -62.4814c-43.0938 -75.0869 -119.582 -148.628 -210.826 -153.039
c-79.3936 -3.83594 -147.123 63.9463 -99.1475 140.603c41.5479 66.3984 127.724 86.1934 199.725 97.5264c9.1709 1.44727 18.3711 2.69727 27.5771 3.87109c5.00977 15.4883 9.24023 31.29 12.8672 47.249c15.0635 66.2246 17.1152 135.523 9.15332 202.887
c-5.81738 49.2197 -7.22363 155.44 -67.4971 173.84c-38.293 11.6934 -69.6699 -39.6123 -85.5479 -66.916c-16.1797 -27.8203 -28.7617 -57.5127 -39.2402 -87.8965c-23.3574 -67.7412 -39.8799 -138.261 -54.793 -208.269
c-29.5762 -138.83 -47.749 -279.979 -55.9844 -421.657c3.22559 -35.9102 5.93359 -71.0361 -2.70215 -106.609c-4.51562 -18.5977 -38.8281 -37.6016 -54.2637 -20.5039c-26.873 29.7559 -37.834 65.5557 -48.7021 103.448
c-11.1934 39.0254 -20.1553 79.1494 -27.1875 119.128c-13.4951 76.7383 -23.0322 154.54 -27.7109 232.312c-9.64746 160.293 -7.11328 323.201 17.459 482.11c9.32812 60.3086 134.803 85.0547 127.788 7.72949c-13.9248 -153.54 -22.8457 -306.72 -15.4531 -460.91
c1.93555 -40.3506 4.41699 -80.6318 7.51465 -120.86c16.1973 119.105 40.165 237.176 73.832 352.154c21.8574 74.6396 52.2178 162.588 116.105 212.121c62.7549 48.6494 143.224 31.168 188.41 -31.3604c51.1143 -70.7344 70.2178 -167.099 69.125 -252.979
c-0.616211 -48.1035 -6.32324 -96.2764 -18.9111 -142.509c42.8496 4.40527 85.4844 10.1992 127.352 21.4502zM326.007 115.324c21.3115 8.45605 38.8633 25.9756 53.4619 42.998c18.1445 21.1426 32.2031 44.5928 43.4023 69.4258
c-29.1279 -4.31836 -58.1113 -10.0664 -86.1182 -19.0576c-25.9434 -8.32812 -81.5791 -31.7148 -71.3857 -68.5264c6.92188 -24.9902 39.415 -33.2607 60.6396 -24.8398z" />
    <glyph glyph-name="Q" unicode="Q" horiz-adv-x="621" 
d="M629.224 308.956c29.46 11.7861 46.0713 -21.0449 16.1064 -33.04c-45.6572 -18.2666 -92.5986 -32.9004 -140.354 -43.623c-19.2197 -105.907 -63.1621 -213.255 -153.761 -276.701c20.1611 3.54492 46.4941 -1.3252 44.9834 -27.1465
c-1.5166 -25.874 -30.0059 -40.2402 -52.4102 -43.1406c-93.6387 -12.1055 -194.582 -34.3643 -280.84 -73.6045c-27.7686 -12.6348 -42.542 17.6387 -15.3203 31.4062c34.7539 17.5742 68.5312 35.335 103.692 50.9971c-42.3096 2.04004 -83.584 14.5527 -119.64 40.9961
c-79.0098 57.9482 -83.7637 171.945 -72.5176 260.307c6.74121 52.9971 21.1543 105.604 42.791 154.958c-3.17871 5.9043 -6.13672 12.0068 -8.80469 18.3711c-74.2275 177.141 81.875 407.099 276.869 385.653c222.152 -24.4326 263.555 -295.543 240.912 -482.512
c40.2578 9.29883 79.8184 21.6836 118.292 37.0791zM190.575 710.097c-123.911 -30.8428 -189.625 -180.022 -156.01 -297.059c14.9707 24.6123 31.9062 47.9756 50.8936 69.5312c28.9189 32.8359 99.5664 18.0215 64.4814 -29.4365
c-27.8379 -37.6602 -51.4102 -78.6562 -68.5664 -122.058c3.54492 -3.6377 7.26465 -7.15918 11.1699 -10.5537c70.9785 -61.709 171.103 -71.5596 261.353 -68.9033c10.2637 0.301758 20.5156 0.835938 30.7441 1.5332c3.23145 19.126 5.73633 38.0195 7.6543 56.1523
c9.12402 86.333 5.98535 183.609 -21.1904 266.77c-26.5068 81.1084 -86.083 157.532 -180.529 134.023zM315.184 66.8164c30.5176 41.2803 49.5449 93.6094 61.6387 146.624c-33.8711 -2.38281 -67.9336 -2.7666 -102.054 -0.895508
c-72.2686 3.96387 -151.528 22.6953 -210.401 66.5332c-7.01465 -26.8555 -11.4951 -54.4209 -12.8896 -82.5322c-3.7373 -75.5234 12.6055 -171.097 97.2236 -194.826c63.7139 -17.8652 129.159 14.5986 166.482 65.0967z" />
    <glyph glyph-name="R" unicode="R" horiz-adv-x="730" 
d="M659.349 -27.8438c-43.21 -80.9277 -104.902 -154.958 -205.404 -144.503c-82.5264 8.57812 -149.878 70.415 -186.497 142.073c-20.1611 39.4561 -30.4014 82.6484 -43.0479 124.899c-6.86328 22.9326 -14.1104 45.7666 -22.9619 68.0254
c-5.34668 13.4365 -12.9424 26.6172 -18.7363 40.1816c-17.2666 -102.536 -28.5645 -206.397 -41.2686 -308.294c-0.0292969 -0.267578 -0.145508 -0.5 -0.192383 -0.761719c0.00585938 -5.5791 0.453125 -10.9316 2.08008 -15.2441
c11.9951 -31.8135 -36.9746 -51.7881 -59.5938 -36.5029c-27.9775 18.8994 -35.207 43.4482 -43.7441 75.5117c-9.01953 33.9053 -15.8662 68.8975 -21.8867 103.46c-12.2051 70.0889 -21.6553 140.742 -27.3857 211.65c-11.5479 142.904 -14.7031 291.33 15.4014 432.241
c11.8789 55.6006 128.322 80.9102 120.668 7.29883c-13.9189 -133.891 -21.0322 -266.421 -13.0059 -401.015c2.85352 -47.8125 6.52051 -95.6309 10.8789 -143.362c10.5078 70.5596 22.7881 140.817 38.6543 210.319c24.9727 109.382 61.5107 218.316 126.747 310.688
c49.8701 70.6182 158.515 183.436 251.095 113.213c88.751 -67.3232 26.1875 -208.972 -20.0908 -283.321c-30.1045 -48.3652 -66.2705 -91.4941 -106.517 -131.677c-21.4395 -21.4102 -43.7393 -41.9893 -66.2949 -62.2139
c-10.415 -9.33984 -20.9521 -18.5459 -31.5586 -27.6699c-2.10352 -1.80762 -4.20117 -3.75488 -6.31641 -5.69629c5.38184 -11.6006 13.0244 -23.7061 16.7324 -33.1963c7.46777 -19.1094 13.7734 -38.6543 19.7715 -58.2627
c11.2285 -36.6895 22.585 -73.332 33.8887 -109.992c18.2666 -59.2441 41.9844 -136.993 99.9102 -169.551c75.7266 -42.5654 137.389 100.774 159.828 150.022c33.7432 74.0469 57.5713 152.087 81.4688 229.714c6.55566 21.2881 55.2578 29.5693 47.1152 2.84668
c-30.1748 -99.0723 -60.7559 -199.155 -109.737 -290.882zM255.207 332.97c30.8896 25.3213 61.1621 51.3691 89.4365 79.5967c57.1875 57.1113 110.132 120.186 144.334 193.988c15.8955 34.3008 40.9785 88.791 11.0713 122.917
c-35.8115 40.8623 -100.896 -13.96 -126.677 -41.333c-59.8779 -63.5859 -100.061 -143.427 -127.939 -225.552c-19.5508 -57.6055 -34.7598 -116.682 -47.1914 -176.53c16.9473 17.918 39.7578 32.8135 56.9658 46.9131z" />
    <glyph glyph-name="S" unicode="S" horiz-adv-x="520" 
d="M542.738 297.479c31.499 -0.0527344 14.8262 -36.3701 -8.85645 -37.0322c-67.9277 -1.88281 -138.395 -19.0625 -199.964 -50.1904c19.8643 -21.5615 37.5723 -45.0586 51.6367 -71.7168c37.0498 -70.2285 42.2568 -161.606 14.3721 -235.712
c-26.083 -69.3105 -92.4756 -134.651 -172.294 -124.847c-68.293 8.38672 -116.914 74.5645 -126.509 138.772c-10.6182 71.042 17.7783 140.416 60.2441 196.046c9.61816 12.5996 19.9746 24.6123 30.918 36.0732c-65.9336 58.9834 -144.188 107.744 -190.52 185.668
c-74.9365 126.044 -17.4238 293.293 108.533 361.813c52.5498 28.582 126.016 43.0244 180.059 10.2402c58.5645 -35.5273 55.3682 -109.812 43.1172 -168.499c-4.65527 -22.2998 -53.4912 -31.041 -47.709 -2.88867c7.99707 38.9385 14.6162 88.6289 -12.9658 121.884
c-29.2383 35.2539 -82.8574 30.0703 -120.936 14.4248c-81.4863 -33.4814 -116.699 -122.621 -82.3809 -203.491c29.1455 -68.6826 91.709 -112.113 148.298 -156.776c30.4883 -24.0605 61.4824 -48.0225 89.7568 -74.5068c71.9893 39.293 153.998 60.8662 235.199 60.7383z
M252.159 -167.615c70.1064 20.2012 57.873 132.985 38.7354 183.635c-16.04 42.46 -41.5996 76.6328 -71.5244 107.092c-32.8184 -36.5967 -58.3145 -79.9229 -67.7764 -126.144c-7.77051 -37.9502 -4.56836 -78.8066 13.46 -113.491
c16.3076 -31.3721 48.7656 -62.1396 87.1055 -51.0918z" />
    <glyph glyph-name="T" unicode="T" horiz-adv-x="733" 
d="M482.408 -166.232c-89.4834 33.7891 -106.851 159.776 -116.736 241.297c-13.2041 108.958 -9.07812 220.729 -5.96289 330.198c2.70801 95.0391 6.58398 190.037 14.5693 284.762c-66.7305 -13.8203 -133.676 -26.9492 -201.312 -35.3877
c-47.6094 -5.93945 -147.646 -21.2646 -173.921 33.6328c-9.6123 20.0967 32.3135 40.4316 41.9551 20.4629c16.9062 -35.0098 93.667 -22.916 124.126 -19.5742c40.9316 4.49219 81.6016 11.3965 122.045 19.0273c30.2148 5.69531 60.3252 11.9023 90.4062 18.2373
c0.529297 5.47461 1 10.9609 1.55762 16.4355c3.16113 31.0459 43.3896 52.375 70.0244 56.9023c23.0547 3.91699 62.6328 -4.10938 62.4639 -35.1211c-0.0175781 -3.49316 -0.104492 -6.99219 -0.139648 -10.4854c6.2998 1.22656 12.5938 2.4707 18.9053 3.65625
c77.918 14.6396 156.975 27.1348 236.502 22.8457c52.416 -2.82422 139.452 -15.4355 133.664 -86.9951c-2.01074 -24.8105 -49.4746 -37.9795 -46.9287 -7.71777c7.44434 88.5068 -205.677 59.4307 -342.63 32.8828c-4.74805 -225.07 -32.999 -451.57 -14.3613 -676.326
c3.97559 -47.918 5.8291 -98.3408 32.4756 -140.18c15.7559 -24.7402 33.7783 -31.6738 55.4971 -7.7002c18.8184 20.7773 32.4414 47.6104 45.3838 72.2988c52.3057 99.8047 79.3994 209.495 109.76 317.285c5.40527 19.1846 48.8301 28.1348 42.9658 2.59766
c-24.9092 -108.528 -53.9268 -217.898 -103.698 -318.046c-36.1377 -72.71 -100.456 -171.3 -196.61 -134.988z" />
    <glyph glyph-name="U" unicode="U" horiz-adv-x="874" 
d="M75.8789 -13.2686c-57.4492 94.4346 -52.623 222.486 -52.96 328.666c-0.185547 58.2969 0.0820312 116.426 -1.5166 174.706c-0.801758 29.2334 -1.99902 58.4492 -3.96875 87.6299c-0.923828 13.6113 -1.0752 27.5068 -2.82422 41.0303
c-0.592773 4.6084 -0.894531 11.7979 -2.04492 18.1729c-19.5742 -0.819336 -21.5215 24.0088 -2.20312 32.5176c20.2129 8.89746 44.8311 13.8428 66.125 6.125c24.8281 -8.99609 36.1143 -35.8115 44.5645 -59.082c20.3584 -56.0596 27.5244 -114.683 31.0059 -173.869
c6.26465 -106.412 1.20801 -213.511 15.5342 -319.44c5.9043 -43.6631 10.5361 -96.7822 42.3613 -130.461c13.9072 -14.7207 32.9053 -28.4307 53.7812 -22.8926c21.1318 5.6084 38.6426 23.8574 52.2363 39.8857c67.5029 79.5801 101.229 185.929 131.287 284.03
c26.7568 87.3213 48.1377 176.13 68.7109 265.084c1.43555 20.6719 2.96387 42.1055 10.0596 60.3828c10.8389 27.9365 52.1309 53.334 79.3643 29.9883c35.7998 -30.6914 32.2432 -93.3242 32.8711 -136.296c0.714844 -48.7549 -2.23145 -97.498 -3.52148 -146.229
c-2.5625 -96.5967 -7.6416 -194.402 4.06348 -290.621c4.93457 -40.5947 9.14258 -83.2119 29.2393 -119.738c26.7109 -48.5508 69.2178 -6.13086 89.6289 25.8623c52.375 82.0908 78.958 181.559 107.534 273.709c6.68359 21.5498 56.0195 29.8955 47.709 2.88867
c-31.3369 -101.815 -60.7734 -217.398 -123.505 -305.283c-27.0127 -37.8457 -67.6719 -66.585 -114.637 -72.3389c-50.1553 -6.14258 -92.3828 15.4707 -122.749 54.3975c-70.4844 90.3604 -66.6133 216.242 -62.5742 325.078
c0.203125 5.46875 0.476562 10.9375 0.738281 16.4004c-5.08496 -15.9883 -10.3506 -31.9297 -15.8486 -47.7959c-32.9404 -95.0684 -71.3389 -199.528 -147.565 -268.943c-34.1377 -31.0869 -79.8701 -50.8877 -126.375 -51.9805
c-52.7412 -1.23828 -98.1709 35.1084 -124.521 78.417z" />
    <glyph glyph-name="U" unicode="&#xdc;" horiz-adv-x="874" 
d="M75.8789 -13.2686c-57.4492 94.4346 -52.623 222.486 -52.96 328.666c-0.185547 58.2969 0.0820312 116.426 -1.5166 174.706c-0.801758 29.2334 -1.99902 58.4492 -3.96875 87.6299c-0.923828 13.6113 -1.0752 27.5068 -2.82422 41.0303
c-0.592773 4.6084 -0.894531 11.7979 -2.04492 18.1729c-19.5742 -0.819336 -21.5215 24.0088 -2.20312 32.5176c20.2129 8.89746 44.8311 13.8428 66.125 6.125c24.8281 -8.99609 36.1143 -35.8115 44.5645 -59.082c20.3584 -56.0596 27.5244 -114.683 31.0059 -173.869
c6.26465 -106.412 1.20801 -213.511 15.5342 -319.44c5.9043 -43.6631 10.5361 -96.7822 42.3613 -130.461c13.9072 -14.7207 32.9053 -28.4307 53.7812 -22.8926c21.1318 5.6084 38.6426 23.8574 52.2363 39.8857c67.5029 79.5801 101.229 185.929 131.287 284.03
c26.7568 87.3213 48.1377 176.13 68.7109 265.084c1.43555 20.6719 2.96387 42.1055 10.0596 60.3828c10.8389 27.9365 52.1309 53.334 79.3643 29.9883c35.7998 -30.6914 32.2432 -93.3242 32.8711 -136.296c0.714844 -48.7549 -2.23145 -97.498 -3.52148 -146.229
c-2.5625 -96.5967 -7.6416 -194.402 4.06348 -290.621c4.93457 -40.5947 9.14258 -83.2119 29.2393 -119.738c26.7109 -48.5508 69.2178 -6.13086 89.6289 25.8623c52.375 82.0908 78.958 181.559 107.534 273.709c6.68359 21.5498 56.0195 29.8955 47.709 2.88867
c-31.3369 -101.815 -60.7734 -217.398 -123.505 -305.283c-27.0127 -37.8457 -67.6719 -66.585 -114.637 -72.3389c-50.1553 -6.14258 -92.3828 15.4707 -122.749 54.3975c-70.4844 90.3604 -66.6133 216.242 -62.5742 325.078
c0.203125 5.46875 0.476562 10.9375 0.738281 16.4004c-5.08496 -15.9883 -10.3506 -31.9297 -15.8486 -47.7959c-32.9404 -95.0684 -71.3389 -199.528 -147.565 -268.943c-34.1377 -31.0869 -79.8701 -50.8877 -126.375 -51.9805
c-52.7412 -1.23828 -98.1709 35.1084 -124.521 78.417z" />
    <glyph glyph-name="U" unicode="&#xdb;" horiz-adv-x="874" 
d="M75.8789 -13.2686c-57.4492 94.4346 -52.623 222.486 -52.96 328.666c-0.185547 58.2969 0.0820312 116.426 -1.5166 174.706c-0.801758 29.2334 -1.99902 58.4492 -3.96875 87.6299c-0.923828 13.6113 -1.0752 27.5068 -2.82422 41.0303
c-0.592773 4.6084 -0.894531 11.7979 -2.04492 18.1729c-19.5742 -0.819336 -21.5215 24.0088 -2.20312 32.5176c20.2129 8.89746 44.8311 13.8428 66.125 6.125c24.8281 -8.99609 36.1143 -35.8115 44.5645 -59.082c20.3584 -56.0596 27.5244 -114.683 31.0059 -173.869
c6.26465 -106.412 1.20801 -213.511 15.5342 -319.44c5.9043 -43.6631 10.5361 -96.7822 42.3613 -130.461c13.9072 -14.7207 32.9053 -28.4307 53.7812 -22.8926c21.1318 5.6084 38.6426 23.8574 52.2363 39.8857c67.5029 79.5801 101.229 185.929 131.287 284.03
c26.7568 87.3213 48.1377 176.13 68.7109 265.084c1.43555 20.6719 2.96387 42.1055 10.0596 60.3828c10.8389 27.9365 52.1309 53.334 79.3643 29.9883c35.7998 -30.6914 32.2432 -93.3242 32.8711 -136.296c0.714844 -48.7549 -2.23145 -97.498 -3.52148 -146.229
c-2.5625 -96.5967 -7.6416 -194.402 4.06348 -290.621c4.93457 -40.5947 9.14258 -83.2119 29.2393 -119.738c26.7109 -48.5508 69.2178 -6.13086 89.6289 25.8623c52.375 82.0908 78.958 181.559 107.534 273.709c6.68359 21.5498 56.0195 29.8955 47.709 2.88867
c-31.3369 -101.815 -60.7734 -217.398 -123.505 -305.283c-27.0127 -37.8457 -67.6719 -66.585 -114.637 -72.3389c-50.1553 -6.14258 -92.3828 15.4707 -122.749 54.3975c-70.4844 90.3604 -66.6133 216.242 -62.5742 325.078
c0.203125 5.46875 0.476562 10.9375 0.738281 16.4004c-5.08496 -15.9883 -10.3506 -31.9297 -15.8486 -47.7959c-32.9404 -95.0684 -71.3389 -199.528 -147.565 -268.943c-34.1377 -31.0869 -79.8701 -50.8877 -126.375 -51.9805
c-52.7412 -1.23828 -98.1709 35.1084 -124.521 78.417z" />
    <glyph glyph-name="U" unicode="&#xda;" horiz-adv-x="874" 
d="M75.8789 -13.2686c-57.4492 94.4346 -52.623 222.486 -52.96 328.666c-0.185547 58.2969 0.0820312 116.426 -1.5166 174.706c-0.801758 29.2334 -1.99902 58.4492 -3.96875 87.6299c-0.923828 13.6113 -1.0752 27.5068 -2.82422 41.0303
c-0.592773 4.6084 -0.894531 11.7979 -2.04492 18.1729c-19.5742 -0.819336 -21.5215 24.0088 -2.20312 32.5176c20.2129 8.89746 44.8311 13.8428 66.125 6.125c24.8281 -8.99609 36.1143 -35.8115 44.5645 -59.082c20.3584 -56.0596 27.5244 -114.683 31.0059 -173.869
c6.26465 -106.412 1.20801 -213.511 15.5342 -319.44c5.9043 -43.6631 10.5361 -96.7822 42.3613 -130.461c13.9072 -14.7207 32.9053 -28.4307 53.7812 -22.8926c21.1318 5.6084 38.6426 23.8574 52.2363 39.8857c67.5029 79.5801 101.229 185.929 131.287 284.03
c26.7568 87.3213 48.1377 176.13 68.7109 265.084c1.43555 20.6719 2.96387 42.1055 10.0596 60.3828c10.8389 27.9365 52.1309 53.334 79.3643 29.9883c35.7998 -30.6914 32.2432 -93.3242 32.8711 -136.296c0.714844 -48.7549 -2.23145 -97.498 -3.52148 -146.229
c-2.5625 -96.5967 -7.6416 -194.402 4.06348 -290.621c4.93457 -40.5947 9.14258 -83.2119 29.2393 -119.738c26.7109 -48.5508 69.2178 -6.13086 89.6289 25.8623c52.375 82.0908 78.958 181.559 107.534 273.709c6.68359 21.5498 56.0195 29.8955 47.709 2.88867
c-31.3369 -101.815 -60.7734 -217.398 -123.505 -305.283c-27.0127 -37.8457 -67.6719 -66.585 -114.637 -72.3389c-50.1553 -6.14258 -92.3828 15.4707 -122.749 54.3975c-70.4844 90.3604 -66.6133 216.242 -62.5742 325.078
c0.203125 5.46875 0.476562 10.9375 0.738281 16.4004c-5.08496 -15.9883 -10.3506 -31.9297 -15.8486 -47.7959c-32.9404 -95.0684 -71.3389 -199.528 -147.565 -268.943c-34.1377 -31.0869 -79.8701 -50.8877 -126.375 -51.9805
c-52.7412 -1.23828 -98.1709 35.1084 -124.521 78.417z" />
    <glyph glyph-name="V" unicode="V" horiz-adv-x="850" 
d="M4.02734 670.985c-21.2939 6.5498 2.71582 30.6807 13.2061 33.8828c47.9121 14.6748 88.7686 -28.0586 111.324 -65.6543c27.1699 -45.2793 49.2656 -92.1162 68.4268 -141.295c38.2646 -98.2061 62.8428 -201.178 100.584 -299.553
c16.918 -44.1055 35.8291 -87.3096 58.082 -128.985c19.4346 -36.3984 43.1758 -74.541 79.6504 -96.2129c84.7002 -50.3174 156.399 102.042 182.86 159.7c18.7832 40.9375 34.498 83.6074 47.3301 127.189c-143.875 18.7949 -272.587 115.601 -297.973 274.121
c-14.4131 89.9824 14.4541 194.07 80.0566 258.621c67.0732 66.0039 184.645 86.6006 250.688 7.50293c69.543 -83.2939 65.4629 -215.865 57.9014 -317.75c-4.19043 -56.4668 -12.9482 -112.707 -26.0068 -167.93c42.6699 -1.17383 86.1885 5.15527 127.998 19.3008
c36.8467 12.4658 43.7627 -33.0859 12.6006 -46.3428c-49.9346 -21.2422 -103.315 -31.2383 -156.021 -30.9072c-11.3789 -38.4678 -24.833 -76.3018 -40.4082 -113.188c-37.8633 -89.6748 -97.9277 -207.658 -198.453 -237.932
c-49.4346 -14.8896 -111.817 -8.57812 -157.398 15.4648c-51.3232 27.0771 -87.2227 71.8506 -113.951 122.436c-52.3457 99.084 -77.4697 210.535 -103.622 318.668c-13.0586 53.9971 -26.0303 107.924 -41.8613 161.183
c-8.49121 28.5645 -19.7949 56.1641 -28.6289 84.4902c-5.37012 17.2197 -5.20117 56.6758 -26.3848 63.1904zM445.44 505.957c41.3213 -106.168 132.811 -169.198 235.597 -186.546c8.18262 35.3057 14.5928 70.9551 19.2422 106.546
c6.98535 53.4736 9.27539 107.471 6.41016 161.34c-2.65625 49.9688 -7.66602 101.995 -29.8438 147.564c-20.3877 41.8906 -55.7812 74.8086 -104.53 75.3262c-48.8818 0.517578 -89.2852 -30.9414 -114.589 -70.6523
c-44.2334 -69.4092 -41.3975 -158.781 -12.2861 -233.578z" />
    <glyph glyph-name="W" unicode="W" horiz-adv-x="1083" 
d="M121.978 -72.1465c-40.7285 24.874 -66.3076 63.4375 -85.2715 106.474c-42.7627 97.0967 -53.6543 207.676 -57.4727 312.53c-3.94629 108.29 2.04004 225.85 32.9639 330.158c8.90332 30.0293 76.2148 59.0938 83.4268 13.7158
c9.07812 -57.1289 9.28711 -116.583 11.333 -174.369c2.0459 -57.6113 4.99805 -115.223 10.1816 -172.654c5.06738 -56.1299 12.4834 -112.666 23.6182 -167.941c9.82715 -48.7832 22.7178 -101.495 49.0967 -144.24c19.9805 -32.3711 52.0205 -57.6748 89.6748 -36.7988
c45.6162 25.293 65.8467 91.2852 82.0029 137.146c17.7783 50.4629 29.8896 101.745 38.6768 154.469c9.25781 55.5488 11.4141 113.893 25.542 168.389c1 3.85352 3.5625 7.68945 7.0957 11.252c12.501 24.5889 58.3496 49.2188 78.499 24.1699
c17.3652 -21.585 24.9609 -39.6416 30.2266 -66.9102c4.86426 -25.1934 6.34668 -50.666 8.35742 -76.2031c3.65527 -46.3828 6.53223 -92.4287 15.0869 -138.271c7.94434 -42.5703 18.2314 -85.4951 35.2539 -125.456c14.1162 -33.1387 30.6328 -70.2002 62.4287 -90.2041
c65.6318 -41.2861 131.315 59.9072 160.188 105.465c30.1338 47.54 53.834 98.2705 73.5879 150.675c-34.3477 4.98633 -67.6367 14.8838 -97.8516 30.3135c-79.8467 40.7812 -141.834 120.361 -162.268 207.356c-19.1318 81.4746 1.65039 170.231 51.4336 236.915
c50.2188 67.2646 141.608 119.012 226 86.4023c83.1826 -32.1445 97.6943 -136.337 100.048 -213.929c3.12109 -103.024 -19.3125 -205.247 -51.3584 -302.681c40.9961 -0.185547 82.1318 8.28223 122.047 23.9561c35.0908 13.7734 54.7578 -23.4102 19.2773 -39.5205
c-47.918 -21.7588 -103.17 -33.0742 -158.067 -32.5625c-28.001 -75.9941 -62.8311 -149.082 -109.818 -215.475c-53.9912 -76.2725 -132.92 -146.635 -233.648 -122.312c-108.226 26.1299 -153.83 125.812 -174.7 225.925c-1.4873 7.125 -2.78906 14.3145 -3.98633 21.5264
c-3.05664 -10.0312 -6.18359 -20.0332 -9.48438 -29.96c-28.0361 -84.3281 -68.7471 -177.124 -159.154 -208.804c-43.6689 -15.3018 -93.0566 -12.9189 -132.966 11.4551zM849.131 318.212c21.1719 -9.57227 42.7568 -16.1152 64.5156 -20.0674
c1.38867 4.22559 2.83008 8.43359 4.17871 12.6758c26.7861 84.3398 46.2842 172.341 45.668 261.236c-0.458984 66.0215 -5.43945 164.326 -74.0293 197.482c-78.2314 37.8164 -155.399 -37.9219 -185.19 -103.705c-29.6396 -65.4453 -29.2441 -142.306 0.279297 -207.635
c29.1924 -64.5977 80.5967 -111.068 144.578 -139.987z" />
    <glyph glyph-name="X" unicode="X" horiz-adv-x="627" 
d="M-106.418 -27.2393c-19.8125 14.2969 20.5771 42.1729 38.5762 29.1484c-6.6543 4.8125 23.2354 36.7539 26.9727 41.9092c9.87402 13.6113 18.8008 27.8555 27.2803 42.3672c16.3828 28.0361 30.8311 57.1299 45.4355 86.1074
c16.2666 32.2783 32.877 64.3877 49.958 96.2363c-12.2158 38.8398 -23.3223 77.9873 -34.2773 116.646c-25.9844 91.6738 -57.292 196.988 -43.3027 292.725c4.35254 29.7793 52.7637 42.4658 70.1172 18.9404c32.5918 -44.1865 48.1729 -99.0146 65.1953 -150.588
c12.4424 -37.7119 24.9609 -75.3838 37.3574 -113.102c23.6191 37.666 48.6445 74.5127 76.3721 109.093c36.3643 45.3486 80.917 98.4971 142.277 104.948c32.1797 3.38281 15.3545 -36.3984 -9.21777 -38.502c-37.4502 -3.20801 -69.3623 -47.7607 -91.5742 -74.71
c-23.3398 -28.3203 -44.1631 -58.5176 -64.0625 -89.3193c-12.9365 -20.0273 -25.4844 -40.2871 -37.7646 -60.7148c28.4893 -89.0176 54.9092 -181.331 93.8711 -266.118c17.3018 -37.6426 36.207 -86.3799 65.8701 -116.217
c36.5088 -36.7188 83.8506 -33.4414 120.237 0.865234c33.3711 31.459 56.9492 74.9424 78.9229 114.578c26.4199 47.668 48.7715 97.3408 67.2061 148.617c7.28223 20.2598 54.9561 28.1582 45.9307 2.77832c-33.0449 -92.9121 -76.6504 -189.956 -140.573 -266.084
c-51.9854 -61.9121 -121.946 -87.5244 -200.381 -62.708c-87.582 27.7158 -143.886 90.2207 -182.365 171.503c-15.9473 33.6846 -29.7383 68.6016 -42.1865 104.105c-28.1523 -55.6992 -54.4971 -112.857 -88.8613 -164.866
c-21.1201 -31.9648 -70.043 -111.545 -117.014 -77.6396z" />
    <glyph glyph-name="Y" unicode="Y" horiz-adv-x="701" 
d="M710.374 287.627c28.1523 16.877 43.6504 -17.0078 16.3125 -33.4316c-48.5801 -29.1924 -99.2637 -54.1016 -150.604 -77.6914c-0.435547 -6.2998 -0.801758 -12.5938 -1.3418 -18.9053c-12.5996 -146.926 -50.335 -316.343 -175.199 -409.621
c-51.3057 -38.334 -118.519 -59.6924 -182.656 -57.9893c-57.2803 1.52246 -126.579 28.1396 -150.291 84.8213c-26.1582 62.5283 13.0186 130.264 53.1309 176.711c48.5215 56.1816 112.143 97.9736 176.396 133.989c47.2842 26.5068 96.2539 49.5615 145.624 71.7969
c1.80762 34.4053 2.34766 68.7178 2.18457 102.443c-0.331055 69.3975 -6.20703 138.487 -11.7744 207.606c-0.0986328 1.26074 -0.220703 2.52148 -0.325195 3.78223c-9.58398 -37.5205 -20.748 -74.5996 -34.499 -110.854
c-26.6758 -70.3105 -62.8076 -148.432 -120.204 -199.18c-57.1934 -50.5732 -153.203 -72.0361 -215.511 -19.4805c-71.9668 60.709 -73.7861 172.363 -71.9902 258.685c0.964844 46.5518 4.6377 93.0684 7.21191 139.539c1.47656 26.6465 4.27734 53.0605 6.31738 79.667
c0.604492 7.86914 7.93262 43.8379 5.875 45.25c-19.8066 13.5645 18.5684 33.6787 31.8477 29.3545c42.2334 -13.7451 56.5879 -49.127 68.8975 -89.9541c14.582 -48.3711 16.5059 -99.9795 19.749 -150.064c3.28906 -50.7598 5.32324 -101.443 12.6348 -151.86
c6.25879 -43.1406 12.0996 -83.6016 42.5352 -116.984c61.0459 -66.957 150.308 136.796 165.604 176.711c34.7598 90.6914 52.9326 186.603 70.3271 281.81c0.662109 3.63184 2.58008 6.85742 5.16602 9.67578c2.22559 8.1543 5.52051 16.041 9.72266 25.4502
c9.0957 20.3818 44.96 33.29 62.7559 17.2676c32.0166 -28.8262 40.624 -83.5488 48.9639 -125.108c9.26953 -46.1973 16.9814 -93.0625 22.0957 -139.888c7.75293 -70.9316 11.3799 -141.532 8.96777 -212.446c44.9941 21.0039 89.3545 43.292 132.076 68.8984z
M383.045 -121.073c32.918 73.7969 48.7207 154.523 55.7881 235.806c-38.1191 -17.4756 -75.9131 -35.626 -112.76 -55.7168c-56.7744 -30.9531 -113.509 -66.6777 -157.922 -114.258c-42.6055 -45.6396 -88.7617 -122.023 -30.9238 -174.904
c41.1582 -37.6309 108.882 -41.8389 156.276 -12.9551c43.541 26.542 69.5195 77.1504 89.541 122.028z" />
    <glyph glyph-name="Y" unicode="&#x178;" horiz-adv-x="701" 
d="M710.374 287.627c28.1523 16.877 43.6504 -17.0078 16.3125 -33.4316c-48.5801 -29.1924 -99.2637 -54.1016 -150.604 -77.6914c-0.435547 -6.2998 -0.801758 -12.5938 -1.3418 -18.9053c-12.5996 -146.926 -50.335 -316.343 -175.199 -409.621
c-51.3057 -38.334 -118.519 -59.6924 -182.656 -57.9893c-57.2803 1.52246 -126.579 28.1396 -150.291 84.8213c-26.1582 62.5283 13.0186 130.264 53.1309 176.711c48.5215 56.1816 112.143 97.9736 176.396 133.989c47.2842 26.5068 96.2539 49.5615 145.624 71.7969
c1.80762 34.4053 2.34766 68.7178 2.18457 102.443c-0.331055 69.3975 -6.20703 138.487 -11.7744 207.606c-0.0986328 1.26074 -0.220703 2.52148 -0.325195 3.78223c-9.58398 -37.5205 -20.748 -74.5996 -34.499 -110.854
c-26.6758 -70.3105 -62.8076 -148.432 -120.204 -199.18c-57.1934 -50.5732 -153.203 -72.0361 -215.511 -19.4805c-71.9668 60.709 -73.7861 172.363 -71.9902 258.685c0.964844 46.5518 4.6377 93.0684 7.21191 139.539c1.47656 26.6465 4.27734 53.0605 6.31738 79.667
c0.604492 7.86914 7.93262 43.8379 5.875 45.25c-19.8066 13.5645 18.5684 33.6787 31.8477 29.3545c42.2334 -13.7451 56.5879 -49.127 68.8975 -89.9541c14.582 -48.3711 16.5059 -99.9795 19.749 -150.064c3.28906 -50.7598 5.32324 -101.443 12.6348 -151.86
c6.25879 -43.1406 12.0996 -83.6016 42.5352 -116.984c61.0459 -66.957 150.308 136.796 165.604 176.711c34.7598 90.6914 52.9326 186.603 70.3271 281.81c0.662109 3.63184 2.58008 6.85742 5.16602 9.67578c2.22559 8.1543 5.52051 16.041 9.72266 25.4502
c9.0957 20.3818 44.96 33.29 62.7559 17.2676c32.0166 -28.8262 40.624 -83.5488 48.9639 -125.108c9.26953 -46.1973 16.9814 -93.0625 22.0957 -139.888c7.75293 -70.9316 11.3799 -141.532 8.96777 -212.446c44.9941 21.0039 89.3545 43.292 132.076 68.8984z
M383.045 -121.073c32.918 73.7969 48.7207 154.523 55.7881 235.806c-38.1191 -17.4756 -75.9131 -35.626 -112.76 -55.7168c-56.7744 -30.9531 -113.509 -66.6777 -157.922 -114.258c-42.6055 -45.6396 -88.7617 -122.023 -30.9238 -174.904
c41.1582 -37.6309 108.882 -41.8389 156.276 -12.9551c43.541 26.542 69.5195 77.1504 89.541 122.028z" />
    <glyph glyph-name="Y" unicode="&#xdd;" horiz-adv-x="701" 
d="M710.374 287.627c28.1523 16.877 43.6504 -17.0078 16.3125 -33.4316c-48.5801 -29.1924 -99.2637 -54.1016 -150.604 -77.6914c-0.435547 -6.2998 -0.801758 -12.5938 -1.3418 -18.9053c-12.5996 -146.926 -50.335 -316.343 -175.199 -409.621
c-51.3057 -38.334 -118.519 -59.6924 -182.656 -57.9893c-57.2803 1.52246 -126.579 28.1396 -150.291 84.8213c-26.1582 62.5283 13.0186 130.264 53.1309 176.711c48.5215 56.1816 112.143 97.9736 176.396 133.989c47.2842 26.5068 96.2539 49.5615 145.624 71.7969
c1.80762 34.4053 2.34766 68.7178 2.18457 102.443c-0.331055 69.3975 -6.20703 138.487 -11.7744 207.606c-0.0986328 1.26074 -0.220703 2.52148 -0.325195 3.78223c-9.58398 -37.5205 -20.748 -74.5996 -34.499 -110.854
c-26.6758 -70.3105 -62.8076 -148.432 -120.204 -199.18c-57.1934 -50.5732 -153.203 -72.0361 -215.511 -19.4805c-71.9668 60.709 -73.7861 172.363 -71.9902 258.685c0.964844 46.5518 4.6377 93.0684 7.21191 139.539c1.47656 26.6465 4.27734 53.0605 6.31738 79.667
c0.604492 7.86914 7.93262 43.8379 5.875 45.25c-19.8066 13.5645 18.5684 33.6787 31.8477 29.3545c42.2334 -13.7451 56.5879 -49.127 68.8975 -89.9541c14.582 -48.3711 16.5059 -99.9795 19.749 -150.064c3.28906 -50.7598 5.32324 -101.443 12.6348 -151.86
c6.25879 -43.1406 12.0996 -83.6016 42.5352 -116.984c61.0459 -66.957 150.308 136.796 165.604 176.711c34.7598 90.6914 52.9326 186.603 70.3271 281.81c0.662109 3.63184 2.58008 6.85742 5.16602 9.67578c2.22559 8.1543 5.52051 16.041 9.72266 25.4502
c9.0957 20.3818 44.96 33.29 62.7559 17.2676c32.0166 -28.8262 40.624 -83.5488 48.9639 -125.108c9.26953 -46.1973 16.9814 -93.0625 22.0957 -139.888c7.75293 -70.9316 11.3799 -141.532 8.96777 -212.446c44.9941 21.0039 89.3545 43.292 132.076 68.8984z
M383.045 -121.073c32.918 73.7969 48.7207 154.523 55.7881 235.806c-38.1191 -17.4756 -75.9131 -35.626 -112.76 -55.7168c-56.7744 -30.9531 -113.509 -66.6777 -157.922 -114.258c-42.6055 -45.6396 -88.7617 -122.023 -30.9238 -174.904
c41.1582 -37.6309 108.882 -41.8389 156.276 -12.9551c43.541 26.542 69.5195 77.1504 89.541 122.028z" />
    <glyph glyph-name="Z" unicode="Z" horiz-adv-x="726" 
d="M760.437 250.892c-80.3467 -89.4072 -186.799 -135.468 -299.354 -164.288c-39.7061 -68.1602 -89.3848 -131.467 -147.043 -184.295c-72.2861 -66.2305 -169.417 -126.475 -271.337 -120.431c-70.9668 4.20801 -178.942 70.4561 -138.749 155.011
c39.8682 83.8691 159.596 111.435 241.535 127.945c58.3496 11.751 120.07 20.1025 181.825 30.1572c17.0459 29.5645 32.0459 59.3379 45.1045 87.542c21.3584 46.1396 38.0205 94.0225 50.458 143.062c-12.3154 -1.47656 -24.625 -2.9873 -36.9463 -4.45215
c-29.8428 -3.54492 -12.9072 31.9238 8.39844 35.0625c12.2803 1.80176 24.5605 3.5625 36.8408 5.3584c3.89355 18.5625 7.27637 37.2529 10.0312 56.0713c10.293 70.2227 18.4521 162.373 -20.6143 225.552c-45.6221 73.791 -143.09 70.542 -216.016 45.1045
c-40.6592 -14.1865 -79.8887 -35.917 -114.637 -61.2266c-31.7549 -23.125 -74.7617 -58.6865 -69.0137 -102.344c2.91211 -22.125 -43.3662 -37.5264 -46.7314 -12.4551c-6.68359 49.7891 31.7432 91.5869 66.6719 121.837c40.6299 35.1846 90.3721 63.499 140.266 83.166
c93.9697 37.0381 200.998 35.2715 287.36 -21.6543c82.7354 -54.543 101.071 -154.859 99.5137 -247.394c-0.383789 -22.7705 -2.0752 -45.3955 -4.8418 -67.8516c8.96191 1.23828 17.918 2.54004 26.8857 3.76074c11.4951 1.56934 20.4805 -6.7998 18.8877 -18.0684
c-1.78418 -12.6172 -17.2725 -19.498 -28.2275 -20.9219c-7.78809 -1.01172 -15.5869 -1.95312 -23.375 -2.94727c-11.9141 -65.5391 -33.2432 -129.247 -61.6797 -189.805c-3.88184 -8.26465 -7.95605 -16.4648 -12.123 -24.6299
c91.2324 25.7402 175.88 65.8701 241.813 139.156c16.0117 17.79 56.3506 7.625 35.0967 -16.0225zM69.332 -131.638c99.5078 20.248 176.14 98.8057 233.443 186.598c-11.3789 -1.84277 -22.7295 -3.64453 -34.0273 -5.41113
c-89.1279 -13.96 -186.003 -24.5137 -266.67 -67.8281c-34.3994 -18.4697 -82.0205 -63.4932 -39.6064 -99.7295c27.4199 -23.4268 73.6982 -20.376 106.86 -13.6289z" />
    <glyph glyph-name="bracketleft" unicode="[" horiz-adv-x="499" 
d="M400.974 -200.39c45.3662 9.95508 65.624 -31.25 29.6436 -60.7852c-48.6211 -39.9443 -123.453 -64.2549 -186.068 -58.3506c-53.6309 5.05664 -95.9688 34.9463 -125.364 78.8477c-26.3789 39.3975 -36.9326 87.1699 -45.9229 133.071
c-10.6758 54.4502 -14.8486 109.639 -17.168 165.007c-4.68457 111.632 -7.96777 224.228 -4.90527 335.935c2.90625 106.023 11.9551 228.93 74.3086 318.709c51.6367 74.3613 144.27 106.128 231.898 88.832c27.9775 -5.52148 0.529297 -36.0332 -18.6025 -34.0801
c-46.1045 4.69629 -90.7207 -15.4873 -117.676 -53.7861c-28.4717 -40.4668 -33.5508 -94.8066 -37.7871 -142.713c-10.0771 -113.909 2.7959 -228.609 8.52637 -342.356c5.70703 -113.276 5.89844 -232.347 36.0732 -342.52
c8.81055 -32.168 20.9277 -70.7344 46.8252 -93.458c38.4561 -33.7373 84.7119 -1.46484 126.219 7.64746z" />
    <glyph glyph-name="backslash" unicode="\" horiz-adv-x="434" 
d="M381.515 -158.69c9.84473 -33.3828 -11.6367 -61.5225 -41.5439 -76.0986c-22.6426 -11.042 -74.8438 -18.458 -85.543 14.1221c-96.0615 292.597 -115.601 604.122 -203.183 899.13c-11.6348 39.2061 61.5234 78.2607 79.6621 38.8516
c127.556 -277.154 164.838 -585.175 250.607 -876.005z" />
    <glyph glyph-name="bracketright" unicode="]" horiz-adv-x="502" 
d="M404.154 684.815c45.7676 -98.3457 47.9736 -217.179 47.666 -323.557c-0.296875 -110.37 -0.964844 -221.774 -9.56641 -331.843c-7.57812 -96.9395 -19.998 -213.424 -91.7783 -286.657c-38.3457 -39.1182 -90.6455 -64.167 -145.99 -63.1904
c-48.749 0.860352 -109.296 20.1553 -144.922 54.625c-33.5332 32.4473 29.5469 72.3965 59.251 66.8633c28.0361 -5.21875 53.7236 -18.2715 81.9688 -22.7578c10.3916 -1.65039 20.7188 -2.90527 31.1621 -0.685547c3.02832 0.645508 6.20703 2.62109 7.68945 3.5918
c22.7764 22.8398 32.8477 65.2656 40.252 99.1475c24.3223 111.248 25.3623 225.273 31.999 338.422c6.78809 115.804 17.458 232.84 4.46289 348.633c-5.69531 50.7715 -13.6689 103.257 -46.499 144.497c-29.9531 37.625 -71.7803 59.6748 -119.791 54.6416
c-26.501 -2.78418 -16.5742 29.959 2.77344 33.667c102.879 19.707 205.561 -17.0635 251.322 -115.397z" />
    <glyph glyph-name="asciicircum" unicode="^" horiz-adv-x="337" 
d="M283.612 527.289c22.6885 -51.2539 -83.5635 -101.679 -104.794 -51.1113c-8.39258 19.9805 -16.7793 39.9551 -25.1719 59.9355c-1.13281 2.69629 -3.33594 9.60645 -5.99805 17.3418c-0.65625 -1.20312 -1.36523 -2.38281 -2.00488 -3.59766
c-9.51367 -17.9873 -18.3711 -35.5273 -31.0928 -51.5332c-14.582 -18.3535 -56.8506 -26.6992 -63.0576 2.89355c-6.43945 30.7207 9.30469 66.2939 21.5439 93.9111c14.7266 33.2432 39.2695 61.4414 75.5752 71.1064c85.5078 22.7588 108.97 -80.1494 135 -138.946z" />
    <glyph glyph-name="underscore" unicode="_" horiz-adv-x="489" 
d="M399.352 11.3018c22.5146 1.92383 44.5332 -13.1982 39.3438 -37.6367c-5.48633 -25.8154 -34.6787 -41.1758 -58.7861 -43.5703c-62.4697 -6.20703 -125.05 -10.8506 -187.811 -12.4551c-31.1973 -0.801758 -63.0508 -1.64453 -94.126 2.00488
c-18.7656 2.20312 -38.6533 6.7998 -46.4814 25.7754c-7.46191 18.0918 14.7734 30.9355 29.4248 32.8711c105.663 13.9365 212.227 23.9385 318.436 33.0107z" />
    <glyph glyph-name="grave" unicode="`" horiz-adv-x="191" 
d="M140.785 527.685c8.14258 -40.4209 -81.8223 -66.2119 -83.543 -22.2695c-1.24414 31.8887 -4.77734 63.6436 -7.18945 95.4336c-1.52246 20.0967 30.1572 39.2578 47.418 28.832c32.0049 -19.3359 36.5205 -68.2588 43.3145 -101.996z" />
    <glyph glyph-name="a" unicode="a" horiz-adv-x="572" 
d="M567.313 278.527c11.4082 18.9404 57.46 19.1436 42.1113 -6.95117c-48.6094 -82.625 -111.73 -207.03 -220.647 -213.464c-78.168 -4.61426 -108.854 49.0742 -117.711 113.555c-21.2939 -50.0967 -48.5391 -97.0723 -87.3906 -131.844
c-37.8633 -33.8818 -88.2217 -60.2783 -139.08 -36.3926c-49.9111 23.4385 -68.3926 80.3291 -73.2568 131.501c-10.1816 107.15 32.9414 229.946 135.094 278.863c47.377 22.6885 99.084 19.4922 142.881 -9.26465c21.5967 -14.1807 38.1426 -32.1152 53.3574 -51.2354
c36.2998 25.3564 97.7881 24.5781 92.1973 -28.0234c-4.63184 -43.5879 -12.7627 -87.1064 -13.7793 -131.008c-0.441406 -19.2773 -5.39844 -89.6221 22.416 -95.3525c35.5156 -7.31738 77.0693 51.0898 94.9463 74.2266c25.6816 33.2373 47.2197 69.4678 68.8623 105.39z
M184.077 101.247c37.8867 56.6934 61.9395 120.988 84.6055 185.033c-13.8203 12.71 -26.9893 26.1406 -41.0127 39.7637c-16.9297 16.4473 -52.6426 46.7607 -76.1914 27.5352c-19.0449 -15.5459 -31.9697 -50.1836 -40.7393 -72.2217
c-12.9082 -32.4463 -19.6553 -69.4961 -19.2949 -104.366c0.331055 -32.04 0.685547 -76.2207 20.4805 -103.076c27.1348 -36.8174 55.502 2.41699 72.1523 27.332z" />
    <glyph glyph-name="a" unicode="&#xe5;" horiz-adv-x="572" 
d="M567.313 278.527c11.4082 18.9404 57.46 19.1436 42.1113 -6.95117c-48.6094 -82.625 -111.73 -207.03 -220.647 -213.464c-78.168 -4.61426 -108.854 49.0742 -117.711 113.555c-21.2939 -50.0967 -48.5391 -97.0723 -87.3906 -131.844
c-37.8633 -33.8818 -88.2217 -60.2783 -139.08 -36.3926c-49.9111 23.4385 -68.3926 80.3291 -73.2568 131.501c-10.1816 107.15 32.9414 229.946 135.094 278.863c47.377 22.6885 99.084 19.4922 142.881 -9.26465c21.5967 -14.1807 38.1426 -32.1152 53.3574 -51.2354
c36.2998 25.3564 97.7881 24.5781 92.1973 -28.0234c-4.63184 -43.5879 -12.7627 -87.1064 -13.7793 -131.008c-0.441406 -19.2773 -5.39844 -89.6221 22.416 -95.3525c35.5156 -7.31738 77.0693 51.0898 94.9463 74.2266c25.6816 33.2373 47.2197 69.4678 68.8623 105.39z
M184.077 101.247c37.8867 56.6934 61.9395 120.988 84.6055 185.033c-13.8203 12.71 -26.9893 26.1406 -41.0127 39.7637c-16.9297 16.4473 -52.6426 46.7607 -76.1914 27.5352c-19.0449 -15.5459 -31.9697 -50.1836 -40.7393 -72.2217
c-12.9082 -32.4463 -19.6553 -69.4961 -19.2949 -104.366c0.331055 -32.04 0.685547 -76.2207 20.4805 -103.076c27.1348 -36.8174 55.502 2.41699 72.1523 27.332z" />
    <glyph glyph-name="a" unicode="&#xe4;" horiz-adv-x="572" 
d="M567.313 278.527c11.4082 18.9404 57.46 19.1436 42.1113 -6.95117c-48.6094 -82.625 -111.73 -207.03 -220.647 -213.464c-78.168 -4.61426 -108.854 49.0742 -117.711 113.555c-21.2939 -50.0967 -48.5391 -97.0723 -87.3906 -131.844
c-37.8633 -33.8818 -88.2217 -60.2783 -139.08 -36.3926c-49.9111 23.4385 -68.3926 80.3291 -73.2568 131.501c-10.1816 107.15 32.9414 229.946 135.094 278.863c47.377 22.6885 99.084 19.4922 142.881 -9.26465c21.5967 -14.1807 38.1426 -32.1152 53.3574 -51.2354
c36.2998 25.3564 97.7881 24.5781 92.1973 -28.0234c-4.63184 -43.5879 -12.7627 -87.1064 -13.7793 -131.008c-0.441406 -19.2773 -5.39844 -89.6221 22.416 -95.3525c35.5156 -7.31738 77.0693 51.0898 94.9463 74.2266c25.6816 33.2373 47.2197 69.4678 68.8623 105.39z
M184.077 101.247c37.8867 56.6934 61.9395 120.988 84.6055 185.033c-13.8203 12.71 -26.9893 26.1406 -41.0127 39.7637c-16.9297 16.4473 -52.6426 46.7607 -76.1914 27.5352c-19.0449 -15.5459 -31.9697 -50.1836 -40.7393 -72.2217
c-12.9082 -32.4463 -19.6553 -69.4961 -19.2949 -104.366c0.331055 -32.04 0.685547 -76.2207 20.4805 -103.076c27.1348 -36.8174 55.502 2.41699 72.1523 27.332z" />
    <glyph glyph-name="a" unicode="&#xe3;" horiz-adv-x="572" 
d="M567.313 278.527c11.4082 18.9404 57.46 19.1436 42.1113 -6.95117c-48.6094 -82.625 -111.73 -207.03 -220.647 -213.464c-78.168 -4.61426 -108.854 49.0742 -117.711 113.555c-21.2939 -50.0967 -48.5391 -97.0723 -87.3906 -131.844
c-37.8633 -33.8818 -88.2217 -60.2783 -139.08 -36.3926c-49.9111 23.4385 -68.3926 80.3291 -73.2568 131.501c-10.1816 107.15 32.9414 229.946 135.094 278.863c47.377 22.6885 99.084 19.4922 142.881 -9.26465c21.5967 -14.1807 38.1426 -32.1152 53.3574 -51.2354
c36.2998 25.3564 97.7881 24.5781 92.1973 -28.0234c-4.63184 -43.5879 -12.7627 -87.1064 -13.7793 -131.008c-0.441406 -19.2773 -5.39844 -89.6221 22.416 -95.3525c35.5156 -7.31738 77.0693 51.0898 94.9463 74.2266c25.6816 33.2373 47.2197 69.4678 68.8623 105.39z
M184.077 101.247c37.8867 56.6934 61.9395 120.988 84.6055 185.033c-13.8203 12.71 -26.9893 26.1406 -41.0127 39.7637c-16.9297 16.4473 -52.6426 46.7607 -76.1914 27.5352c-19.0449 -15.5459 -31.9697 -50.1836 -40.7393 -72.2217
c-12.9082 -32.4463 -19.6553 -69.4961 -19.2949 -104.366c0.331055 -32.04 0.685547 -76.2207 20.4805 -103.076c27.1348 -36.8174 55.502 2.41699 72.1523 27.332z" />
    <glyph glyph-name="a" unicode="&#xe2;" horiz-adv-x="572" 
d="M567.313 278.527c11.4082 18.9404 57.46 19.1436 42.1113 -6.95117c-48.6094 -82.625 -111.73 -207.03 -220.647 -213.464c-78.168 -4.61426 -108.854 49.0742 -117.711 113.555c-21.2939 -50.0967 -48.5391 -97.0723 -87.3906 -131.844
c-37.8633 -33.8818 -88.2217 -60.2783 -139.08 -36.3926c-49.9111 23.4385 -68.3926 80.3291 -73.2568 131.501c-10.1816 107.15 32.9414 229.946 135.094 278.863c47.377 22.6885 99.084 19.4922 142.881 -9.26465c21.5967 -14.1807 38.1426 -32.1152 53.3574 -51.2354
c36.2998 25.3564 97.7881 24.5781 92.1973 -28.0234c-4.63184 -43.5879 -12.7627 -87.1064 -13.7793 -131.008c-0.441406 -19.2773 -5.39844 -89.6221 22.416 -95.3525c35.5156 -7.31738 77.0693 51.0898 94.9463 74.2266c25.6816 33.2373 47.2197 69.4678 68.8623 105.39z
M184.077 101.247c37.8867 56.6934 61.9395 120.988 84.6055 185.033c-13.8203 12.71 -26.9893 26.1406 -41.0127 39.7637c-16.9297 16.4473 -52.6426 46.7607 -76.1914 27.5352c-19.0449 -15.5459 -31.9697 -50.1836 -40.7393 -72.2217
c-12.9082 -32.4463 -19.6553 -69.4961 -19.2949 -104.366c0.331055 -32.04 0.685547 -76.2207 20.4805 -103.076c27.1348 -36.8174 55.502 2.41699 72.1523 27.332z" />
    <glyph glyph-name="a" unicode="&#xe1;" horiz-adv-x="572" 
d="M567.313 278.527c11.4082 18.9404 57.46 19.1436 42.1113 -6.95117c-48.6094 -82.625 -111.73 -207.03 -220.647 -213.464c-78.168 -4.61426 -108.854 49.0742 -117.711 113.555c-21.2939 -50.0967 -48.5391 -97.0723 -87.3906 -131.844
c-37.8633 -33.8818 -88.2217 -60.2783 -139.08 -36.3926c-49.9111 23.4385 -68.3926 80.3291 -73.2568 131.501c-10.1816 107.15 32.9414 229.946 135.094 278.863c47.377 22.6885 99.084 19.4922 142.881 -9.26465c21.5967 -14.1807 38.1426 -32.1152 53.3574 -51.2354
c36.2998 25.3564 97.7881 24.5781 92.1973 -28.0234c-4.63184 -43.5879 -12.7627 -87.1064 -13.7793 -131.008c-0.441406 -19.2773 -5.39844 -89.6221 22.416 -95.3525c35.5156 -7.31738 77.0693 51.0898 94.9463 74.2266c25.6816 33.2373 47.2197 69.4678 68.8623 105.39z
M184.077 101.247c37.8867 56.6934 61.9395 120.988 84.6055 185.033c-13.8203 12.71 -26.9893 26.1406 -41.0127 39.7637c-16.9297 16.4473 -52.6426 46.7607 -76.1914 27.5352c-19.0449 -15.5459 -31.9697 -50.1836 -40.7393 -72.2217
c-12.9082 -32.4463 -19.6553 -69.4961 -19.2949 -104.366c0.331055 -32.04 0.685547 -76.2207 20.4805 -103.076c27.1348 -36.8174 55.502 2.41699 72.1523 27.332z" />
    <glyph glyph-name="b" unicode="b" horiz-adv-x="642" 
d="M657.063 265.195c32.5918 10.4785 30.083 -29.1387 3.1748 -37.8965c-49.626 -16.1279 -98.7695 -34.4287 -146.646 -55.5195c-4.21387 -127.009 -51.7305 -269.117 -183 -305.946c-54.7119 -15.3545 -132.356 -0.423828 -152.872 60.6162
c-20.6602 61.4766 53.2295 120.942 95.5566 153.081c35.3701 26.8613 72.9951 50.8408 112.108 72.4434c4.50977 39.0957 5.3291 78.5107 2.66113 117.973c-2.46973 36.457 -1.26074 103.146 -39.502 123.308c-47.5342 25.0605 -92.0166 -46.1328 -112.084 -79.1895
c-42.1992 -69.5137 -66.2598 -147.896 -86.293 -226.587c0.0292969 -1.77246 0.12793 -3.55078 0.145508 -5.3291c0.279297 -30.6104 2.87109 -61.6914 -8.30469 -90.6045c-8.22363 -21.2764 -41.6699 -42.8789 -62.4473 -23.5957
c-27.9541 25.9434 -37.3926 70.2578 -45.1104 106.494c-8.54883 40.1299 -13.9883 81.1543 -17.8877 121.964c-7.49707 78.4932 -10.2168 157.01 -8.19434 235.828c3.54492 138.267 10.6992 283.188 51.4043 416.206c20.2305 66.1143 48.0166 132.414 97.416 182.354
c37.9854 38.4033 109.376 79.5791 156.619 32.208c41.0078 -41.1123 41.3623 -108.568 35.3584 -162.495c-6.84082 -61.4648 -21.3232 -122.436 -42.2686 -180.628c-37.1836 -103.297 -94.2432 -201.962 -162.729 -288.458
c-0.854492 -23.4854 -1.55176 -46.9766 -1.99316 -70.4961c-0.866211 -46.4297 0.185547 -92.708 1.8418 -139.027c3.12109 8.41504 6.3584 16.7959 9.80469 25.1064c26.0596 62.8125 63.4463 132.832 121.837 171.195c46.7148 30.6914 120.204 46.8477 167.087 7.63574
c49.4922 -41.3848 64.3818 -129.223 69.3271 -189.49c0.62207 -7.63672 1.06934 -15.4414 1.38281 -23.3398c47.3535 19.5684 95.5908 36.7539 143.607 52.1895zM167.057 720.939c-7.50879 -58.9775 -13.0986 -118.047 -17.126 -177.222
c37.8281 57.1523 73.8779 115.299 102.082 178.757c22.6074 50.8467 39.1533 104.361 45.7266 159.771c2.71973 22.9268 2.47559 152.772 -39.9619 135.465c-17.1387 -6.99121 -31.2383 -46.9238 -37.457 -62.3018c-8.9502 -22.1309 -16 -45.6162 -22.3867 -68.6016
c-15.041 -54.1133 -23.793 -110.22 -30.877 -165.867zM331.802 -23.999c26.3271 35.5439 37.0166 82.5391 45.5713 124.999c-16.8135 -10.293 -33.3652 -21.0273 -49.5449 -32.3486c-23.9678 -16.7783 -109.034 -76.5459 -73.5889 -112.375
c24.1475 -24.4033 62.8418 -0.157227 77.5625 19.7246z" />
    <glyph glyph-name="c" unicode="c" horiz-adv-x="440" 
d="M440.347 275.871c11.1406 16.1162 53.9746 17.4629 38.8525 -6.42285c-54.9502 -86.7686 -111.923 -173.038 -189.056 -242.006c-62.5801 -55.9551 -148.844 -113.131 -233.747 -65.1201c-90.1104 50.9512 -94.6143 165.762 -81.9678 255.982
c13.1406 93.7607 64.6611 187.12 154.429 226.953c37.9102 16.8252 85.3799 24.5488 123.976 5.19629c35.1025 -17.5977 46.6621 -54.5889 49.5566 -91.0918c2.33594 -29.4824 -53.6074 -55.6758 -68.9795 -25.8037c-9.23438 17.9463 -23.5254 58.5527 -48.9346 44.2676
c-20.6143 -11.5889 -33.4932 -40.9209 -40.6768 -62.0869c-24.4502 -72.042 -40.8564 -161.565 -19.917 -236.246c8.31641 -29.6748 25.2344 -67.4795 60.9941 -64.5273c40.6758 3.35938 74.2617 35.3408 101.426 62.6787c59.082 59.4658 106.552 129.515 154.045 198.227z
" />
    <glyph glyph-name="d" unicode="d" horiz-adv-x="725" 
d="M714.956 268.142c6.84082 21.1484 55.6084 29.3711 47.1113 2.84668c-31.2959 -97.7295 -79.7832 -203.131 -153.662 -276.353c-67.0439 -66.4512 -183.743 -99.084 -250.537 -15.1279c-28.6455 36.0039 -43.8838 79.4521 -55.7285 123.377
c-8.56641 31.7666 -15.7266 63.7949 -21.0908 96.1543c-22.7881 -60.1396 -52.5029 -118.17 -98.3691 -159.218c-37.8574 -33.8818 -88.2217 -60.2783 -139.08 -36.3926c-49.9111 23.4385 -68.3926 80.3291 -73.2568 131.501
c-10.1816 107.156 32.9414 229.952 135.1 278.869c47.377 22.6885 99.084 19.4922 142.881 -9.26367c6.78809 -4.45215 13.0303 -9.31641 18.9404 -14.4365c-0.238281 56.3623 2.15039 112.747 6.03223 169.051c13.5293 196.227 52.3984 414.887 201.248 557.604
c47.8711 45.8955 152.604 128.422 210.947 49.377c24.1885 -32.7725 22.7119 -81.7539 20.7998 -120.309c-2.49316 -50.2188 -12.0771 -99.6533 -26.415 -147.792c-55.1182 -185.021 -151.4 -366.963 -265.002 -523.129
c0.12207 -28.6396 0.895508 -57.2686 2.69727 -85.8389c2.73145 -43.2969 6.3584 -86.7217 12.9893 -129.612c5.32324 -34.4346 9.37402 -70.9727 20.6602 -104.059c9.58887 -28.1113 24.9492 -63.4697 57.2334 -70.5537c38.2061 -8.38086 70.3975 32.4873 90.8955 58.9307
c51.6191 66.585 89.7617 144.474 115.606 224.373zM421.048 550.357c-2.06934 -32.1973 -3.82422 -64.4746 -4.95215 -96.7822c87.9316 134.646 168.813 277.741 215.104 431.315c13.4482 44.6221 23.4443 90.7842 26.3271 137.383
c2.04004 33.0283 5.81152 77.8311 -12.832 107.25c-45.9355 72.4893 -113.944 -81.5791 -128.944 -114.316c-66.2246 -144.525 -84.6191 -307.881 -94.7021 -464.85zM183.081 101.247c37.8867 56.6934 61.9395 120.988 84.6055 185.033
c-13.8203 12.71 -26.9834 26.1406 -41.0127 39.7637c-16.9297 16.4473 -52.6426 46.7607 -76.1914 27.5352c-19.0449 -15.5459 -31.9697 -50.1836 -40.7393 -72.2217c-12.9082 -32.4463 -19.6553 -69.4961 -19.2949 -104.366
c0.331055 -32.04 0.685547 -76.2207 20.4805 -103.076c27.1348 -36.8174 55.502 2.41699 72.1523 27.332z" />
    <glyph glyph-name="e" unicode="e" horiz-adv-x="454" 
d="M449.098 270.193c11.0186 19.1611 56.7334 19.7754 42.1113 -6.94727c-31.6738 -57.9023 -69.6709 -112.166 -110.33 -164.1c-37.0146 -47.2842 -79.9346 -92.3945 -132.774 -122.04c-89.2793 -50.0908 -219.334 -49.2129 -261.266 61.3438
c-41.751 110.08 -13.9941 242.616 56.2637 334.313c33.2783 43.4365 84.7705 82.3057 139.802 90.8955c39.5195 6.16602 86.3906 -4.52148 101.141 -45.9941c16.7373 -47.0635 -20.5215 -90.6279 -53.7354 -118.692c-30.9062 -26.1182 -72.1406 -46.6104 -113.653 -47.3779
c-7.9043 -41.4785 -9.56055 -84.293 -6.81152 -122.668c2.54004 -35.4336 5.30078 -86.7158 39.0029 -108.114c37.6484 -23.9033 76.9707 -1.37695 107.709 22.7705c78.7656 61.8652 142.811 140.132 192.541 226.61zM168.218 375.738
c-15.2676 -19.8408 -27.0889 -42.791 -36.085 -67.3164c39.5781 4.37598 84.1709 12.7969 98.6367 54.6875c7.19531 20.835 -0.0986328 50.1436 -26.542 41.8965c-14.0645 -4.3877 -27.2568 -17.8945 -36.0098 -29.2676z" />
    <glyph glyph-name="e" unicode="&#xeb;" horiz-adv-x="454" 
d="M449.098 270.193c11.0186 19.1611 56.7334 19.7754 42.1113 -6.94727c-31.6738 -57.9023 -69.6709 -112.166 -110.33 -164.1c-37.0146 -47.2842 -79.9346 -92.3945 -132.774 -122.04c-89.2793 -50.0908 -219.334 -49.2129 -261.266 61.3438
c-41.751 110.08 -13.9941 242.616 56.2637 334.313c33.2783 43.4365 84.7705 82.3057 139.802 90.8955c39.5195 6.16602 86.3906 -4.52148 101.141 -45.9941c16.7373 -47.0635 -20.5215 -90.6279 -53.7354 -118.692c-30.9062 -26.1182 -72.1406 -46.6104 -113.653 -47.3779
c-7.9043 -41.4785 -9.56055 -84.293 -6.81152 -122.668c2.54004 -35.4336 5.30078 -86.7158 39.0029 -108.114c37.6484 -23.9033 76.9707 -1.37695 107.709 22.7705c78.7656 61.8652 142.811 140.132 192.541 226.61zM168.218 375.738
c-15.2676 -19.8408 -27.0889 -42.791 -36.085 -67.3164c39.5781 4.37598 84.1709 12.7969 98.6367 54.6875c7.19531 20.835 -0.0986328 50.1436 -26.542 41.8965c-14.0645 -4.3877 -27.2568 -17.8945 -36.0098 -29.2676z" />
    <glyph glyph-name="e" unicode="&#xea;" horiz-adv-x="454" 
d="M449.098 270.193c11.0186 19.1611 56.7334 19.7754 42.1113 -6.94727c-31.6738 -57.9023 -69.6709 -112.166 -110.33 -164.1c-37.0146 -47.2842 -79.9346 -92.3945 -132.774 -122.04c-89.2793 -50.0908 -219.334 -49.2129 -261.266 61.3438
c-41.751 110.08 -13.9941 242.616 56.2637 334.313c33.2783 43.4365 84.7705 82.3057 139.802 90.8955c39.5195 6.16602 86.3906 -4.52148 101.141 -45.9941c16.7373 -47.0635 -20.5215 -90.6279 -53.7354 -118.692c-30.9062 -26.1182 -72.1406 -46.6104 -113.653 -47.3779
c-7.9043 -41.4785 -9.56055 -84.293 -6.81152 -122.668c2.54004 -35.4336 5.30078 -86.7158 39.0029 -108.114c37.6484 -23.9033 76.9707 -1.37695 107.709 22.7705c78.7656 61.8652 142.811 140.132 192.541 226.61zM168.218 375.738
c-15.2676 -19.8408 -27.0889 -42.791 -36.085 -67.3164c39.5781 4.37598 84.1709 12.7969 98.6367 54.6875c7.19531 20.835 -0.0986328 50.1436 -26.542 41.8965c-14.0645 -4.3877 -27.2568 -17.8945 -36.0098 -29.2676z" />
    <glyph glyph-name="e" unicode="&#xe9;" horiz-adv-x="454" 
d="M449.098 270.193c11.0186 19.1611 56.7334 19.7754 42.1113 -6.94727c-31.6738 -57.9023 -69.6709 -112.166 -110.33 -164.1c-37.0146 -47.2842 -79.9346 -92.3945 -132.774 -122.04c-89.2793 -50.0908 -219.334 -49.2129 -261.266 61.3438
c-41.751 110.08 -13.9941 242.616 56.2637 334.313c33.2783 43.4365 84.7705 82.3057 139.802 90.8955c39.5195 6.16602 86.3906 -4.52148 101.141 -45.9941c16.7373 -47.0635 -20.5215 -90.6279 -53.7354 -118.692c-30.9062 -26.1182 -72.1406 -46.6104 -113.653 -47.3779
c-7.9043 -41.4785 -9.56055 -84.293 -6.81152 -122.668c2.54004 -35.4336 5.30078 -86.7158 39.0029 -108.114c37.6484 -23.9033 76.9707 -1.37695 107.709 22.7705c78.7656 61.8652 142.811 140.132 192.541 226.61zM168.218 375.738
c-15.2676 -19.8408 -27.0889 -42.791 -36.085 -67.3164c39.5781 4.37598 84.1709 12.7969 98.6367 54.6875c7.19531 20.835 -0.0986328 50.1436 -26.542 41.8965c-14.0645 -4.3877 -27.2568 -17.8945 -36.0098 -29.2676z" />
    <glyph glyph-name="f" unicode="f" horiz-adv-x="423" 
d="M424.755 281.299c16.3311 16.5811 56.5059 6.77051 34.6484 -15.8076c-84.252 -86.9727 -172.927 -168.54 -263.456 -248.567c34.7773 3.83594 69.9268 1.66797 101.118 -14.1865c43.2275 -21.9736 72.1582 -66.7236 77.1328 -114.636
c9.74023 -93.7949 -61.5117 -198.481 -159.323 -204.299c-113.474 -6.74707 -170.748 111.26 -196.337 203.794c-31.8945 115.339 -29.2617 236.577 -22.1191 355.049c7.60742 126.149 20.3936 251.147 45.3262 375.123c6.24219 31.0283 40.7168 51.5146 69.3916 56.3848
c21.1084 3.58594 64.249 -4.01562 61.9014 -34.7998c-8.36328 -109.598 -18.9053 -219.044 -26.8037 -328.67c-6.66016 -92.4238 -13.8896 -185.771 -7.45605 -278.398c0.313477 -4.54492 0.638672 -9.16504 0.981445 -13.832
c100.171 81.5264 194.478 170.945 284.995 262.846zM259.369 -33.7715c-36.625 16.8428 -76.9111 8.76953 -114.908 0.272461c7.00879 -61.9531 20.8584 -126.73 56.5361 -174.393c18.0742 -24.1475 40.7109 -42.582 70.333 -26.0244
c36.6367 20.4746 54.3564 63.127 51.5264 103.716c-2.7959 40.0605 -26.3623 79.3594 -63.4873 96.4287z" />
    <glyph glyph-name="g" unicode="g" horiz-adv-x="612" 
d="M609.553 285.367c11.6406 18.6846 57.8047 18.8936 42.1074 -6.95703c-58.5527 -96.4043 -146.013 -172.015 -238.582 -235.717c-1.34863 -48.627 -5.50977 -97.1143 -14.5879 -145.038c-23.1943 -122.476 -95.5557 -241.058 -224.349 -271.842
c-54.6006 -13.0527 -121.499 -9.29883 -168.382 24.124c-47.6094 33.9404 -66.9854 88.8203 -44.5928 143.444c25.1064 61.2559 85.624 97.1084 139.917 129.352c61.6738 36.6309 125.957 68.3164 189.2 102.065c-2.85352 53.0264 -8.93262 106.018 -14.5869 159.009
c-21.9971 -54.624 -50.4629 -106.418 -92.4463 -143.99c-37.8574 -33.8818 -88.2217 -60.2783 -139.08 -36.3926c-49.9111 23.4385 -68.3926 80.3291 -73.2568 131.501c-10.1816 107.156 32.9414 229.952 135.1 278.869c47.3828 22.6885 99.084 19.4922 142.881 -9.26367
c5.64355 -3.70801 10.9385 -7.66602 15.96 -11.833c4.09766 31.1445 30.7559 53.915 60.8662 61.8652c26.6523 7.03809 66.7188 0.488281 69.8398 -33.0918c8.11328 -87.1992 13.2217 -175.659 16.4707 -263.178c0.767578 -20.7012 1.31348 -41.4375 1.49902 -62.1738
c76.749 49.708 145.682 108.441 196.022 189.247zM183.649 101.246c37.0322 55.415 60.8486 118.087 83.0664 180.69c-0.139648 2.05176 -0.296875 4.10938 -0.424805 6.16113c-13.1113 12.1699 -25.6875 24.9727 -39.0488 37.9443
c-16.9297 16.4473 -52.6426 46.7607 -76.1914 27.5352c-19.0449 -15.5459 -31.9697 -50.1836 -40.7393 -72.2217c-12.9082 -32.4463 -19.6553 -69.4961 -19.2949 -104.366c0.331055 -32.04 0.685547 -76.2207 20.4805 -103.076
c27.1348 -36.8174 55.502 2.41797 72.1523 27.333zM198.086 -310.707c92.3018 60.5059 95.8115 177.91 94.0625 278.302c-24.0664 -13.7275 -48.2666 -27.2227 -72.2627 -40.9443c-50.8643 -29.0879 -107.046 -55.5371 -152.011 -93.5811
c-40.8389 -34.5566 -64.8242 -99.5371 -20.2021 -141.486c42.0303 -39.5137 105.238 -31.9004 150.413 -2.29004z" />
    <glyph glyph-name="h" unicode="h" horiz-adv-x="695" 
d="M688.708 266.381c10.4609 20.1729 56.6055 20.3857 42.6572 -7.04004c-24.4326 -48.0342 -48.8945 -96.1377 -76.9307 -142.207c-23.9854 -39.415 -50.1152 -81.7998 -84.3115 -113.276c-58.7969 -54.1182 -159.955 -50.8516 -211.342 12.5947
c-57.0303 70.415 -34.248 170.935 -33.9053 253.914c0.0927734 22.2588 -0.929688 44.5762 -4.76562 66.5215c-1.95312 11.1699 -2.53418 49.8584 -15.0527 55.0371c-10.333 4.27148 -39.4609 -33.2725 -45.9414 -42.6182
c-11.6064 -16.7432 -20.8818 -35.2012 -29.5586 -53.5781c-35.4629 -75.0928 -57.832 -155.648 -78.8701 -235.943c0.342773 -23.2295 -0.226562 -46.3545 -8.68262 -68.2412c-8.22363 -21.2764 -41.6699 -42.8789 -62.4473 -23.5957
c-27.9541 25.9434 -37.3926 70.2578 -45.1104 106.494c-8.54883 40.1299 -13.9883 81.1543 -17.8877 121.964c-7.49707 78.4932 -10.2168 157.01 -8.19434 235.828c3.54492 138.267 10.6992 283.188 51.4043 416.206c20.2305 66.1143 48.0166 132.414 97.416 182.354
c37.9854 38.4033 109.376 79.5791 156.619 32.208c41.0078 -41.1123 41.3623 -108.568 35.3584 -162.495c-6.84082 -61.4648 -21.3232 -122.436 -42.2686 -180.628c-37.1836 -103.297 -94.249 -201.962 -162.729 -288.458
c-0.854492 -23.4854 -1.55762 -46.9766 -1.99316 -70.4961c-1.0166 -54.543 0.633789 -108.883 2.78418 -163.321c13.5527 42.0068 29.4824 83.1768 49.3877 122.731c30.7441 61.0986 95.4746 139.952 173.863 108.365c82.6426 -33.3066 85.7285 -144.456 89.2334 -219.038
c1.93555 -41.1992 6.86426 -82.2881 17.1514 -122.272c5.2998 -20.5967 11.3145 -38.9678 22.0781 -57.3906c12.6348 -21.6367 29.0293 -12.3379 45.4766 2.56348c32.9121 29.8203 56.6475 71.8682 79.127 109.702c24.0605 40.4902 45.7559 82.3174 67.4336 124.115z
M167.055 720.942c-7.50879 -58.9775 -13.0986 -118.047 -17.126 -177.222c37.8281 57.1523 73.8779 115.299 102.082 178.757c22.6074 50.8467 39.1533 104.361 45.7266 159.771c2.71973 22.9268 2.47559 152.772 -39.9619 135.465
c-17.1387 -6.99121 -31.2383 -46.9238 -37.457 -62.3018c-8.9502 -22.1309 -16 -45.6162 -22.3867 -68.6016c-15.041 -54.1133 -23.793 -110.22 -30.877 -165.867z" />
    <glyph glyph-name="i" unicode="i" horiz-adv-x="426" 
d="M424.204 278.039c11.3271 17.377 55.7041 18.4287 40.4658 -6.68359c-44.4072 -73.2451 -91.7783 -145.183 -149.326 -208.926c-46.9707 -52.0322 -113.55 -113.474 -185.94 -122.877c-89.8203 -11.6641 -120.506 72.3555 -132.274 145.165
c-14.2441 88.1289 -10.1406 177.699 0.849609 265.88c3.88184 31.1338 42.8613 52.2881 70.0254 56.9023c22.375 3.80078 63.4814 -4.06836 62.4648 -35.1201c-2.34766 -71.6064 -9.07227 -143.276 -7.51465 -214.976c0.708984 -32.5576 1.91211 -66.2656 6.89258 -98.4854
c2.5918 -16.79 6.81738 -44.1455 22.3984 -54.6064c25.1533 -16.8887 62.4121 15.7793 80.5273 30.8486c25.752 21.416 48.3242 46.6855 69.7754 72.3213c44.8486 53.5957 83.543 112.091 121.656 170.557zM23.7939 489.597
c-29.0117 22.2646 -50.457 39.0186 -63.5273 74.6387c-10.4844 28.582 -21.9043 62.6562 3.53906 86.2344c33.9756 31.4883 62.1562 14.5703 82.9561 -15.709c5.45117 9.75195 11.7744 19.0566 19.2832 27.6982c22.0957 25.415 67.7529 51.9102 101.339 33.1387
c40.2578 -22.5029 12.8203 -69.9668 -5.8584 -96.916c-26.2861 -37.9326 -56.5068 -78.2197 -91.5283 -108.348c-11.751 -10.1064 -29.5752 -10.1064 -40.1992 -3.63184c-2.16797 0.62793 -4.21973 1.52832 -6.00391 2.89453z" />
    <glyph glyph-name="i" unicode="&#xef;" horiz-adv-x="426" 
d="M424.204 278.039c11.3271 17.377 55.7041 18.4287 40.4658 -6.68359c-44.4072 -73.2451 -91.7783 -145.183 -149.326 -208.926c-46.9707 -52.0322 -113.55 -113.474 -185.94 -122.877c-89.8203 -11.6641 -120.506 72.3555 -132.274 145.165
c-14.2441 88.1289 -10.1406 177.699 0.849609 265.88c3.88184 31.1338 42.8613 52.2881 70.0254 56.9023c22.375 3.80078 63.4814 -4.06836 62.4648 -35.1201c-2.34766 -71.6064 -9.07227 -143.276 -7.51465 -214.976c0.708984 -32.5576 1.91211 -66.2656 6.89258 -98.4854
c2.5918 -16.79 6.81738 -44.1455 22.3984 -54.6064c25.1533 -16.8887 62.4121 15.7793 80.5273 30.8486c25.752 21.416 48.3242 46.6855 69.7754 72.3213c44.8486 53.5957 83.543 112.091 121.656 170.557zM23.7939 489.597
c-29.0117 22.2646 -50.457 39.0186 -63.5273 74.6387c-10.4844 28.582 -21.9043 62.6562 3.53906 86.2344c33.9756 31.4883 62.1562 14.5703 82.9561 -15.709c5.45117 9.75195 11.7744 19.0566 19.2832 27.6982c22.0957 25.415 67.7529 51.9102 101.339 33.1387
c40.2578 -22.5029 12.8203 -69.9668 -5.8584 -96.916c-26.2861 -37.9326 -56.5068 -78.2197 -91.5283 -108.348c-11.751 -10.1064 -29.5752 -10.1064 -40.1992 -3.63184c-2.16797 0.62793 -4.21973 1.52832 -6.00391 2.89453z" />
    <glyph glyph-name="i" unicode="&#xee;" horiz-adv-x="426" 
d="M424.204 278.039c11.3271 17.377 55.7041 18.4287 40.4658 -6.68359c-44.4072 -73.2451 -91.7783 -145.183 -149.326 -208.926c-46.9707 -52.0322 -113.55 -113.474 -185.94 -122.877c-89.8203 -11.6641 -120.506 72.3555 -132.274 145.165
c-14.2441 88.1289 -10.1406 177.699 0.849609 265.88c3.88184 31.1338 42.8613 52.2881 70.0254 56.9023c22.375 3.80078 63.4814 -4.06836 62.4648 -35.1201c-2.34766 -71.6064 -9.07227 -143.276 -7.51465 -214.976c0.708984 -32.5576 1.91211 -66.2656 6.89258 -98.4854
c2.5918 -16.79 6.81738 -44.1455 22.3984 -54.6064c25.1533 -16.8887 62.4121 15.7793 80.5273 30.8486c25.752 21.416 48.3242 46.6855 69.7754 72.3213c44.8486 53.5957 83.543 112.091 121.656 170.557zM23.7939 489.597
c-29.0117 22.2646 -50.457 39.0186 -63.5273 74.6387c-10.4844 28.582 -21.9043 62.6562 3.53906 86.2344c33.9756 31.4883 62.1562 14.5703 82.9561 -15.709c5.45117 9.75195 11.7744 19.0566 19.2832 27.6982c22.0957 25.415 67.7529 51.9102 101.339 33.1387
c40.2578 -22.5029 12.8203 -69.9668 -5.8584 -96.916c-26.2861 -37.9326 -56.5068 -78.2197 -91.5283 -108.348c-11.751 -10.1064 -29.5752 -10.1064 -40.1992 -3.63184c-2.16797 0.62793 -4.21973 1.52832 -6.00391 2.89453z" />
    <glyph glyph-name="i" unicode="&#xed;" horiz-adv-x="426" 
d="M424.204 278.039c11.3271 17.377 55.7041 18.4287 40.4658 -6.68359c-44.4072 -73.2451 -91.7783 -145.183 -149.326 -208.926c-46.9707 -52.0322 -113.55 -113.474 -185.94 -122.877c-89.8203 -11.6641 -120.506 72.3555 -132.274 145.165
c-14.2441 88.1289 -10.1406 177.699 0.849609 265.88c3.88184 31.1338 42.8613 52.2881 70.0254 56.9023c22.375 3.80078 63.4814 -4.06836 62.4648 -35.1201c-2.34766 -71.6064 -9.07227 -143.276 -7.51465 -214.976c0.708984 -32.5576 1.91211 -66.2656 6.89258 -98.4854
c2.5918 -16.79 6.81738 -44.1455 22.3984 -54.6064c25.1533 -16.8887 62.4121 15.7793 80.5273 30.8486c25.752 21.416 48.3242 46.6855 69.7754 72.3213c44.8486 53.5957 83.543 112.091 121.656 170.557zM23.7939 489.597
c-29.0117 22.2646 -50.457 39.0186 -63.5273 74.6387c-10.4844 28.582 -21.9043 62.6562 3.53906 86.2344c33.9756 31.4883 62.1562 14.5703 82.9561 -15.709c5.45117 9.75195 11.7744 19.0566 19.2832 27.6982c22.0957 25.415 67.7529 51.9102 101.339 33.1387
c40.2578 -22.5029 12.8203 -69.9668 -5.8584 -96.916c-26.2861 -37.9326 -56.5068 -78.2197 -91.5283 -108.348c-11.751 -10.1064 -29.5752 -10.1064 -40.1992 -3.63184c-2.16797 0.62793 -4.21973 1.52832 -6.00391 2.89453z" />
    <glyph glyph-name="j" unicode="j" horiz-adv-x="352" 
d="M351.072 285.367c11.6406 18.6846 57.8135 18.8926 42.1162 -6.95215c-58.5586 -96.4043 -146.019 -172.015 -238.588 -235.717c-1.34863 -48.627 -5.50977 -97.1143 -14.5879 -145.038c-23.1943 -122.476 -95.5557 -241.058 -224.349 -271.842
c-54.6006 -13.0527 -121.499 -9.29883 -168.382 24.124c-47.6094 33.9404 -66.9854 88.8203 -44.5928 143.444c25.1064 61.2559 85.6182 97.1084 139.917 129.352c61.6738 36.6309 125.957 68.3164 189.2 102.065c-6.48633 120.599 -29.96 241.023 -25.9502 361.692
c1.14453 34.3184 29.3076 59.5938 61.3828 68.0674c26.6523 7.03809 66.7188 0.488281 69.8398 -33.0918c8.11328 -87.1992 13.2217 -175.659 16.4707 -263.178c0.767578 -20.7012 1.31348 -41.4375 1.49902 -62.1738c76.7441 49.708 145.683 108.441 196.023 189.247z
M-60.3867 -310.706c92.2959 60.5059 95.8057 177.909 94.0625 278.301c-24.0664 -13.7275 -48.2666 -27.2227 -72.2627 -40.9443c-50.8643 -29.0879 -107.046 -55.5371 -152.011 -93.5801c-40.8389 -34.5566 -64.8242 -99.5371 -20.2021 -141.486
c42.0303 -39.5137 105.238 -31.9004 150.413 -2.29004zM31.1064 489.597c-29.0117 22.2646 -50.4512 39.0186 -63.5273 74.6387c-10.4844 28.582 -21.9043 62.6562 3.53906 86.2344c33.9814 31.4883 62.1621 14.5703 82.9619 -15.709
c5.45117 9.75195 11.7744 19.0566 19.2832 27.6982c22.0898 25.415 67.7471 51.9102 101.333 33.1387c40.2637 -22.5029 12.8203 -69.9668 -5.8584 -96.916c-26.2861 -37.9326 -56.5068 -78.2197 -91.5283 -108.348c-11.751 -10.1064 -29.5752 -10.1064 -40.1992 -3.63184
c-2.16797 0.62793 -4.21973 1.52832 -6.00391 2.89453z" />
    <glyph glyph-name="k" unicode="k" horiz-adv-x="573" 
d="M559.676 244.436c5.80566 20.8643 52.9287 29.4365 45.9434 2.78418c-23.2119 -88.3906 -75.4189 -199.098 -162.652 -240.448c-83.9619 -39.7988 -179.6 -5.59082 -222.392 76.0234c-20.9805 40.0078 -29.8779 86.6406 -38.8281 130.652
c-4.8291 -13.6396 -9.22266 -27.4365 -13.0879 -41.3555c-6.99121 -25.165 -14.3838 -52.3584 -18.626 -79.6797c0.0869141 -3.42285 0.25 -6.83984 0.279297 -10.2627c0.279297 -30.6104 2.87109 -61.6914 -8.30469 -90.6045
c-8.22363 -21.2764 -41.6699 -42.8789 -62.4473 -23.5957c-27.9541 25.9434 -37.3926 70.2578 -45.1104 106.494c-8.54883 40.1299 -13.9883 81.1543 -17.8877 121.964c-7.49707 78.4932 -10.2168 157.01 -8.19434 235.828c3.54492 138.267 10.6992 283.188 51.4043 416.206
c20.2305 66.1143 48.0166 132.414 97.416 182.354c37.9854 38.4033 109.376 79.5791 156.619 32.208c41.0078 -41.1123 41.3564 -108.568 35.3584 -162.495c-6.84082 -61.4648 -21.3232 -122.436 -42.2686 -180.628c-37.1836 -103.297 -94.2432 -201.962 -162.729 -288.458
c-0.854492 -23.4854 -1.55762 -46.9766 -1.99316 -70.4961c-0.790039 -42.4258 0.0703125 -84.7178 1.47656 -127.033c1.09863 2.85352 2.17969 5.71289 3.32422 8.55469c25.1934 62.5801 61.8359 127.771 118.518 167.04c24.7344 17.1387 57.8613 34.8467 88.6455 23.915
c28.1523 -9.99609 35.0508 -34.9805 25.6533 -61.4873c-15.1455 -42.6924 -50.3877 -69.9902 -90.3145 -88.7617c14.041 -17.7432 22.9678 -39.5312 30.3604 -60.6104c16.877 -48.1504 28.8662 -97.916 46.4297 -145.822c25.8389 -70.4844 89.2217 -21.0439 120.122 18.7139
c34.3066 44.1396 58.3379 95.3115 73.2852 149zM167.05 720.943c-7.50879 -58.9775 -13.0977 -118.047 -17.125 -177.222c37.8281 57.1523 73.8721 115.299 102.082 178.757c22.6074 50.8467 39.1533 104.361 45.7266 159.771
c2.71973 22.9268 2.47559 152.772 -39.9619 135.465c-17.1387 -6.99121 -31.2383 -46.9238 -37.457 -62.3018c-8.9502 -22.1309 -16 -45.6162 -22.3867 -68.6016c-15.041 -54.1133 -23.793 -110.22 -30.8779 -165.867zM229.516 312.991
c21.0908 5.3877 42.5303 11.6816 60.9648 23.5781c8.97363 5.79395 47.9531 38.293 34.1094 51.7588c-13.3613 12.9951 -49.4756 -21.3867 -58.4717 -30.0518c-13.9834 -13.4717 -26.0889 -28.9541 -36.6025 -45.2852z" />
    <glyph glyph-name="l" unicode="l" horiz-adv-x="466" 
d="M455.36 268.142c6.84082 21.1484 55.6084 29.3701 47.1113 2.85156c-31.2959 -97.7295 -79.7832 -203.131 -153.662 -276.353c-67.0439 -66.4512 -183.743 -99.084 -250.537 -15.1279c-28.6455 36.0039 -43.8838 79.4521 -55.7285 123.377
c-13.1113 48.6094 -23.0088 97.8174 -28.0537 147.932c-10.333 102.611 -7.86914 205.606 -0.790039 308.328c13.5234 196.227 52.3984 414.887 201.248 557.604c47.8711 45.8955 152.604 128.422 210.947 49.377c24.1885 -32.7725 22.7119 -81.7539 20.7998 -120.309
c-2.49316 -50.2188 -12.0713 -99.6533 -26.415 -147.792c-55.1182 -185.021 -151.4 -366.963 -265.002 -523.129c0.12207 -28.6396 0.895508 -57.2686 2.69727 -85.8389c2.73145 -43.2969 6.3584 -86.7217 12.9893 -129.612
c5.32324 -34.4346 9.37402 -70.9727 20.6602 -104.059c9.58887 -28.1113 24.9492 -63.4697 57.2334 -70.5537c38.2061 -8.38086 70.3975 32.4873 90.8955 58.9307c51.6191 66.585 89.7617 144.474 115.606 224.373zM161.458 550.356
c-2.06934 -32.1973 -3.83008 -64.4746 -4.95215 -96.7822c87.9316 134.646 168.813 277.741 215.104 431.315c13.4482 44.6221 23.4443 90.7842 26.3271 137.383c2.04004 33.0283 5.81152 77.8311 -12.832 107.25c-45.9355 72.4893 -113.944 -81.5791 -128.944 -114.316
c-66.2246 -144.525 -84.6191 -307.881 -94.7021 -464.85z" />
    <glyph glyph-name="m" unicode="m" horiz-adv-x="875" 
d="M869.938 269.443c8.93848 19.917 52.8379 19.6914 40.5117 -6.68262c-41.292 -88.1582 -81.7939 -184.946 -146.74 -258.813c-53.4736 -60.8135 -151.813 -72.5303 -201.608 -1.46484c-25.6934 36.6777 -27.0479 85.5771 -26.8389 128.95
c0.208984 44.1748 3.53906 88.6289 5.56738 132.763c1.05176 22.9219 1.46973 46.0586 0.969727 68.9971c-0.389648 18.0107 1.58008 43.1465 -4.04004 60.4072c-8.08398 24.8281 -32.4814 -23.2168 -38.0898 -34.0791
c-9.88574 -19.1377 -18.0166 -39.0781 -25.2754 -59.3438c-30.7441 -85.8271 -53.3691 -174.484 -75.6572 -262.834c-0.174805 -3.47559 -0.337891 -6.95703 -0.523438 -10.415c-1.93555 -36.1201 -30.1982 -62.4531 -64.4873 -71.5078
c-27.332 -7.21777 -71.0127 -0.662109 -73.3721 34.7607c-4.83496 72.6113 3.75488 146.205 5.72461 218.909c0.935547 34.5908 1.44141 69.4668 -1.31934 104c-1.08105 13.541 -1.20898 78.2715 -14.96 84.333c-35.7773 15.7676 -83.166 -153.104 -89.9248 -176.652
c-9.75195 -33.9814 -18.3711 -68.2939 -25.4727 -102.926c-6.31738 -30.8018 -10.0713 -62.1328 -20.4912 -91.918c-0.523438 -1.48242 -1.26172 -2.89453 -2.15625 -4.2373c-3.30664 -9.6416 -8.22363 -18.7314 -15.5693 -26.9082
c-11.1348 -12.3848 -28.7734 -17.7783 -44.5234 -12.3096c-32.9697 11.4434 -39.3223 55.165 -45.709 85.3975c-7.23535 34.2539 -10.3447 68.9385 -12.6465 103.826c-4.75391 72.0244 -4.16699 147.03 9.76367 218.056c5.58496 28.4775 37.4854 47.3018 63.7021 51.7598
c20.8232 3.53906 57.1582 -3.72559 56.8213 -31.9473c-0.691406 -57.9775 -5.05566 -115.804 -6.50293 -173.775c3.41113 11.3965 6.92676 22.7588 10.6289 34.0566c18.7891 57.3613 49.376 157.375 120.14 167.761c30.2559 4.44043 65.5791 -16.3252 86.2109 -37.4219
c28.8555 -29.5117 41.4902 -69.2227 50.1377 -108.614c6.30566 -28.7275 10.4434 -58.1348 13.0352 -87.8154c12.4717 42.9248 26.4258 85.3389 43.1289 126.562c25.7227 63.4873 74.4824 142.358 153.998 101.659c35.3525 -18.0977 54.334 -62.0693 64.3828 -98.4912
c11.6758 -42.3213 12.9199 -84.8809 14.4307 -128.469c1.5459 -44.8086 4.14941 -89.501 6.14258 -134.251c0.941406 -21.0791 2.9873 -37.0674 9.98438 -56.6934c0.545898 -1.53418 1.80078 -3.92285 2.47461 -5.5791c3.43457 0.273438 11.9893 -1.18555 11.6172 -1.24902
c10.4092 1.84766 22.0098 13.8955 28.8213 21.2412c62.7666 67.6543 100.45 157.951 137.715 240.96z" />
    <glyph glyph-name="n" unicode="n" horiz-adv-x="589" 
d="M570.562 217.917c6.98535 20.2656 54.4814 28.6162 45.9385 2.76562c-25.6006 -77.3477 -53.625 -174.543 -124.534 -223.216c-64.4346 -44.2275 -152.006 -12.2744 -186.132 53.9033c-42.0244 81.498 -15.2324 184.005 -15.3486 271.669
c-0.0292969 20.3877 -1.13965 40.4609 -6.8877 60.0469c-1.45898 4.98633 -3.5166 18.9463 -9.8916 20.2598c-6.3291 1.30762 -14.582 -10.8154 -18.79 -15.9121c-27.2393 -32.9697 -44.4824 -75.2148 -60.4941 -114.467
c-31.4824 -77.1973 -53.5781 -157.864 -81.5732 -236.363c-1.27832 -11.5654 -3.28906 -22.8984 -6.43359 -33.8359c-6.99121 -24.3457 -54.4727 -54.0957 -75.5459 -28.5479c-38.0205 46.0928 -41.9434 118.507 -45.2676 176.095
c-3.70215 64.0859 0.046875 127.608 8.64258 191.177c8.40332 62.1621 142.747 86.0254 130.752 7.91016c-8.7002 -56.6289 -13.541 -113.979 -14 -171.288c-0.0351562 -4.21973 0.0117188 -8.49121 0.0986328 -12.792c17.4297 55.3682 36.4629 110.167 61.1738 162.827
c18.7373 39.9268 43.21 88.3096 83.9502 110.017c41.3906 22.0557 96.4277 17.5049 124.829 -22.5146c31.5107 -44.4131 36.584 -101.833 39.2402 -154.592c2.85352 -56.583 2.38281 -113.439 6.51465 -169.93c1.14453 -15.6514 0.720703 -59.3262 18.2256 -67.416
c24.2578 -11.2051 50.8174 30.5576 60.8779 46.0928c29.4365 45.4648 47.127 97.2471 64.6553 148.111z" />
    <glyph glyph-name="o" unicode="o" horiz-adv-x="449" 
d="M453.385 282.746c16.6855 15.0693 51.8467 -1.15234 31.0527 -20.3945c-35.585 -32.9121 -80.9512 -49.2949 -128.188 -56.2744c-5.12598 -120.599 -76.709 -267.833 -214.452 -267.298c-161.188 0.62793 -194.907 200.399 -161.205 323.997
c8.58398 31.4824 42.582 53.1836 74.0645 54.8984c2.70801 0.151367 5.41016 0.0585938 8.09473 -0.150391c-20.6143 81.875 29.8779 183.295 122.714 185.329c60.4131 1.3252 103.344 -45.4941 127.451 -96.0732c23.4502 -49.208 39.124 -106.768 42.8145 -162.165
c35.6318 3.91699 70.4902 13.5996 97.6543 38.1309zM248.981 96.4619c17.8535 32.749 29.9062 68.6475 37.0078 105.337c-1.99902 0.0292969 -4.00391 0.0234375 -5.99707 0.0761719c-58.0762 1.42383 -133.425 9.51953 -179.134 51.0674
c-8.82812 -49.6084 -9.02539 -98.8975 1.94727 -148.785c7.81641 -35.5615 32.4111 -86.9141 77.4639 -79.3936c31.9707 5.33496 54.7061 45.999 68.7119 71.6982zM291.778 242.097c4.02148 46.0342 -1.48242 91.0527 -18.8945 134.367
c-16.4824 40.9844 -52.4863 101.804 -105.925 90.9531c-42.9951 -8.73535 -63.2256 -60.8604 -62.8945 -99.8516c0.37207 -44.0762 23.2705 -83.6191 63.7666 -102.019c37.416 -17.0049 81.9805 -22.7119 123.947 -23.4502z" />
    <glyph glyph-name="o" unicode="&#xf6;" horiz-adv-x="449" 
d="M453.385 282.746c16.6855 15.0693 51.8467 -1.15234 31.0527 -20.3945c-35.585 -32.9121 -80.9512 -49.2949 -128.188 -56.2744c-5.12598 -120.599 -76.709 -267.833 -214.452 -267.298c-161.188 0.62793 -194.907 200.399 -161.205 323.997
c8.58398 31.4824 42.582 53.1836 74.0645 54.8984c2.70801 0.151367 5.41016 0.0585938 8.09473 -0.150391c-20.6143 81.875 29.8779 183.295 122.714 185.329c60.4131 1.3252 103.344 -45.4941 127.451 -96.0732c23.4502 -49.208 39.124 -106.768 42.8145 -162.165
c35.6318 3.91699 70.4902 13.5996 97.6543 38.1309zM248.981 96.4619c17.8535 32.749 29.9062 68.6475 37.0078 105.337c-1.99902 0.0292969 -4.00391 0.0234375 -5.99707 0.0761719c-58.0762 1.42383 -133.425 9.51953 -179.134 51.0674
c-8.82812 -49.6084 -9.02539 -98.8975 1.94727 -148.785c7.81641 -35.5615 32.4111 -86.9141 77.4639 -79.3936c31.9707 5.33496 54.7061 45.999 68.7119 71.6982zM291.778 242.097c4.02148 46.0342 -1.48242 91.0527 -18.8945 134.367
c-16.4824 40.9844 -52.4863 101.804 -105.925 90.9531c-42.9951 -8.73535 -63.2256 -60.8604 -62.8945 -99.8516c0.37207 -44.0762 23.2705 -83.6191 63.7666 -102.019c37.416 -17.0049 81.9805 -22.7119 123.947 -23.4502z" />
    <glyph glyph-name="o" unicode="&#xf5;" horiz-adv-x="449" 
d="M453.385 282.746c16.6855 15.0693 51.8467 -1.15234 31.0527 -20.3945c-35.585 -32.9121 -80.9512 -49.2949 -128.188 -56.2744c-5.12598 -120.599 -76.709 -267.833 -214.452 -267.298c-161.188 0.62793 -194.907 200.399 -161.205 323.997
c8.58398 31.4824 42.582 53.1836 74.0645 54.8984c2.70801 0.151367 5.41016 0.0585938 8.09473 -0.150391c-20.6143 81.875 29.8779 183.295 122.714 185.329c60.4131 1.3252 103.344 -45.4941 127.451 -96.0732c23.4502 -49.208 39.124 -106.768 42.8145 -162.165
c35.6318 3.91699 70.4902 13.5996 97.6543 38.1309zM248.981 96.4619c17.8535 32.749 29.9062 68.6475 37.0078 105.337c-1.99902 0.0292969 -4.00391 0.0234375 -5.99707 0.0761719c-58.0762 1.42383 -133.425 9.51953 -179.134 51.0674
c-8.82812 -49.6084 -9.02539 -98.8975 1.94727 -148.785c7.81641 -35.5615 32.4111 -86.9141 77.4639 -79.3936c31.9707 5.33496 54.7061 45.999 68.7119 71.6982zM291.778 242.097c4.02148 46.0342 -1.48242 91.0527 -18.8945 134.367
c-16.4824 40.9844 -52.4863 101.804 -105.925 90.9531c-42.9951 -8.73535 -63.2256 -60.8604 -62.8945 -99.8516c0.37207 -44.0762 23.2705 -83.6191 63.7666 -102.019c37.416 -17.0049 81.9805 -22.7119 123.947 -23.4502z" />
    <glyph glyph-name="o" unicode="&#xf4;" horiz-adv-x="449" 
d="M453.385 282.746c16.6855 15.0693 51.8467 -1.15234 31.0527 -20.3945c-35.585 -32.9121 -80.9512 -49.2949 -128.188 -56.2744c-5.12598 -120.599 -76.709 -267.833 -214.452 -267.298c-161.188 0.62793 -194.907 200.399 -161.205 323.997
c8.58398 31.4824 42.582 53.1836 74.0645 54.8984c2.70801 0.151367 5.41016 0.0585938 8.09473 -0.150391c-20.6143 81.875 29.8779 183.295 122.714 185.329c60.4131 1.3252 103.344 -45.4941 127.451 -96.0732c23.4502 -49.208 39.124 -106.768 42.8145 -162.165
c35.6318 3.91699 70.4902 13.5996 97.6543 38.1309zM248.981 96.4619c17.8535 32.749 29.9062 68.6475 37.0078 105.337c-1.99902 0.0292969 -4.00391 0.0234375 -5.99707 0.0761719c-58.0762 1.42383 -133.425 9.51953 -179.134 51.0674
c-8.82812 -49.6084 -9.02539 -98.8975 1.94727 -148.785c7.81641 -35.5615 32.4111 -86.9141 77.4639 -79.3936c31.9707 5.33496 54.7061 45.999 68.7119 71.6982zM291.778 242.097c4.02148 46.0342 -1.48242 91.0527 -18.8945 134.367
c-16.4824 40.9844 -52.4863 101.804 -105.925 90.9531c-42.9951 -8.73535 -63.2256 -60.8604 -62.8945 -99.8516c0.37207 -44.0762 23.2705 -83.6191 63.7666 -102.019c37.416 -17.0049 81.9805 -22.7119 123.947 -23.4502z" />
    <glyph glyph-name="o" unicode="&#xf3;" horiz-adv-x="449" 
d="M453.385 282.746c16.6855 15.0693 51.8467 -1.15234 31.0527 -20.3945c-35.585 -32.9121 -80.9512 -49.2949 -128.188 -56.2744c-5.12598 -120.599 -76.709 -267.833 -214.452 -267.298c-161.188 0.62793 -194.907 200.399 -161.205 323.997
c8.58398 31.4824 42.582 53.1836 74.0645 54.8984c2.70801 0.151367 5.41016 0.0585938 8.09473 -0.150391c-20.6143 81.875 29.8779 183.295 122.714 185.329c60.4131 1.3252 103.344 -45.4941 127.451 -96.0732c23.4502 -49.208 39.124 -106.768 42.8145 -162.165
c35.6318 3.91699 70.4902 13.5996 97.6543 38.1309zM248.981 96.4619c17.8535 32.749 29.9062 68.6475 37.0078 105.337c-1.99902 0.0292969 -4.00391 0.0234375 -5.99707 0.0761719c-58.0762 1.42383 -133.425 9.51953 -179.134 51.0674
c-8.82812 -49.6084 -9.02539 -98.8975 1.94727 -148.785c7.81641 -35.5615 32.4111 -86.9141 77.4639 -79.3936c31.9707 5.33496 54.7061 45.999 68.7119 71.6982zM291.778 242.097c4.02148 46.0342 -1.48242 91.0527 -18.8945 134.367
c-16.4824 40.9844 -52.4863 101.804 -105.925 90.9531c-42.9951 -8.73535 -63.2256 -60.8604 -62.8945 -99.8516c0.37207 -44.0762 23.2705 -83.6191 63.7666 -102.019c37.416 -17.0049 81.9805 -22.7119 123.947 -23.4502z" />
    <glyph glyph-name="p" unicode="p" horiz-adv-x="639" 
d="M664.564 287.721c31.6045 3.05664 14.6943 -35.2881 -8.98242 -37.5078c-47.3887 -4.47461 -96.3408 -11.7275 -143.95 -23.8447c0.0117188 -0.767578 0.0585938 -1.5459 0.0644531 -2.31348c0.807617 -75.2031 -14.1924 -155.887 -65.8701 -213.417
c-46.0986 -51.3115 -133.919 -86.2344 -197.226 -45.041c-26.042 16.9414 -42.5586 45.1631 -40.1641 76.8018c2.41211 31.8535 23.5898 55.4141 45 77.4873c43.0361 44.3721 92.9355 77.6328 146.874 102.56c2.38867 38.5312 0.726562 77.3301 -7.08398 115.024
c-5.51562 26.6123 -11.6475 60.3721 -29.1055 82.1484c-23.6943 29.5469 -48.4814 -4.98047 -62.6504 -26.6113c-33.1035 -50.5391 -52.2764 -111.963 -69.5898 -169.33c-17.3242 -57.4082 -30.6797 -115.943 -41.8379 -174.845
c-17.29 -91.25 -29.2334 -183.354 -43.3271 -275.126c0.157227 -4.86426 0.336914 -9.73438 0.453125 -14.5986c0.755859 -32.6562 -5.0791 -63.8945 -6.21191 -96.1318c-0.854492 -24.2812 -26.4609 -38.5312 -48.7725 -36.2412
c-33.3418 3.41699 -44.0996 41.4023 -52.2129 69.2061c-10.3799 35.5732 -18.208 72.1465 -23.7988 108.789c-10.6934 70.0889 -16.7607 140.638 -20.0498 211.43c-6.84082 147.229 -2.42383 294.812 19.0449 440.709c4.64941 31.6211 42.9082 52.8975 70.9727 57.6689
c21.8174 3.70215 65.4346 -4.1084 63.3135 -35.5967c-9.16504 -136.069 -16.627 -272.447 -14.8018 -408.883c0.267578 -19.9629 0.726562 -39.9375 1.29004 -59.918c12.2451 72.7334 27.3965 144.868 48.4873 215.632c27.4023 91.9531 112.776 338.108 246.103 215.818
c49.917 -45.7842 72.6816 -113.677 79.127 -180.418c50.5449 13.251 102.792 21.5098 154.905 26.5488zM391.834 152.239c1.85352 10.6357 3.47559 21.3682 4.83594 32.1543c-43.1523 -21.7354 -82.5498 -50.0791 -115.264 -87.2217
c-10.0547 -11.4141 -25.3398 -26.0654 -22.5967 -42.0996c2.67871 -15.6455 19.5439 -24.0664 34.248 -26.6523c13.9131 -2.45215 30.0176 0.814453 41.8848 7.41113c38.2705 21.2646 50.0449 77.1787 56.8916 116.408z" />
    <glyph glyph-name="q" unicode="q" horiz-adv-x="566" 
d="M415.279 54.916c-0.0927734 -4.55078 -0.201172 -9.1084 -0.293945 -13.665c-0.00585938 -0.307617 -0.00585938 -0.621094 -0.0117188 -0.93457c2.0918 -3.94043 6.1543 -7.85742 12.6748 -12.1055c10.0654 -6.55566 20.3643 -12.4893 29.9824 -19.7598
c79.5098 -60.1104 109.23 -160.333 91.917 -256.278c-8.00879 -44.3838 -28.3672 -85.5137 -72.2285 -103.442c-47.7197 -19.5098 -103.332 0.296875 -132.832 40.9209c-62.918 86.6465 -66.5215 211.453 -69.3281 314.338
c-1.5459 56.6641 -2.77832 113.781 -2.74902 170.898c-21.4863 -51.3057 -49.0518 -99.5547 -88.7344 -135.07c-37.8633 -33.8818 -88.2275 -60.2783 -139.08 -36.3926c-49.9111 23.4385 -68.3984 80.3291 -73.2568 131.501c-10.1816 107.156 32.9414 229.952 135.1 278.869
c47.377 22.6885 99.084 19.4922 142.881 -9.26367c12.1113 -7.9502 22.6074 -17.0977 32.2021 -26.9541c8.25879 27.251 31.668 46.7549 60.5928 54.3916c26.9668 7.11914 70.0898 0.65625 72.4092 -34.3066c6.12598 -92.3711 4.3418 -185.545 2.19141 -278.353
c50.7188 55.3799 111.398 103.135 153.22 165.222c9.87988 14.6631 48.5801 17.1094 35.585 -5.87598c-29.8545 -52.8105 -77.8301 -95.498 -118.698 -139.731c-21.6484 -23.4326 -43.6396 -46.877 -63.5273 -71.8379c-3.57422 -4.49219 -6.2998 -8.47363 -8.01465 -12.1699
zM184.08 101.246c37.8926 56.6934 61.9453 120.987 84.6055 185.032c-13.8203 12.71 -26.9834 26.1406 -41.0127 39.7637c-16.9297 16.4473 -52.6426 46.7607 -76.1914 27.5352c-19.0449 -15.5459 -31.9697 -50.1836 -40.7393 -72.2217
c-12.9082 -32.4463 -19.6553 -69.4961 -19.2949 -104.366c0.331055 -32.04 0.685547 -76.2207 20.4805 -103.076c27.1348 -36.8174 55.502 2.41797 72.1523 27.333zM484.747 -104.873c-16.1338 34.6904 -40.3271 62.377 -70.0596 84.9209
c0.842773 -75.5469 7.04395 -151.593 27.2979 -224.291c3.21973 -11.5596 12.4482 -44.5527 26.5361 -48.8242c8.56641 -2.59766 9.29297 3.3125 14.3662 11.9717c6.375 10.8799 11.1816 22.8809 14.6631 34.9805c13.4189 46.6211 7.53125 97.5264 -12.8037 141.242z" />
    <glyph glyph-name="r" unicode="r" horiz-adv-x="470" 
d="M482.802 302.303c29.6982 11.6934 46.4385 -20.1729 16.2988 -33.4355c-32.5742 -14.332 -66.0498 -23.084 -101.408 -26.9834c-32.5742 -3.5918 -71.5654 -5.71289 -103.96 0.0634766c-60.79 10.8389 -95.9043 72.9082 -90.5518 131.549
c-7.33984 -13.332 -13.3721 -27.6982 -19.1484 -41.6816c-14.541 -35.2129 -25.7637 -71.7627 -35.3643 -108.598c-11.1758 -42.8613 -21.4971 -86.7568 -30.1162 -130.815c-1.23242 -33.1504 -2.70312 -66.2715 -5.10938 -99.2002
c-1.31934 -18.0684 -12.2158 -31.8418 -28.4824 -39.7744c-12.373 -6.03223 -38.4971 -11.1875 -48.8828 2.0459c-44.5117 56.7227 -44.6572 133.611 -45.1748 202.945c-0.592773 79.2891 1.40039 160.275 14.0176 238.641c4.93457 30.6738 41.2578 51.2012 68.7588 55.874
c22.2998 3.7832 61.9238 -4.01074 61.3369 -34.4873c-0.697266 -36.1377 -2.94043 -72.2344 -5.43359 -108.325c2.91797 8.06055 5.94043 16.0869 9.125 24.0488c11.6641 29.1572 23.8633 63.3242 48.9121 83.9092c19.0273 15.6396 45.2266 20.2598 67.7295 9.00781
c27.4717 -13.7393 36.8057 -42.3789 50.4287 -67.4619c13.1982 -24.3105 31.7666 -50.7891 56.6289 -64.3535c34.4053 -18.7715 86.3447 -6.375 120.396 7.03223z" />
    <glyph glyph-name="s" unicode="s" horiz-adv-x="344" 
d="M381.036 287.151c15.8486 -13.0762 -16.3389 -36.3486 -30.0723 -27.7236c-8.01465 5.04492 -31.6221 -5.75879 -39.5205 -8.14746c-11.4492 -3.46387 -22.8281 -7.19531 -34.0566 -11.3213c-26.8271 -9.85645 -53.0029 -21.834 -78.1963 -35.3057
c-0.360352 -0.191406 -0.720703 -0.40625 -1.08691 -0.597656c3.85938 -3.21387 7.625 -6.41602 11.1641 -9.6123c36.5322 -33.0049 76.127 -71.7168 90.04 -120.36c14.9766 -52.3574 -6.74805 -100.356 -50.3184 -130.886
c-66.5322 -46.627 -196.953 -65.1318 -242.395 20.1895c-35.5674 66.7764 3.00488 134.942 53.4795 185.208c-31.4473 27.6465 -59.1396 60.7266 -69.8389 101.943c-11.3789 43.832 -2.2666 90.1982 23.1885 127.538c39.4209 57.8203 139.231 105.668 196.924 45.1387
c18.2773 -19.1787 -23.5146 -46.1914 -40.0781 -30.2852c-21.7412 20.8818 -53.6123 5.98633 -68.6475 -15.4824c-13.7559 -19.6377 -14.7676 -46.0576 -5.95117 -67.9268c13.0469 -32.3711 43.5352 -58.3262 73.3379 -82.0791
c28.9131 15.9766 58.9883 29.8379 89.918 41.5195c30.7842 11.6289 92.0342 42.9951 122.109 18.1904zM191.84 -31.3096c54.9902 37.0322 -49.6035 116.845 -102.589 156.823c-5.18945 -5.49219 -10.2109 -11.1299 -14.8838 -17.0576
c-29.2676 -37.1074 -47.4287 -96.3232 -11.2393 -135.628c34.5215 -37.4912 89.8486 -30.3076 128.712 -4.1377z" />
    <glyph glyph-name="t" unicode="t" horiz-adv-x="353" 
d="M351.612 284.158c8.94434 19.0801 50.9023 19.5781 39.3896 -6.50488c-36.4395 -82.5439 -79.1729 -173.097 -139.963 -240.844c-25.2461 -28.1348 -54.7695 -51.6543 -94.4863 -47.4697c-44.9131 4.73633 -72.6816 26.3447 -96.5449 64.0449
c-49.7598 78.6152 -50.0674 176.984 -50.7012 266.683c-0.423828 59.5938 0.232422 120.931 5.09082 181.57c-30.0869 -3.12695 -60.4531 -3.84766 -86.9375 3.45215c-28.5645 7.875 -1.36523 42.251 19.917 36.4971c21.7305 -5.88184 47.4121 -3.45801 70.752 -1.17969
c3.27246 28.9131 7.63672 57.5479 13.5303 85.624c6.34082 30.1914 39.4092 50.0732 67.4971 54.8447c22.3057 3.78906 60.2734 -3.95801 60.21 -33.8477c-0.0634766 -30.1914 -1.28418 -60.3945 -3.1377 -90.6152c42.0713 4.41699 84.0664 6.6543 126.585 3.21387
c12.0771 -0.976562 15.4541 -13.042 10.9736 -22.498c-5.41699 -11.4258 -19.9346 -16.459 -31.6855 -15.4531c-36.2822 3.09766 -72.4199 1.17383 -108.458 -2.45312c-8.77539 -116.042 -23.7695 -232.235 -15.8369 -348.295
c2.4873 -36.3984 6.69531 -73.2734 20.707 -107.33c7.67773 -18.6494 16.5693 -39.7051 39.2754 -26.2627c13.832 8.18262 25.9375 26.4434 35.4102 39.1191c47.4062 63.4639 84.874 136.18 118.413 207.704z" />
    <glyph glyph-name="u" unicode="u" horiz-adv-x="608" 
d="M603.133 278.527c11.4082 18.9404 57.4619 19.1445 42.1133 -6.95605c-48.6094 -82.625 -111.73 -207.03 -220.647 -213.464c-73.6924 -4.34668 -105.191 43.123 -115.978 102.6c-8.3457 -22.1836 -17.2031 -44.1572 -27.0254 -65.748
c-29.8896 -65.6836 -70.874 -133.692 -152.743 -132.564c-82.4854 1.13281 -118.872 85.0195 -132.361 154.527c-15.6279 80.5098 -10.502 170.608 2.76074 251.002c5.08496 30.8252 41.3555 51.4219 69.0771 56.1289c21.2246 3.60352 63.6904 -3.99805 61.6152 -34.6436
c-4.47461 -66.207 -10.5596 -132.594 -9.53125 -199.033c0.761719 -48.958 0.226562 -115.874 34.957 -155.114c38.0088 -42.9424 94.6787 93.7607 105.128 120.233c11.6289 29.4658 22.6309 59.2744 31.8652 89.5879c7.20605 23.6475 11.7627 48.0215 20.8525 70.9775
c0.12793 0.703125 0.244141 1.43555 0.37207 2.12695c9.93262 54.7227 124.661 78.0859 117.111 7.08398c-4.63184 -43.5879 -12.7627 -87.1064 -13.7793 -131.008c-0.447266 -19.2773 -5.4043 -89.6221 22.4102 -95.3525c35.5098 -7.31738 77.0693 51.0898 94.9463 74.2266
c25.6758 33.2373 47.2139 69.4678 68.8564 105.39z" />
    <glyph glyph-name="u" unicode="&#xfc;" horiz-adv-x="608" 
d="M603.133 278.527c11.4082 18.9404 57.4619 19.1445 42.1133 -6.95605c-48.6094 -82.625 -111.73 -207.03 -220.647 -213.464c-73.6924 -4.34668 -105.191 43.123 -115.978 102.6c-8.3457 -22.1836 -17.2031 -44.1572 -27.0254 -65.748
c-29.8896 -65.6836 -70.874 -133.692 -152.743 -132.564c-82.4854 1.13281 -118.872 85.0195 -132.361 154.527c-15.6279 80.5098 -10.502 170.608 2.76074 251.002c5.08496 30.8252 41.3555 51.4219 69.0771 56.1289c21.2246 3.60352 63.6904 -3.99805 61.6152 -34.6436
c-4.47461 -66.207 -10.5596 -132.594 -9.53125 -199.033c0.761719 -48.958 0.226562 -115.874 34.957 -155.114c38.0088 -42.9424 94.6787 93.7607 105.128 120.233c11.6289 29.4658 22.6309 59.2744 31.8652 89.5879c7.20605 23.6475 11.7627 48.0215 20.8525 70.9775
c0.12793 0.703125 0.244141 1.43555 0.37207 2.12695c9.93262 54.7227 124.661 78.0859 117.111 7.08398c-4.63184 -43.5879 -12.7627 -87.1064 -13.7793 -131.008c-0.447266 -19.2773 -5.4043 -89.6221 22.4102 -95.3525c35.5098 -7.31738 77.0693 51.0898 94.9463 74.2266
c25.6758 33.2373 47.2139 69.4678 68.8564 105.39z" />
    <glyph glyph-name="u" unicode="&#xfb;" horiz-adv-x="608" 
d="M603.133 278.527c11.4082 18.9404 57.4619 19.1445 42.1133 -6.95605c-48.6094 -82.625 -111.73 -207.03 -220.647 -213.464c-73.6924 -4.34668 -105.191 43.123 -115.978 102.6c-8.3457 -22.1836 -17.2031 -44.1572 -27.0254 -65.748
c-29.8896 -65.6836 -70.874 -133.692 -152.743 -132.564c-82.4854 1.13281 -118.872 85.0195 -132.361 154.527c-15.6279 80.5098 -10.502 170.608 2.76074 251.002c5.08496 30.8252 41.3555 51.4219 69.0771 56.1289c21.2246 3.60352 63.6904 -3.99805 61.6152 -34.6436
c-4.47461 -66.207 -10.5596 -132.594 -9.53125 -199.033c0.761719 -48.958 0.226562 -115.874 34.957 -155.114c38.0088 -42.9424 94.6787 93.7607 105.128 120.233c11.6289 29.4658 22.6309 59.2744 31.8652 89.5879c7.20605 23.6475 11.7627 48.0215 20.8525 70.9775
c0.12793 0.703125 0.244141 1.43555 0.37207 2.12695c9.93262 54.7227 124.661 78.0859 117.111 7.08398c-4.63184 -43.5879 -12.7627 -87.1064 -13.7793 -131.008c-0.447266 -19.2773 -5.4043 -89.6221 22.4102 -95.3525c35.5098 -7.31738 77.0693 51.0898 94.9463 74.2266
c25.6758 33.2373 47.2139 69.4678 68.8564 105.39z" />
    <glyph glyph-name="u" unicode="&#xfa;" horiz-adv-x="608" 
d="M603.133 278.527c11.4082 18.9404 57.4619 19.1445 42.1133 -6.95605c-48.6094 -82.625 -111.73 -207.03 -220.647 -213.464c-73.6924 -4.34668 -105.191 43.123 -115.978 102.6c-8.3457 -22.1836 -17.2031 -44.1572 -27.0254 -65.748
c-29.8896 -65.6836 -70.874 -133.692 -152.743 -132.564c-82.4854 1.13281 -118.872 85.0195 -132.361 154.527c-15.6279 80.5098 -10.502 170.608 2.76074 251.002c5.08496 30.8252 41.3555 51.4219 69.0771 56.1289c21.2246 3.60352 63.6904 -3.99805 61.6152 -34.6436
c-4.47461 -66.207 -10.5596 -132.594 -9.53125 -199.033c0.761719 -48.958 0.226562 -115.874 34.957 -155.114c38.0088 -42.9424 94.6787 93.7607 105.128 120.233c11.6289 29.4658 22.6309 59.2744 31.8652 89.5879c7.20605 23.6475 11.7627 48.0215 20.8525 70.9775
c0.12793 0.703125 0.244141 1.43555 0.37207 2.12695c9.93262 54.7227 124.661 78.0859 117.111 7.08398c-4.63184 -43.5879 -12.7627 -87.1064 -13.7793 -131.008c-0.447266 -19.2773 -5.4043 -89.6221 22.4102 -95.3525c35.5098 -7.31738 77.0693 51.0898 94.9463 74.2266
c25.6758 33.2373 47.2139 69.4678 68.8564 105.39z" />
    <glyph glyph-name="v" unicode="v" horiz-adv-x="586" 
d="M608.268 305.331c31.4766 8.07227 29.3174 -28.999 3.01953 -36.0254c-50.8115 -13.5762 -107.476 -9.49609 -159.932 3.88281c-16.5576 -45.709 -35.0039 -90.8252 -55.7861 -134.669c-24.8564 -52.4395 -54.5137 -114.915 -103.094 -149.518
c-52.7646 -37.584 -120.884 -33.3584 -168.308 10.7529c-46.5518 43.3027 -68.1309 109.777 -85.0723 169.185c-19.9287 69.8857 -37.2246 143.177 -41.3447 215.945c-3.61523 63.7715 120.081 109.039 135.441 36.1025c22.3457 -106.11 24.2285 -218.95 66.5146 -320.347
c9.11816 -21.8574 35.3057 -91.4697 67.7578 -70.3965c39.1885 25.4492 63.2607 75.1221 83.0557 115.711c21.875 44.8486 42.8086 91.6621 60.7607 139.492c-3.56836 1.27246 -7.11328 2.55664 -10.6006 3.89941c-60.209 23.125 -97.5029 76.7441 -91.8018 142.097
c4.2832 49.0742 38.6943 91.8887 82.9619 111.956c42.832 19.417 93.5508 13.5938 106.714 -37.5957c14.8955 -57.9365 -11.0186 -125.282 -28.8955 -179.662c-1.20312 -3.67285 -2.46387 -7.32812 -3.69043 -10.9951c45.9473 -12.7158 95.6777 -21.7764 142.299 -9.81543z
M452.418 423.125c8.2002 38.5547 14.3486 118.491 -49.4404 88.1543c-40.4316 -19.2314 -60.54 -66.7832 -48.0684 -109.337c10.6992 -36.4922 38.8398 -59.0127 71.6006 -73.3506c10.3271 31.2783 19.1787 62.8711 25.9082 94.5332z" />
    <glyph glyph-name="w" unicode="w" horiz-adv-x="798" 
d="M822.252 303.813c23.4033 4.57422 29.6143 -21.6143 8.08789 -29.8027c-34.3994 -13.082 -75.9062 -21.5205 -118.198 -23.1709c-2.38867 -9.55469 -4.88184 -18.6963 -7.41016 -27.2451c-16.8311 -56.9893 -43.1406 -115.449 -76.0117 -165.041
c-32.2783 -48.7021 -82.4971 -87.042 -143.84 -81.6426c-99.2119 8.74121 -150.018 105.029 -171.341 201.876c-8.93848 -31.4883 -20.0449 -61.9824 -32.5225 -92.3779c-26.9551 -65.6611 -79.2139 -136.913 -160.734 -123.278
c-85.3506 14.2734 -106.68 108.086 -116.81 180.657c-12.0996 86.6875 -11.2803 175.206 1.86621 261.69c9.21191 60.6104 135.6 85.4209 128.382 7.76465c-6.28809 -67.6484 -9.10645 -135.094 -7.21777 -203.021c1.40625 -50.6611 -0.12207 -124.017 33.5332 -165.797
c38.2178 -47.4521 92.7197 88.1172 100.723 113.294c9.0957 28.5879 16.2969 57.7334 22.7656 87.0186c4.92285 22.2881 8.58984 44.6514 18.4814 64.9521c5.29492 26.9609 30.0059 46.7559 56.3389 53.7129c24.252 6.4043 63.3652 0.604492 65.3408 -30.959
c3.54492 -56.5654 9.72266 -113.776 25.0244 -168.488c10.0654 -35.9746 27.8555 -106.087 70.4033 -117.536c34.4639 -9.27539 67.1377 36.3818 84.6426 59.9893c28.4893 38.4209 46.0635 87.46 58.3555 133.244c1.05762 3.94043 2.11523 8.03809 3.17285 12.2285
c-83.8047 7.41016 -161.455 45.3721 -182.802 131.827c-12.3096 49.8467 -1.54004 106.511 35.1436 143.856c34.9512 35.5791 88.4365 44.2676 132.6 20.6201c86.5186 -46.3311 87.9834 -162.908 70.583 -257.436c35.916 1.42383 71.4082 7.2002 101.443 13.0645z
M674.127 291.735c13.7275 72.1641 17.1396 160.513 -34.0908 208.831c-38.5605 36.3643 -88.8955 30.5762 -108.574 -21.1602c-14.9307 -39.2461 -7.72461 -85.2744 14.5576 -120.325c28.4307 -44.7266 76.3887 -62.6904 128.107 -67.3457z" />
    <glyph glyph-name="x" unicode="x" horiz-adv-x="448" 
d="M445.969 276.33c10.1875 18.9229 54.0781 19.1562 40.4727 -6.67676c-36.3467 -69.0605 -76.3369 -141.904 -130.955 -198.452c-44.7676 -46.3428 -117.954 -95.4463 -185.986 -81.4287c-47.0811 9.7002 -80.917 47.7783 -104.826 90.541
c-20.4863 -34.0977 -40.165 -68.8057 -58.8379 -104.315c-10.002 -19.0215 -53.7119 -19.4111 -40.4785 6.68359c24.3975 48.1035 50.3115 95.8877 77.8818 142.829c-3.25488 8.07227 -6.21289 16.0283 -8.875 23.7002c-27.1055 78.1094 -37.9385 161.821 -33.6084 244.255
c1.83105 34.8525 29.1748 60.2734 62.2314 69.0029c25.6064 6.76465 69.6016 0.77832 70.8047 -33.5459c1.77246 -50.4111 3.32422 -100.316 8.26465 -150.233c33.5107 47.2139 69.0605 92.8301 106.941 136.115c16.9062 19.3184 59.1924 9.96191 37.8516 -17.2773
c-47.3594 -60.4473 -93.0391 -121.505 -136.226 -184.161c7.81055 -49.4521 19.7822 -108.493 51.2764 -146.02c84.5078 -100.693 213.476 152.168 244.068 208.983z" />
    <glyph glyph-name="y" unicode="y" horiz-adv-x="717" 
d="M715.09 285.367c11.6348 18.6846 57.8066 18.8936 42.1094 -6.96289c-58.5527 -96.4043 -146.013 -172.015 -238.582 -235.717c-1.34863 -48.627 -5.50977 -97.1143 -14.5879 -145.038c-23.1943 -122.476 -95.5557 -241.058 -224.349 -271.842
c-54.6006 -13.0527 -121.499 -9.29883 -168.382 24.124c-47.6094 33.9404 -66.9854 88.8203 -44.5928 143.444c25.1123 61.2559 85.6182 97.1084 139.917 129.352c61.6797 36.6309 125.957 68.3164 189.2 102.065c-4.19629 78.0166 -15.4482 155.957 -21.8408 233.933
c-4.67285 -13.0645 -9.40332 -26.0713 -14.1104 -39.002c-26.8672 -73.7852 -55.1582 -151.825 -110.271 -209.71c-30.0811 -31.5928 -73.5117 -46.9531 -115.885 -33.5918c-45.0234 14.1982 -74.7734 55.4844 -92.6035 97.2295
c-42.9023 100.449 -49.3652 214.533 -39.9443 322.038c4.62598 52.7822 130.699 87.2568 130.693 21.4854c-0.00585938 -88.2803 -2.84766 -174.828 11.792 -262.329c6.03809 -36.1025 15.2559 -75.4248 37.8281 -105.175
c9.60645 -12.6641 17.7949 -20.917 33.4688 -12.9316c18.4229 9.38574 30.6621 33.3418 40.4023 50.4805c31.1279 54.7871 52.5791 115.311 73.5947 174.503c14.3662 40.4551 29.75 81.2305 40.8906 122.825c0.0234375 0.651367 0.0117188 1.29688 0.0351562 1.94824
c1.14453 34.3184 29.3076 59.5938 61.3828 68.0674c26.6523 7.03809 66.7188 0.488281 69.8398 -33.0918c8.11328 -87.1992 13.2217 -175.659 16.4707 -263.178c0.767578 -20.7012 1.31348 -41.4375 1.49902 -62.1738c76.7441 49.708 145.683 108.441 196.023 189.247z
M303.625 -310.705c92.2959 60.5059 95.8125 177.91 94.0635 278.302c-24.0664 -13.7275 -48.2725 -27.2227 -72.2637 -40.9443c-50.8643 -29.0879 -107.046 -55.5371 -152.011 -93.5811c-40.8389 -34.5566 -64.8242 -99.5371 -20.2021 -141.486
c42.0361 -39.5137 105.244 -31.9004 150.413 -2.29004z" />
    <glyph glyph-name="y" unicode="&#xff;" horiz-adv-x="717" 
d="M715.09 285.367c11.6348 18.6846 57.8066 18.8936 42.1094 -6.96289c-58.5527 -96.4043 -146.013 -172.015 -238.582 -235.717c-1.34863 -48.627 -5.50977 -97.1143 -14.5879 -145.038c-23.1943 -122.476 -95.5557 -241.058 -224.349 -271.842
c-54.6006 -13.0527 -121.499 -9.29883 -168.382 24.124c-47.6094 33.9404 -66.9854 88.8203 -44.5928 143.444c25.1123 61.2559 85.6182 97.1084 139.917 129.352c61.6797 36.6309 125.957 68.3164 189.2 102.065c-4.19629 78.0166 -15.4482 155.957 -21.8408 233.933
c-4.67285 -13.0645 -9.40332 -26.0713 -14.1104 -39.002c-26.8672 -73.7852 -55.1582 -151.825 -110.271 -209.71c-30.0811 -31.5928 -73.5117 -46.9531 -115.885 -33.5918c-45.0234 14.1982 -74.7734 55.4844 -92.6035 97.2295
c-42.9023 100.449 -49.3652 214.533 -39.9443 322.038c4.62598 52.7822 130.699 87.2568 130.693 21.4854c-0.00585938 -88.2803 -2.84766 -174.828 11.792 -262.329c6.03809 -36.1025 15.2559 -75.4248 37.8281 -105.175
c9.60645 -12.6641 17.7949 -20.917 33.4688 -12.9316c18.4229 9.38574 30.6621 33.3418 40.4023 50.4805c31.1279 54.7871 52.5791 115.311 73.5947 174.503c14.3662 40.4551 29.75 81.2305 40.8906 122.825c0.0234375 0.651367 0.0117188 1.29688 0.0351562 1.94824
c1.14453 34.3184 29.3076 59.5938 61.3828 68.0674c26.6523 7.03809 66.7188 0.488281 69.8398 -33.0918c8.11328 -87.1992 13.2217 -175.659 16.4707 -263.178c0.767578 -20.7012 1.31348 -41.4375 1.49902 -62.1738c76.7441 49.708 145.683 108.441 196.023 189.247z
M303.625 -310.705c92.2959 60.5059 95.8125 177.91 94.0635 278.302c-24.0664 -13.7275 -48.2725 -27.2227 -72.2637 -40.9443c-50.8643 -29.0879 -107.046 -55.5371 -152.011 -93.5811c-40.8389 -34.5566 -64.8242 -99.5371 -20.2021 -141.486
c42.0361 -39.5137 105.244 -31.9004 150.413 -2.29004z" />
    <glyph glyph-name="y" unicode="&#xfd;" horiz-adv-x="717" 
d="M715.09 285.367c11.6348 18.6846 57.8066 18.8936 42.1094 -6.96289c-58.5527 -96.4043 -146.013 -172.015 -238.582 -235.717c-1.34863 -48.627 -5.50977 -97.1143 -14.5879 -145.038c-23.1943 -122.476 -95.5557 -241.058 -224.349 -271.842
c-54.6006 -13.0527 -121.499 -9.29883 -168.382 24.124c-47.6094 33.9404 -66.9854 88.8203 -44.5928 143.444c25.1123 61.2559 85.6182 97.1084 139.917 129.352c61.6797 36.6309 125.957 68.3164 189.2 102.065c-4.19629 78.0166 -15.4482 155.957 -21.8408 233.933
c-4.67285 -13.0645 -9.40332 -26.0713 -14.1104 -39.002c-26.8672 -73.7852 -55.1582 -151.825 -110.271 -209.71c-30.0811 -31.5928 -73.5117 -46.9531 -115.885 -33.5918c-45.0234 14.1982 -74.7734 55.4844 -92.6035 97.2295
c-42.9023 100.449 -49.3652 214.533 -39.9443 322.038c4.62598 52.7822 130.699 87.2568 130.693 21.4854c-0.00585938 -88.2803 -2.84766 -174.828 11.792 -262.329c6.03809 -36.1025 15.2559 -75.4248 37.8281 -105.175
c9.60645 -12.6641 17.7949 -20.917 33.4688 -12.9316c18.4229 9.38574 30.6621 33.3418 40.4023 50.4805c31.1279 54.7871 52.5791 115.311 73.5947 174.503c14.3662 40.4551 29.75 81.2305 40.8906 122.825c0.0234375 0.651367 0.0117188 1.29688 0.0351562 1.94824
c1.14453 34.3184 29.3076 59.5938 61.3828 68.0674c26.6523 7.03809 66.7188 0.488281 69.8398 -33.0918c8.11328 -87.1992 13.2217 -175.659 16.4707 -263.178c0.767578 -20.7012 1.31348 -41.4375 1.49902 -62.1738c76.7441 49.708 145.683 108.441 196.023 189.247z
M303.625 -310.705c92.2959 60.5059 95.8125 177.91 94.0635 278.302c-24.0664 -13.7275 -48.2725 -27.2227 -72.2637 -40.9443c-50.8643 -29.0879 -107.046 -55.5371 -152.011 -93.5811c-40.8389 -34.5566 -64.8242 -99.5371 -20.2021 -141.486
c42.0361 -39.5137 105.244 -31.9004 150.413 -2.29004z" />
    <glyph glyph-name="z" unicode="z" horiz-adv-x="545" 
d="M552.837 266.131c28.0645 15.2441 43.4551 -17.5654 15.9189 -32.624c-52.4453 -28.6865 -103.467 -60.5 -152.222 -95.4463c10.374 -20.5332 18.4932 -42.5713 23.8574 -65.9746c26.4434 -115.403 -11.2109 -258.209 -95.6729 -342.287
c-46.0811 -45.8721 -103.425 -71.9609 -168.359 -76.5459c-52.5088 -3.70801 -115.56 14.0879 -123.039 75.041c-7.24121 59.0293 34.1611 125.76 65.085 172.875c32.79 49.957 72.3271 94.5449 115.781 135.447c17.877 16.8311 36.2881 33.0283 54.9551 48.918
c-38.084 64.9346 -100.839 111.312 -182.93 109.337c-22.6719 -0.545898 -45.6162 7.19531 -52.7002 30.4072c-7.1543 23.4385 10.0371 46.3711 27.4492 60.2031c25.3623 20.1553 51.1084 39.7578 76.2734 60.1748c12.5703 10.1992 24.7461 20.9512 37.4326 30.9941
c9.84473 7.7998 23.1768 13.7217 32.0283 22.7012c-0.151367 0.0117188 -0.296875 -0.0410156 -0.454102 -0.00585938c-5.71289 1.26074 -11.7051 1.71973 -17.5107 2.34766c-17.8652 1.94141 -35.8408 2.58691 -53.8047 2.2207
c-32.5342 -0.667969 -64.499 -4.94531 -96.208 -12.251c-29.9648 -6.9043 -28.0059 27.9082 -2.85254 34.1611c44.3145 11.0137 89.6748 17.1738 135.401 16.3369c30.5176 -0.557617 75.6807 2.00488 97.9453 -23.3691
c28.2852 -32.2314 -9.76367 -77.8652 -30.8662 -102.536c-7.63672 -8.93262 -15.4365 -17.7373 -23.3867 -26.4082c66.2363 -20.9922 124.231 -62.9062 162.92 -120.023c49.7139 35.0215 101.427 67.2305 154.958 96.3066zM301.604 -194.996
c38.7471 70.6758 37.9443 166.285 5.11426 245.15c-9.07227 -8.10156 -18.1094 -16.2441 -26.9316 -24.6074c-36.0322 -34.1611 -70.292 -70.833 -98.9551 -111.475c-26.4082 -37.4502 -56.8096 -87.251 -59.3896 -134.122
c-1.20312 -21.835 5.09082 -49.8594 26.3848 -60.5586c18.8818 -9.48438 44.6973 -6.04395 63.4805 1.54004c38.8516 15.6797 70.4268 47.8242 90.2969 84.0723z" />
    <glyph glyph-name="braceleft" unicode="{" horiz-adv-x="482" 
d="M398.034 -159.109c40.333 8.28125 45.3643 -32.0625 13.3125 -48.957c-52.6777 -27.7627 -115.474 -24.9619 -168.232 1.55664c-56.7861 28.541 -87.582 78.2832 -103.07 138.342c-16.459 63.8066 -10.8623 131.118 -8.13086 196.221
c1.41211 33.6846 3.33008 67.8633 -1.28418 101.402c-1.19727 8.6709 -2.8418 21.4277 -8.48535 28.6514c-8.07812 10.3447 -17.7021 7.0957 -29.7031 5.88086c-35.8877 -3.6377 -57.4902 35.1035 -29.9541 61.4131c76.2842 72.8848 109.347 173.625 151.83 267.473
c22.2646 49.1787 49.9346 98.4043 86.1768 138.772c28.1113 31.3193 62.3652 61.0283 106.808 59.7842c31.8594 -0.894531 15.1162 -37.0957 -8.98535 -37.5195c-48.1387 -0.842773 -61.5576 -62.79 -74.9248 -98.9795
c-16.3252 -44.1982 -30.6631 -89.1572 -46.6572 -133.495c-22.8926 -63.4697 -50.4688 -126.428 -89.9824 -181.134c26.0654 -13.0469 44.5117 -37.5605 53.8164 -73.7324c16.29 -63.3301 10.6992 -129.09 12.4717 -193.71
c1.61523 -58.7734 10.751 -115.595 40.1113 -167.319c20.0039 -35.248 60.5928 -73.7451 104.884 -64.6494z" />
    <glyph glyph-name="verticalbar" unicode="|" horiz-adv-x="466" 
d="M369.194 725.23c8.22949 9.68848 48.1738 22.0957 46.459 -2.12793c-2.76074 -38.8691 -18.3418 -77.4355 -31.2383 -113.956c-13.5527 -38.375 -26.1123 -77.0811 -39.0605 -115.659c-26.1299 -77.8828 -48.9463 -156.748 -70.8857 -235.897
c-44.8262 -161.699 -74.71 -325.723 -102.682 -490.967c-9.62988 -56.9082 -130.729 -80.457 -121.261 -7.33398c21.7822 168.261 64.376 335.005 114.746 496.797c25.4844 81.8691 55.874 162.257 87.9199 241.767c30.5928 75.9014 62.4873 164.385 116.002 227.378z" />
    <glyph glyph-name="braceright" unicode="}" horiz-adv-x="487" 
d="M425.48 340.03c39.874 -37.8164 -35.0732 -78.6221 -66.8398 -75.4316c-0.244141 0.0527344 -0.494141 0.0585938 -0.738281 0.105469c-0.458984 -10.002 -5.92773 -26.3789 -6.35742 -34.1895c-1.88867 -34.248 0.994141 -68.8047 2.34277 -103.024
c2.46387 -62.499 4.99805 -128.032 -14.4541 -188.346c-20.5732 -63.8008 -61.5811 -116.536 -122.871 -145.774c-48.1846 -22.9854 -106.447 -31.4941 -154.371 -3.66797c-34.0039 19.7422 11.2461 57.0127 36.9629 52.2354
c117.763 -21.8809 132.432 146.136 132.717 225.431c0.226562 64.0449 -4.47559 134.535 17.9053 195.709c9.94336 27.1816 25.6289 47.6973 45.2148 62.1221c-40.2871 55.9727 -67.7646 120.309 -90.5986 185.661c-16.6104 47.5283 -32.2617 95.3359 -48.7607 142.894
c-12.8789 37.125 -28.6055 99.2754 -78.3945 100.159c-31.9297 0.569336 -15.0234 36.8516 8.98438 37.5195c44.6162 1.23828 77.0283 -26.4316 105.529 -58.1406c34.4346 -38.3105 61.7559 -83.8623 82.6543 -130.798c41.0596 -92.2207 76.2148 -191.462 151.075 -262.464z
" />
    <glyph glyph-name="nonbreakingspace" unicode="&#xa0;" horiz-adv-x="361" 
 />
    <glyph glyph-name="exclamdown" unicode="&#xa1;" horiz-adv-x="245" 
d="M183.653 96.1934c-0.62793 -48.2256 0.0166016 -96.1465 1.75977 -144.337c1.64453 -45.4355 14.4424 -98.4844 -14.5635 -136.807c-11.1523 -14.7383 -34.0967 -20.1777 -50.916 -14.0752c-41.6006 15.0986 -48.0107 86.292 -54.9736 124.388
c-8.43262 46.1162 -12.9189 94.0625 -14.2559 140.911c-2.82422 99.0029 2.86523 196.988 16.668 295.021c4.23047 30.0586 40.9492 50.3359 67.4971 54.8457c21.8467 3.71387 60.8438 -3.92871 60.21 -33.8477c-2.02246 -95.4629 -10.1875 -190.624 -11.4258 -286.099z
M166.752 532.342c-4.97461 -39.2402 -89.0137 -54.7393 -82.708 -5.00293c2.27246 17.9004 3.54492 35.7363 4.66699 53.7236c1.08691 17.3076 12.8438 29.0703 28.5703 35.1143c12.3037 4.72461 34.1445 5.78809 40.6133 -9.23535
c10.4844 -24.3516 12.1641 -48.5049 8.85742 -74.5996z" />
    <glyph glyph-name="cent" unicode="&#xa2;" horiz-adv-x="645" 
d="M531.576 24.4307c28.791 22.8047 87.1045 2.24023 53.0889 -34.873c-67.9385 -74.1396 -163.71 -119.721 -262.729 -135.36c-0.185547 -8.02637 -0.458984 -16.0469 -0.586914 -24.0732c-0.331055 -20.585 -0.5 -41.1758 -0.488281 -61.7666
c0.00585938 -14.4658 -3.74805 -36.8115 5.73633 -49.1729c15.5234 -20.2305 -24.9316 -46.3945 -38.583 -29.1572c-20.5215 25.9141 -14.8379 62.3125 -15.0762 93.6025c-0.168945 21.7588 -0.116211 43.5176 0.0986328 65.2764
c-47.3418 -2.30176 -94.9688 4.50977 -135.029 31.6328c-41.4082 28.041 -64.5098 70.0771 -76.5635 117.716c-24.3799 96.3701 -6.93848 208.17 25.415 300.739c32.1738 92.0342 88.0879 182.418 159.572 249.102c30.0811 28.0645 73.1748 55.3096 115.81 58.5176
c2.35938 10.6475 4.64355 21.3115 7.0957 31.9414c5.37598 23.3047 56.8564 32.29 50.0801 3.02832c-3.03906 -13.1406 -5.92188 -26.3096 -8.82812 -39.4785c22.2295 -5.97461 41.9424 -18.2607 50.9277 -40.9609c8.04883 -20.335 -31.8662 -40.002 -41.3799 -20.1836
c-5.08496 10.5947 -11.3037 17.0459 -18.3301 20.207c-26.1523 -124.923 -46.2256 -251.066 -59.5869 -378.035c-8.22949 -78.2021 -13.5586 -156.585 -17.127 -235.124c-0.0693359 -1.59863 -0.116211 -3.19727 -0.185547 -4.7959
c76.0459 0.104492 147.414 34.2832 206.67 81.2188zM289.192 146.671c12.7041 133.263 32.7959 265.682 59.5938 396.794c-46.2959 -38.4502 -95.9922 -120.558 -106.151 -141.503c-38.0664 -78.499 -58.9883 -167.732 -61.208 -254.815
c-2.01074 -78.9404 9.97266 -176.089 94.1084 -198.551c2.65039 66.1318 7.38086 132.205 13.6572 198.075z" />
    <glyph glyph-name="sterling" unicode="&#xa3;" horiz-adv-x="464" 
d="M396.739 -2.34961c34.5742 -3.94629 9.85449 -44.7363 -11.6377 -49.0781c-86.002 -17.3711 -172.806 -33.3242 -250.735 -75.79c-29.1396 -15.8779 -96.2529 -9.88574 -82.5371 38.584c11.2051 39.5898 28.4893 76.75 38.4854 116.839
c10.124 40.6123 16.4648 82.2529 20.707 123.87c3.45801 33.9463 4.69043 68.1133 6.08496 102.251c-10.4033 -1.7959 -20.8125 -3.55664 -31.2041 -5.43945c-32.4639 -5.88184 -30.918 31.7197 -3.0918 36.9502c12.001 2.25488 24.0254 4.38184 36.0498 6.53809
c2.12695 39.1885 5.6377 78.2197 14.21 116.734c16.4473 73.9072 54.0488 161.385 125.585 197.58c49.248 24.915 124.591 15.0059 140.398 -46.1855c4.66699 -18.0566 -36.3408 -35.0498 -43.1348 -16.1328c-10.0605 28.0127 -34.7256 32.1914 -52.5273 9.7002
c-15.6396 -19.7598 -25.0781 -45.7959 -31.709 -69.8682c-15.459 -56.1182 -20.2773 -112.713 -22.1602 -170.435c16.0928 2.37695 32.2031 4.69043 48.3252 6.88184c11.9316 1.62109 21.2598 -7.06152 19.6035 -18.7549
c-1.85352 -13.082 -17.9229 -20.2422 -29.291 -21.7129c-13.2275 -1.70898 -26.4375 -3.53418 -39.6475 -5.37109c-2.26074 -95.0967 -6.27637 -197.952 -38.9268 -288.731c61.7373 11.8848 124.317 18.7422 187.153 11.5703z" />
    <glyph glyph-name="currency" unicode="&#xa4;" horiz-adv-x="634" 
d="M578.008 479.476c12.5645 -11.873 3.43945 -32.2666 -9.05566 -40.3682c-23.9209 -15.5234 -49.7246 -31.0234 -71.6816 -49.499c22.5615 -41.2051 25.3857 -92.9238 9.32812 -139.72c-12.6465 -36.8467 -32.8076 -70.5137 -58.583 -99.0264
c12.6348 -11.3037 27.0361 -20.5098 39.7119 -31.8779c14.8252 -13.2969 25.9316 -27.7451 37.8516 -43.6865c19.3008 -25.8154 -27.3154 -55.0078 -48.5518 -36.6836c-15.1221 13.0527 -29.0586 25.2803 -41.3447 41.0479
c-9.04883 11.6172 -16.418 24.6875 -25.0713 36.6133c-23.4678 -18.1211 -49.7656 -32.6914 -78.1963 -42.5713c-54.8564 -19.0684 -120.727 -16.5869 -167.319 15.7383c-2.70801 -2.89453 -5.29395 -5.63184 -7.45605 -8.13086
c-13.4775 -15.5869 -26.4023 -31.7148 -39.4092 -47.6973c-11.8389 -14.5469 -37.5146 -23.5488 -55.1768 -15.2559c-18.2832 8.58984 -15.0869 29.0762 -4.25391 42.3848c16.1221 19.8125 33.9287 37.5908 52.7588 54.834c4.68457 4.28906 10.3447 8.87402 16.5283 12.9834
c-2.77246 4.5332 -5.32422 9.31641 -7.6377 14.3555c-35.4053 77.1797 -17.29 174.235 16.7725 248.317c3.45801 7.52051 8.75293 13.9893 15.1338 19.4004c-9.56055 21.4971 -20.7656 42.0645 -33.6846 61.7314c-6.59082 10.0371 6.7002 22.707 14.459 26.4902
c10.1934 4.96875 22.9092 4.95703 29.7783 -4.91699c13.6338 -19.5967 25.5479 -40.1465 35.7822 -61.7139c0.423828 -0.900391 0.725586 -1.80078 0.969727 -2.69531c14.7617 1.23828 28.832 -1.46387 38.4971 -8.52539c17.0166 16.999 36.6895 30.0693 63.0518 38.5078
c43.582 13.9482 95.335 9.38574 136.139 -11.5537c14.0879 -7.22949 26.2168 -16.3311 36.5156 -26.792c5.47461 6.6084 10.9023 13.2393 16.9404 19.3711c12.1875 12.373 25.2285 24.002 38.2471 35.4805c11.751 10.3564 36.5029 15.2266 48.957 3.45801zM359.597 185.897
c42.8613 39.8623 75.7031 107.331 46.4531 164.129c-29.0586 56.4258 -120.256 72.1582 -160.624 19.6201c-0.307617 -0.389648 -0.638672 -0.767578 -0.981445 -1.13379c-20.3936 -53.7295 -37.2363 -134.948 -3.41211 -185.604
c29.5527 -44.2559 86.1123 -27.1924 118.564 2.98828z" />
    <glyph glyph-name="yen" unicode="&#xa5;" horiz-adv-x="624" 
d="M555.634 197.398c32.5684 0.929688 15.582 -38.0352 -9.21094 -38.4824c-16.6738 -0.313477 -33.3477 -0.825195 -50.0156 -1.39453c-5.25391 -33.2314 -11.2168 -66.3643 -17.3135 -99.4209c-9.4209 -51.0732 -17.249 -104.529 -35.8174 -153.214
c-12.3848 -32.4756 -38.7695 -53.624 -73.1865 -59.4707c-22.8984 -3.8877 -66.957 4.24316 -65.2832 36.707c3.29492 63.999 22.0322 126.917 35.8291 189.248c5.79395 26.1816 11.4082 52.4219 16.8887 78.6963c-15.3311 -1.10449 -30.6562 -2.2207 -45.9697 -3.49316
c-29.1631 -2.42383 -12.8262 31.6211 8.16016 34.0791c15.0176 1.76074 30.0352 3.33008 45.0645 4.8125c1.68555 8.3457 3.39453 16.6855 5.03906 25.0371c-18.5977 -1.75488 -37.1895 -3.50391 -55.7871 -5.25293c-29.6455 -2.7959 -13.6113 32.8535 8.3916 35.0615
c18.0508 1.81348 36.1074 3.62695 54.1582 5.44043c0.819336 4.33008 1.67969 8.6543 2.4873 12.9844c10.1416 54.3799 19.8877 109.318 26.1465 164.303c3.04492 26.7568 4.00977 53.584 4.23047 80.5039c0.104492 12.6582 -0.0751953 25.3164 -0.912109 37.9512
c-0.104492 1.63867 -0.423828 3.79492 -0.78418 6.11426c-6.74121 -9.1123 -12.7734 -18.8184 -18.8408 -28.373c-12.3789 -19.498 -24.252 -39.3389 -35.8467 -59.3135c-24.8916 -42.8965 -50.1729 -84.7754 -79.2314 -125.021
c-29.7324 -41.1875 -67.5781 -78.0918 -121.639 -78.2139c-54.0195 -0.12793 -83.6768 42.5703 -95.1084 90.4648c-11.9492 50.0566 -6.7998 104.396 0.994141 154.65c6.29395 40.5654 18.458 113.061 71.8506 114.037c7.11914 0.12793 18.417 -1.67383 21.1191 -9.87988
c11.083 -18.208 6.78223 -51.4805 7.0957 -71.7861c0.435547 -28.3145 1.67383 -56.4668 3.86523 -84.7119c1.93555 -25.0137 5.29492 -49.5449 14.7852 -72.9082c3.55078 -8.75293 7.7002 -16.1338 13.0879 -23.7939c6.53223 7.58398 18.3994 17.4287 21.4795 21.1943
c6.19531 7.56152 12.0361 15.4307 17.7139 23.3867c13.4424 18.8301 25.792 38.4502 38.0723 58.0469c25.4092 40.5537 48.5107 82.8975 77.6162 121.022c24.5371 32.1445 67.6484 72.7393 111.934 57.4141c40.502 -14.0117 48.5859 -71.7979 55.3447 -108.377
c15.9648 -86.4258 8.02051 -178.391 -2.18457 -266.327c13.9131 1.39453 27.8203 2.79492 41.7334 4.18945c30.7148 3.08594 14.3662 -34.3643 -8.74707 -36.5381c-12.4082 -1.16797 -24.8223 -2.33594 -37.2363 -3.50391
c-0.244141 -2.0459 -0.494141 -4.10352 -0.738281 -6.14355c-0.87207 -7.27051 -1.94141 -14.5117 -2.92383 -21.7646c17.877 0.836914 35.7715 1.52832 53.6895 2.04004z" />
    <glyph glyph-name="section" unicode="&#xa7;" horiz-adv-x="529" 
d="M394.765 340.913c53.3047 -39.1533 96.2969 -99.1797 80.3848 -168.479c-8.86328 -38.6475 -32.6973 -74.8545 -65.8877 -95.7422c12.8613 -48.6387 6.38086 -100.084 -28.4316 -144.131c-51.8232 -65.5732 -147.263 -87.042 -224.727 -61.2383
c-35.2539 11.7451 -64.8125 34.8525 -83.3691 67.2119c-17.999 31.377 -16.7441 67.0898 -22.4336 101.676c-5.51562 33.5049 67.3047 54.7295 69.0596 18.4062c2.75488 -57.1289 66.166 -129.467 128.072 -108.795c44.8545 14.9766 36.7705 79.5566 16.8828 116.234
c-15.9238 29.3662 -39.9961 53.4385 -64.7188 75.5234c-23.6826 21.1484 -52.6826 40.4082 -67.1709 69.7627c-24.8857 50.4336 11.1875 93.5625 56.3213 111.857c-21.9043 20.3467 -38.8223 44.6982 -45.2852 76.2148c-14.7041 71.7451 35.7529 151.249 96.7871 185.503
c50.8994 28.5586 139.673 30.7148 168.104 -30.8193c14.6982 -31.8076 -40.002 -55.0664 -62.2666 -38.1426c-18.2725 13.8896 -44.0186 30.4824 -67.4395 17.6211c-23.1133 -12.6924 -29.4834 -44.6455 -23.3691 -68.2236
c15.3838 -59.3086 94.4639 -91.3721 139.487 -124.44zM396.889 110.895c12.0303 19.7021 -0.613281 49.4824 -16.5547 71.1191c-19.8066 26.8906 -50.5684 49.1143 -78.6104 66.5957c-24.5664 15.3193 -52.2422 29.9766 -77.6396 47.0684
c-0.267578 -0.0351562 -0.523438 -0.12207 -0.791016 -0.151367c-12.3262 -1.26074 10.7754 -28.2559 13.0596 -30.4238c13.1748 -12.5244 30.1445 -21.376 45.0225 -31.6455c32.1855 -22.2178 63.5859 -45.6797 87.6406 -76.8477
c11.0771 -14.3486 20.4805 -29.7266 27.873 -45.7148z" />
    </font>
</defs>
</svg>
