<?xml version="1.0" standalone="no"?>
<!DOCTYPE svg PUBLIC "-//W3C//DTD SVG 1.1//EN" "http://www.w3.org/Graphics/SVG/1.1/DTD/svg11.dtd" >
<svg xmlns="http://www.w3.org/2000/svg" xmlns:xlink="http://www.w3.org/1999/xlink" version="1.1">
<metadata>
Created by FontForge 20170812 at Fri Jul  8 14:42:56 2022
 By www-data
</metadata>
<defs>
<font id="AppleRegular" horiz-adv-x="0" >
  <font-face 
    font-family="Apple"
    font-weight="400"
    font-stretch="normal"
    units-per-em="1000"
    panose-1="0 0 0 0 0 0 0 0 0 0"
    ascent="800"
    descent="-200"
    x-height="436.162"
    cap-height="757.254"
    bbox="-402.742 -597.731 1339.29 966.159"
    underline-thickness="50"
    underline-position="-100"
    unicode-range="U+000A-20AC"
  />
<missing-glyph horiz-adv-x="527" 
d="M50 700h427v-700h-427v700zM78 680l185 -309l186 309h-371zM251 350l-180 300v-601zM264 329l-185 -308h370zM276 350l181 -303v605z" />
    <glyph glyph-name=".notdef" horiz-adv-x="527" 
d="M50 700h427v-700h-427v700zM78 680l185 -309l186 309h-371zM251 350l-180 300v-601zM264 329l-185 -308h370zM276 350l181 -303v605z" />
    <glyph glyph-name=".null" 
 />
    <glyph glyph-name=".null" 
 />
    <glyph glyph-name="LF" unicode="&#xa;" 
 />
    <glyph glyph-name="controlCR" unicode="&#xd;" 
 />
    <glyph glyph-name="space" unicode=" " horiz-adv-x="377" 
 />
    <glyph glyph-name="exclam" unicode="!" horiz-adv-x="231" 
d="M177.733 70.3311c1.49414 -61.1445 -126.066 -100.854 -127.062 -33.8652c-1.54688 102.692 -0.212891 205.261 1.88574 307.936c2.0752 101.934 0.806641 208.254 25.502 307.419c3.6748 14.7539 40.6348 34.9082 47.7656 12.8984
c29.9229 -92.3779 32.1162 -194.033 37.9785 -290.667c6.1416 -101.211 11.459 -202.345 13.9307 -303.721zM180.957 -99.8311c3.48535 -20.7061 -21.5596 -37.1035 -37.8428 -41.9697c-8.68457 -2.59082 -20.6113 -2.6084 -28.9814 1.33398
c-6.51465 3.07031 -14.5049 11.0195 -14.0781 19.0693c0.658203 12.4365 0.907227 24.7842 3.79395 36.9365c3.99512 16.8057 10.2373 27.9082 25.7383 37.0547c16.6514 9.82227 35.2764 0.948242 42.0039 -15.3945c4.96777 -12.0566 7.21484 -24.2559 9.36621 -37.0303z
" />
    <glyph glyph-name="quotedbl" unicode="&#x22;" horiz-adv-x="293" 
d="M122.051 675.62c7.9375 -0.978516 15.3994 -8.83594 12.6611 -17.2236c-1.62402 -4.97363 0.723633 -16.9834 0.557617 -21.9453c-0.40332 -12.1523 -2.1875 -24.2627 -2.67383 -36.4385c-1.05469 -26.3965 -1.24414 -52.9414 -0.106445 -79.3379
c1.68359 -39.0283 -79.6455 -65.1045 -81.5186 -21.7314c-2.07422 48.0566 -7.73535 186.404 71.0801 176.677zM240.54 653.104c-5.8623 -43.2314 1.21484 -85.4365 2.32324 -128.727c0.770508 -29.9707 -60.6943 -52.1934 -64.2803 -17.1309
c-4.91406 48.0264 6.74609 96.1475 15.7148 143.06c4.11426 21.5176 50.0303 30.7354 46.2422 2.79785z" />
    <glyph glyph-name="quotedbl" unicode="&#x201d;" horiz-adv-x="293" 
d="M122.051 675.62c7.9375 -0.978516 15.3994 -8.83594 12.6611 -17.2236c-1.62402 -4.97363 0.723633 -16.9834 0.557617 -21.9453c-0.40332 -12.1523 -2.1875 -24.2627 -2.67383 -36.4385c-1.05469 -26.3965 -1.24414 -52.9414 -0.106445 -79.3379
c1.68359 -39.0283 -79.6455 -65.1045 -81.5186 -21.7314c-2.07422 48.0566 -7.73535 186.404 71.0801 176.677zM240.54 653.104c-5.8623 -43.2314 1.21484 -85.4365 2.32324 -128.727c0.770508 -29.9707 -60.6943 -52.1934 -64.2803 -17.1309
c-4.91406 48.0264 6.74609 96.1475 15.7148 143.06c4.11426 21.5176 50.0303 30.7354 46.2422 2.79785z" />
    <glyph glyph-name="quotedbl" unicode="&#x201c;" horiz-adv-x="293" 
d="M122.051 675.62c7.9375 -0.978516 15.3994 -8.83594 12.6611 -17.2236c-1.62402 -4.97363 0.723633 -16.9834 0.557617 -21.9453c-0.40332 -12.1523 -2.1875 -24.2627 -2.67383 -36.4385c-1.05469 -26.3965 -1.24414 -52.9414 -0.106445 -79.3379
c1.68359 -39.0283 -79.6455 -65.1045 -81.5186 -21.7314c-2.07422 48.0566 -7.73535 186.404 71.0801 176.677zM240.54 653.104c-5.8623 -43.2314 1.21484 -85.4365 2.32324 -128.727c0.770508 -29.9707 -60.6943 -52.1934 -64.2803 -17.1309
c-4.91406 48.0264 6.74609 96.1475 15.7148 143.06c4.11426 21.5176 50.0303 30.7354 46.2422 2.79785z" />
    <glyph glyph-name="numbersign" unicode="#" horiz-adv-x="740" 
d="M673.665 367.418c15.1162 -2.15723 20.5801 -16.2314 14.1904 -29.0771c-7.38574 -14.873 -25.4951 -21.0205 -40.9668 -19.9834c-27.1436 1.81348 -54.0732 5.54199 -81.0625 8.93848c-6.34863 -22.5674 -12.4775 -45.1875 -18.3701 -67.8672
c29.1113 -1.24512 58.2168 -2.80371 87.3164 -4.75977c13.3076 -0.895508 16.9062 -14.4521 12.0459 -24.7012c-6.01074 -12.668 -21.8379 -17.8662 -34.79 -16.9648c-25.0625 1.74902 -50.1426 3.17773 -75.2285 4.35156
c-16.4912 -66.835 -31.3525 -134.104 -45.8281 -201.384c-8.36426 -38.8682 -17.2324 -77.8135 -26.9893 -116.35c-8.52441 -33.6699 -16.8525 -73.7773 -40.9248 -99.9072c-8.07324 -8.75488 -27.9375 -17.3564 -38.2988 -6.6748
c-23.3018 24.0195 -19.7334 69.7822 -19.0166 101.093c0.876953 38.1514 4.04199 76.9131 8.62402 114.785c8.63086 71.3408 21.6006 141.857 37.0303 211.988c-31.1387 0.314453 -62.2832 0.183594 -93.4219 -0.320312
c-16.2891 -63.4092 -30.8125 -127.216 -46.6455 -190.731c-16.4736 -66.0889 -29.6924 -134.074 -52.6094 -198.266c-7.16699 -20.0771 -24.5352 -33.7939 -45.6201 -37.0664c-15.4414 -2.39453 -40.2842 2.54297 -40.6934 22.875
c-1.375 68.4062 11.625 138.021 22.3779 205.408c10.3496 64.8916 24.3506 129.403 38.2041 193.637c-41.8682 -2.09277 -83.7119 -4.83691 -125.491 -8.2627c-32.1641 -2.64355 -14.4639 35.3115 9.04004 37.7656c41.7139 4.35059 83.4629 7.77051 125.242 10.3906
c5.28711 23.7109 10.7402 47.4102 16.4014 71.0859c-48.6553 -4.14941 -97.1797 -9.82812 -145.515 -16.9766c-11.1445 -1.64746 -19.8291 6.69336 -18.2998 17.5059c1.75488 12.3887 16.7344 18.625 27.3389 20.2607c48.4531 7.48633 97.1025 13.4912 145.894 17.9609
c21.0254 84.5117 44.707 168.479 72.1758 250.744c11.0137 32.9883 43.29 55.9824 78.0801 57.873c28.0801 1.52344 61.3643 -17.4043 52.2588 -49.9951c-23.3613 -83.5869 -47.4219 -166.896 -70.7061 -250.447c6.46094 0.213867 12.916 0.480469 19.377 0.634766
c23.6699 0.575195 47.3213 0.634766 70.9668 0.397461c28.791 104.233 63.2373 206.623 104.577 307.016c11.8018 28.6611 51.9863 45.0039 80.7178 43.6816c24.1436 -1.1084 54.5527 -20.8711 44.209 -49.6025c-36.0762 -100.185 -70.1904 -201.312 -100.304 -303.549
c31.8027 -0.367188 63.7891 -1.09668 94.7139 -5.50684zM420.97 262.513c5.71387 24.3574 11.6719 48.6328 17.9727 72.7822c-27.042 0.355469 -54.0908 0.272461 -81.127 -0.326172c-3.12988 -0.0712891 -6.25391 -0.202148 -9.37793 -0.285156
c-6.6748 -24.2803 -13.2305 -48.6016 -19.6973 -72.9531c30.7354 0.6875 61.4824 0.954102 92.2295 0.782227z" />
    <glyph glyph-name="dollar" unicode="$" horiz-adv-x="597" 
d="M543.724 68.5049c10.4092 -50.1611 -4.23828 -105.425 -39.9414 -142.443c-50.9551 -52.8164 -124.341 -71.3643 -195.995 -66.4854c1.73047 -39.6094 4.41016 -79.1709 8.25684 -118.649c2.25293 -23.083 -44.8789 -39.3604 -48.8916 -13.0293
c-7.02441 46.0938 -10.8594 92.7275 -12.5371 139.593c-13.0586 3.00488 -25.8506 6.7334 -38.1924 11.1436c-88.1221 31.4883 -185.373 106.61 -163.232 212.06c4.30371 20.4922 48.3467 29.5498 44.4287 2.68555c-10.083 -69.1416 55.1641 -112.503 109.954 -138.182
c14.7422 -6.90625 30.2139 -13.0352 46.1006 -18.0322c0.610352 85.5498 7.18457 171.425 14.6953 255.979c-50.5752 41.915 -98.8809 85.8691 -131.993 144.412c-54.5059 96.3496 -24.1973 223.28 75.6855 275.587c33.9961 17.8066 72.6748 27.0654 111.033 28.0078
c6.81738 41.2988 14.1318 82.5146 22.0693 123.642c3.8291 19.8701 46.7344 28.1338 42.6084 2.5791c-6.95898 -43.1006 -13.8525 -86.373 -20.5156 -129.782c30.125 -6.35449 55.7031 -20.2969 84.7783 -35.1104c33.8594 -17.25 -24.6709 -70.3984 -48.4297 -36.3438
c-9.76855 14.0068 -25.6133 21.5586 -43.4502 24.4512c-12.4307 -83.4688 -23.7764 -167.382 -32.8877 -251.515c44.3037 -46.3193 95.5605 -86.1602 139.366 -134.53c36.165 -39.9297 65.9814 -82.5146 77.0898 -136.036zM260.039 429.145
c8.18652 -15.4004 17.5049 -29.6865 27.541 -43.2725c7.80664 67.9141 16.8584 135.674 27.2617 203.227c-20.5693 -4.28027 -39.6631 -12.8691 -51.8027 -23.6875c-43.0537 -38.3643 -27.1084 -90.9375 -3 -136.267zM371.362 -73.0547
c44.3096 8.03809 79.7578 33.0244 67.4873 82.7285c-11.3457 45.916 -53.2314 84.1797 -87.3398 114.281c-13.0586 11.5293 -26.4668 22.7031 -39.958 33.7881c-4.84277 -77.3984 -7.04785 -154.827 -5.75586 -232.107c21.8613 -2.69727 43.9424 -2.61426 65.5664 1.30957z
" />
    <glyph glyph-name="percent" unicode="%" horiz-adv-x="737" 
d="M650.978 576.212c-44.9443 -59.3662 -94.167 -115.409 -139.407 -174.634c-43.3027 -56.6816 -84.6846 -114.791 -124.993 -173.636c-84.4346 -123.256 -159.688 -252.7 -236.601 -380.71c-21.7432 -36.1885 -104.762 -43.4561 -82.3369 13.5928
c54.8076 139.421 128.732 269.12 209.486 395.05c81.2158 126.646 171.501 256.648 276.701 364.682c21.7432 22.3301 59.3789 39.4141 90.1973 24.9385c30.5342 -14.3389 23.7764 -47.0664 6.95312 -69.2832zM112.271 295.916
c-68.8809 25.2578 -69.1182 118.288 -54.6777 178.301c6.25977 26.0283 36.1709 45.5957 64.9619 51.3994c43.6465 28.1035 108.857 45.4004 151.021 4.65332c41.3457 -39.959 33.7109 -110.072 8.82617 -156.581c-31.2334 -58.377 -103.818 -102.094 -170.132 -77.7725z
M186.575 384.536c1.375 -0.782227 1.90234 0.544922 0 0zM178.128 506.41c2.67383 -6.55566 3.5625 -14.7188 1.93848 -24.79c-5.02051 -31.1621 -6.7041 -61.4766 3.23633 -91.7197c0.901367 -2.75 1.87305 -4.20215 2.68555 -4.9375
c5.03223 3.84082 9.3418 7.85352 13.2783 13.5322c14.6182 21.1025 23.5273 51.6123 17.9668 77.1553c-4.91992 22.6084 -21.0967 31.8086 -39.1055 30.7598zM630.842 237.283c70.3926 -46.6035 66.2588 -138.895 30.4082 -206.542
c-37.2021 -70.1963 -145.905 -142.787 -214.329 -67.2441c-52.3838 57.8311 -56.7168 173.108 -2.7207 230.898c3.90625 4.17871 8.32227 7.88379 13.0527 11.1084c20.3916 62.2832 126.54 62.9297 173.589 31.7793zM556.043 31.665
c2.33594 -1.9502 4.03027 -3.0166 4.01855 -1.99121c-0.0234375 2.73828 -1.74805 2.91602 -4.01855 1.99121zM566.605 49.6211c22.9697 32.3066 37.1426 80.8252 10.207 114.845c-12.9287 16.3311 -26.6748 22.2705 -41.4287 23.373
c-1.16211 -40.8301 -17.7715 -74.998 -4.71875 -116.765c2.79785 -8.95117 6.79297 -18.9453 12.1338 -26.7227c-0.0947266 0.142578 5.64941 -5.83301 10.54 -10.3027c4.56445 5.07422 9.2832 9.9707 13.2666 15.5723z" />
    <glyph glyph-name="ampersand" unicode="&#x26;" horiz-adv-x="812" 
d="M744.796 327.175c22.9697 -11.4766 20.5391 -37.3184 5.47656 -54.6035c-16.8877 -19.3486 -46.7217 -29.2715 -71.0674 -19.6445c-3.55078 1.40527 -9.44336 1.22168 -16.1064 0.291016c16.9775 -101.821 -25.542 -216.908 -90.3975 -293.685
c-63.9482 -75.6973 -159.983 -120.825 -259.113 -121.821c-93.7471 -0.942383 -214.732 30.0537 -252.469 127.239c-36.7998 94.7793 24.1318 195.284 89.5391 261.373c16.4199 16.5918 33.7109 31.6543 51.6123 45.6914c-29.6504 -1.25684 -59.4199 2.15723 -84.127 16.668
c-99.4736 58.4355 27.1133 196.623 77.0312 242.131c72.0938 65.7324 171.372 120.588 271.64 118.649c43.4863 -0.841797 89.7461 -15.4355 112.841 -55.0918c21.7725 -37.3926 9.89355 -86.2852 -20.5518 -115.082c-16.6455 -15.7383 -57.6182 -9.32422 -35.7979 16.3428
c25.2344 29.6807 -11.707 65.1582 -37.8721 76.4268c-30.2969 13.0527 -63.0537 6.73926 -93.4805 -2.80469c-58.1514 -18.2461 -109.13 -55.6973 -149.641 -100.588c-20.3496 -22.5488 -41.9678 -48.832 -50.8828 -78.4531
c-9.22363 -30.6523 14.5049 -29.6504 38.8145 -28.1211c71.7617 4.52246 139.154 37.2256 211.229 43.5264c20.7529 1.81348 44.3691 -9.25391 46.8467 -31.8154c2.73828 -24.9443 -20.416 -43.54 -39.1064 -54.6133c-79.0586 -46.8291 -165.87 -94.4053 -224.578 -166.783
c-23.5869 -29.082 -47.292 -69.5215 -42.0752 -108.455c5.28711 -39.5088 37.3389 -70.9678 72.0166 -87.2988c72.6152 -34.1973 162.521 -28.9932 221.432 28.1504c67.4219 65.4072 84.0195 154.442 84.9619 243.934c-24.9443 -6.61523 -49.8408 -13.248 -74.9453 -19.0215
c-4.58203 -5.89258 -11.873 -10.6826 -19.9766 -11.1445c-13.083 -0.75293 -25.6318 -0.28418 -38.6611 0.901367c-23.1182 2.10449 -9.30664 27.416 2.53711 34.0605c49.9238 28.0029 103.339 48.8154 156.736 69.1895c44.9912 17.1729 110.813 48.0977 158.135 24.4521z
" />
    <glyph glyph-name="quotesingle" unicode="'" horiz-adv-x="182" 
d="M130.112 632.827c-2.28809 -35.8506 0.511719 -71.2441 1.58496 -107.071c0.865234 -28.6904 -62.7578 -62.1055 -72.752 -27.2207c-10.1426 35.4062 -10.7236 69.3721 -6.37891 105.857c3.5918 30.1602 10.6572 69.2119 45.6426 76.4854
c34.7363 7.21973 33.5156 -22.793 31.9033 -48.0508z" />
    <glyph glyph-name="quotesingle" unicode="&#x2019;" horiz-adv-x="182" 
d="M130.112 632.827c-2.28809 -35.8506 0.511719 -71.2441 1.58496 -107.071c0.865234 -28.6904 -62.7578 -62.1055 -72.752 -27.2207c-10.1426 35.4062 -10.7236 69.3721 -6.37891 105.857c3.5918 30.1602 10.6572 69.2119 45.6426 76.4854
c34.7363 7.21973 33.5156 -22.793 31.9033 -48.0508z" />
    <glyph glyph-name="quotesingle" unicode="&#x2018;" horiz-adv-x="182" 
d="M130.112 632.827c-2.28809 -35.8506 0.511719 -71.2441 1.58496 -107.071c0.865234 -28.6904 -62.7578 -62.1055 -72.752 -27.2207c-10.1426 35.4062 -10.7236 69.3721 -6.37891 105.857c3.5918 30.1602 10.6572 69.2119 45.6426 76.4854
c34.7363 7.21973 33.5156 -22.793 31.9033 -48.0508z" />
    <glyph glyph-name="parenleft" unicode="(" horiz-adv-x="537" 
d="M485.611 -146.939c6.69824 -23.6338 -14.8965 -46.6982 -34.8496 -55.9512c-107.186 -49.6924 -227.24 -23.7764 -297.49 72.1172c-56.4199 77.0137 -82.6211 176.796 -95.71 270.128c-13.7227 97.873 -8.26953 198.005 12.3115 294.556
c20.0713 94.1621 54.8848 195.438 122.959 266.155c61.915 64.3164 156.724 113.055 245.106 76.0537c24.9619 -10.4502 -5.87402 -37.7236 -20.96 -38.3994c-96.7354 -4.32715 -158.39 -77.3574 -188.058 -163.583c-32.0752 -93.208 -46.6748 -191.567 -45.2754 -289.933
c1.43457 -100.653 20.6523 -199.403 60.6465 -291.953c32.4131 -75.0156 95.8877 -146.558 185.284 -117.228c20.4268 6.69824 49.5557 0.894531 56.0352 -21.9629z" />
    <glyph glyph-name="parenright" unicode=")" horiz-adv-x="542" 
d="M335.58 733.76c149.818 -144.613 173.439 -390.104 146.521 -585.162c-14.4277 -104.565 -41.8789 -216.6 -110.932 -299.339c-36.0996 -43.2607 -86.9365 -74.7725 -140.369 -91.6846c-45.4365 -14.3809 -108.473 -19.3604 -147.43 12.7559
c-38.3945 31.6543 27.0361 76.4805 55.7266 78.4902c44.9082 3.14746 73.7998 0.301758 104.944 30.1299c28.0439 26.8584 49.9297 71.0732 64.2812 110.303c36.082 98.6025 53.7109 205.225 52.9941 310.068c-0.723633 105.805 -20.374 210.856 -61.3291 308.593
c-32.6318 77.873 -113.789 210.548 -213.286 131.626c-21.9443 -17.4102 -52.5254 4.10742 -27.0596 25.0381c79.7168 65.5312 206.357 36.3486 275.938 -30.8184z" />
    <glyph glyph-name="asterisk" unicode="*" horiz-adv-x="438" 
d="M359.883 469.992c-29.0752 0.450195 -58.1152 -0.114258 -87.1016 -1.45996c28.7021 -31.7607 60.0361 -60.8604 97.9326 -83.5811c25.501 -15.2881 -11.8975 -47.168 -32.2773 -36.5332c-31.7256 16.5566 -58.8213 38.4238 -83.3799 63.1484
c1.66602 -22.9229 3.49805 -45.8398 5.06934 -68.7803c3.14746 -45.8926 -92.8701 -72.2832 -92.5977 -24.6836c0.183594 32.668 3.0166 65.1816 7.13086 97.5654c-22.875 -26.3252 -45.1934 -52.8936 -67.5352 -78.5137
c-15.8564 -18.1807 -56.2305 -8.18066 -35.3291 16.1289c29.7334 34.5889 59.4668 70.748 90.5107 105.87c-29.751 -3.66309 -59.4131 -8.12109 -88.9512 -13.5566c-31.4463 -5.78516 -29.8223 30.1367 -2.99316 35.792c36.6924 7.72949 73.5752 13.8115 110.611 18.3164
c-26.7871 35.0859 -53.124 70.54 -83.041 101.655c-17.2793 17.9727 22.4668 43.9775 37.832 28.583c21.9561 -21.998 41.9502 -45.7627 61.4707 -69.8887c0.533203 3.73438 1.10254 7.45703 1.59473 11.1973c2.96387 22.4424 1.71875 51.6426 15.6133 70.2441
c11.9209 15.957 54.8672 12.2881 39.6094 -11.8262c-4.33887 -6.85254 -1.54102 -29.9824 -2.05078 -38.3877c-0.6875 -11.4053 -1.68359 -22.8164 -2.0752 -34.2334c-0.0947266 -2.68555 -0.100586 -5.37695 -0.148438 -8.0625
c22.5605 20.3496 46.1885 39.2588 71.2861 55.9336c23.8594 15.8506 56.8057 -7.2207 28.1094 -26.0117c-31.8027 -20.8242 -61.1689 -45.4062 -88.9824 -72.0156c36.2422 2.22266 72.6152 3.02246 109.095 2.37012c33.2246 -0.598633 15.9746 -39.668 -9.40234 -39.2705z
" />
    <glyph glyph-name="plus" unicode="+" horiz-adv-x="343" 
d="M275.324 284.584c32.2822 1.97363 15.3848 -37.0742 -9.15039 -38.2773c-14.2324 -0.693359 -28.4473 -1.57031 -42.6562 -2.50684c-0.397461 -59.3838 -0.391602 -118.774 -0.640625 -178.158c-0.136719 -31.8262 -28.0264 -55.668 -57.1377 -63.3564
c-22.0098 -5.80957 -66.0293 -0.889648 -65.0098 30.7998c2.15137 66.9834 5.89746 133.89 10.5742 200.743c-14.6123 -1.63574 -29.2188 -3.35449 -43.8066 -5.25098c-10.5459 -1.375 -18.7969 6.18848 -17.3271 16.5742c1.64746 11.6543 15.8389 17.7598 25.8867 19.1885
c12.585 1.79004 25.1875 3.39062 37.79 4.99121c2.86914 37.1318 7.11328 74.2158 11.5527 111.182c4.46973 37.1904 7.20215 77.9492 25.4834 111.27c9.66797 17.623 47.1787 33.5156 59.3896 10.0596c15.8682 -30.4688 12.0801 -71.7617 12.5723 -105.307
c0.527344 -35.8809 1.42871 -71.8389 1.03125 -107.72c-0.0292969 -2.64355 -0.0351562 -5.28711 -0.0644531 -7.93066c17.1553 1.40527 34.3223 2.65039 51.5127 3.69922z" />
    <glyph glyph-name="comma" unicode="," horiz-adv-x="260" 
d="M113.117 87.5332c18.5244 46.207 117.742 46.3018 92.3184 -15.2402c-15.0918 -36.5391 -30.5156 -73.0361 -49.04 -107.998c-16.2832 -30.7354 -33.9424 -65.3945 -68.1689 -78.6729c-16.3076 -6.33105 -44.583 2.4541 -36.9424 19.5264
c1.12012 26.4258 13.1953 54.7422 21.8203 78.7441c12.543 34.8848 26.2246 69.2363 40.0127 103.641z" />
    <glyph glyph-name="hyphen" unicode="-" horiz-adv-x="361" 
d="M277.65 284.673c60.3506 -2.00977 28.9746 -71.5488 -17.0723 -71.3174c-65.4775 0.332031 -133.179 -6.94727 -198.2 0.669922c-22.0752 2.58496 -10.4092 27.4346 2.51367 33.7656c64.3574 31.5059 141.804 39.2412 212.759 36.8818z" />
    <glyph glyph-name="period" unicode="." horiz-adv-x="180" 
d="M129.908 -40.6426c4.05469 -43.6396 -85.8936 -63.4697 -79.5928 -13.084c4.03711 32.3125 4.54688 71.8926 24.0732 98.959c6.56836 9.11133 30.2793 17.9316 39.2715 6.84668c17.9316 -22.1104 13.7051 -65.3232 16.248 -92.7217z" />
    <glyph glyph-name="slash" unicode="/" horiz-adv-x="652" 
d="M564.609 785.936c31.749 -5.53027 46.3135 -35.4961 31.1621 -63.9023c-82.0938 -153.997 -169.042 -305.007 -245.421 -462.062c-38.3643 -78.8867 -73.9844 -158.988 -109.474 -239.196c-35.7324 -80.7539 -65.917 -165.076 -108.994 -242.32
c-15.9219 -28.5537 -88.2578 -46.3076 -81.4287 3.85938c11.6426 85.5078 45.2051 168.532 74.8613 249.066c30.3682 82.4727 64.749 163.559 100.559 243.809c71.708 160.701 150.767 320.4 248.729 466.846c19.3301 28.8916 53.8652 50.1963 90.0068 43.9014z" />
    <glyph glyph-name="zero" unicode="0" horiz-adv-x="573" 
d="M461.362 51.5283c-69.6094 -108.804 -253.083 -214.773 -357.82 -88.0381c-44.8613 54.2803 -53.5752 126.38 -53.54 194.585c0.0410156 77.126 11.5527 153.167 31.1025 227.613c1.60059 6.09375 4.14941 11.8379 7.42188 17.1787
c-3.52148 36.7109 7.97266 84.8799 14.9082 104.021c21.7129 59.9062 66.6748 105.224 127.321 125.146c55.4658 18.2217 117.571 11.3037 166.849 -20.0898c58.0088 -36.9541 88.5068 -99.2959 105.033 -164.199c32.1162 -126.131 30.8359 -283.501 -41.2754 -396.217z
M157.4 521.072c-11.4229 -21.5352 -16.8525 -46.7568 -18.542 -70.9238c-0.0947266 -1.40527 -0.212891 -5.23438 -0.307617 -10.208c6.96484 2.14551 14.0488 3.50293 20.9902 3.88184c30.8008 1.67188 58.0977 -17.2793 52.502 -50.2256
c-9.82227 -57.8369 -19.4131 -116.569 -20.5576 -175.325c-1.00195 -51.6309 -1.67188 -113.362 26.3311 -158.888c14.9619 -24.3271 36.9062 -40.5928 63.291 -30.6641c10.54 3.97168 25.4424 15.1631 36.1543 26.6748c11.6064 12.4717 20.9248 25.584 29.0518 40.5635
c43.5215 80.1963 44.8076 187.044 35.4414 275.604c-8.0498 76.1182 -33.8477 192.871 -128.538 200.376c-39.6982 3.14746 -76.9424 -15.2705 -95.8164 -50.8662z" />
    <glyph glyph-name="one" unicode="1" horiz-adv-x="488" 
d="M399.619 291.039c-2.11035 -93.9375 -4.30762 -187.857 -6.34082 -281.789c-0.332031 -15.3467 -5.75 -29.0811 -14.333 -40.6816c11.8789 0.0771484 23.5684 -0.332031 34.8662 -1.39941c19.8105 -1.86719 28.6729 -20.5811 22.4248 -37.623
c-7.45703 -20.332 -29.9707 -32.1992 -50.5342 -34.1729c-31.2334 -3.00586 -62.9414 -1.7666 -94.3047 -4.39844c-30.8779 -2.59668 -60.8662 -9.56152 -91.5547 -13.0645c-37.8662 -4.32129 -31.1797 40.4688 -4.64746 51.8623
c18.0088 7.73535 37.5645 14.5342 57.8848 20.2422c-3.91211 5.40625 -6.5498 11.9561 -7.19043 19.9521c-6.12891 76.7051 4.1377 154.293 11.3164 230.613c6.87012 73.042 13.6572 145.906 14.3623 219.31c0.361328 37.6172 0.260742 75.2939 -3.3252 112.787
c-2.20508 23 -6.05859 69.2725 -40.0361 54.0557c-58.9043 -26.3789 -97.0498 -97.4824 -129.03 -149.801c-12.5312 -20.498 -62.6387 -20.5273 -45.7266 7.55273c38.9873 64.7256 81.7559 135.022 149.623 173.174c29.5791 16.627 64.4102 27.5225 97.9141 17.5107
c36.5742 -10.9365 55.3945 -41.0967 66.877 -75.4248c28.8145 -86.1484 33.7822 -178.521 31.7549 -268.705z" />
    <glyph glyph-name="two" unicode="2" horiz-adv-x="573" 
d="M270.88 67.9424c53.2197 78.3711 88.748 166.309 112.625 257.685c13.2959 50.8721 23.7285 104.72 19.1104 157.465c-3.58594 41.002 -11.3154 93.9551 -52.8154 113.688c-48.3408 22.9883 -99.0176 -9.65625 -130.861 -44.9443
c-15.1035 -16.7402 -27.5107 -35.7568 -36.9355 -56.2373c-2.86914 -6.23633 -19.1289 -71.4238 -21.8789 -71.7266c28.0742 3.10059 17.7598 -32.0391 -2.94629 -35.8027c-62.2656 -11.3223 -37.8496 68.8027 -25.0098 101.311
c19.5557 49.5146 54.2686 93.8545 98.6318 123.553c87.3096 58.4414 199.492 61.8379 255.854 -38.6729c56.1123 -100.061 35.6494 -231.982 2.7207 -336.281c-29.3486 -92.9531 -73.1904 -182.267 -134.928 -257.946c48.9873 -0.461914 97.5479 -4.62891 146.103 -14.8066
c54.873 -11.5059 -1.53516 -80.0127 -45.0801 -63.7051c-42.8818 16.0586 -92.4199 28.7969 -142.313 32.8223c-38.3408 -38.0029 -82.5381 -69.3545 -134.198 -86.8535c-30.291 -10.2549 -64.9922 -16.0342 -95.1406 -2.4541
c-22.0039 9.91113 -40.333 28.7256 -31.5898 54.1855c6.69824 19.4961 26.4023 35.3057 47.4639 37.4102c3.9834 0.806641 8.09766 1.51758 12.2119 2.18164c4.07227 1.77832 14.0488 3.61621 16.1826 4.38672c7.07227 2.54297 14.002 5.50098 21.0742 8.0498
c5.22852 1.88477 10.4922 3.63965 15.7734 5.32324c7.24414 4.59375 13.7764 9.82227 22.8994 17.1963c31.3398 25.3232 59.5264 59.5322 83.0479 94.1738z" />
    <glyph glyph-name="three" unicode="3" horiz-adv-x="553" 
d="M262.539 -68.876c44.7666 -2.99316 84.3867 23.082 97.2852 65.8506c15.9219 52.7568 7.93164 131.122 -30.042 173.334c-19.793 22.0098 -46.3379 35.8574 -74.3467 44.5596c-15.377 4.77734 -51.4951 14.7891 -60.9736 9.51953
c-25.0801 -12.9814 -63.877 -15.75 -82.7744 8.82031c-17.9316 23.3262 -0.859375 58.7441 21.7139 72.834c5.54199 3.46191 11.1025 6.52051 16.6748 9.36035c-0.100586 0.213867 -0.207031 0.433594 -0.313477 0.647461c46.5088 21.1504 87.2617 51.0859 121.909 88.6797
c29.8701 32.4131 74.6719 80.8428 64.8262 129.095c-11.2217 54.9736 -82.7227 53.9834 -123.784 38.1797c-25.9102 -9.9707 -48.2285 -26.8594 -68.7627 -45.2002c-18.7676 -16.7695 -52.0283 -43.3496 -45.9229 -71.1807
c4.17871 -19.0635 -38.9102 -36.959 -45.1934 -16.9053c-10.6816 34.0908 10.9189 62.7393 30.1602 89.5391c23.8291 33.1895 53.3965 60.4688 88.6426 81.2451c66.2129 39.0342 162.42 54.6416 227.299 4.29688c71.2041 -55.2471 35.8984 -152.379 -5.98145 -213.097
c-19.5674 -28.376 -41.2803 -54.5947 -65.0918 -78.5068c40.1963 -12.0508 79.1475 -29.9883 109.527 -59.5859c72.9648 -71.0977 83.4863 -195.823 41.3164 -285.439c-41.9805 -89.2129 -145.461 -140.203 -241.681 -132.402
c-45.9219 3.72266 -92.2832 21.168 -121.3 58.2402c-29.2002 37.3037 -38.7793 84.9629 -37.7891 131.466c0.97168 45.7979 97.0723 77.2324 96.9062 25.8271c-0.177734 -57.7715 19.1885 -124.595 87.6953 -129.177z" />
    <glyph glyph-name="four" unicode="4" horiz-adv-x="665" 
d="M416.164 485.28c-0.729492 -55.2471 -9.03125 -111.092 -22.9023 -164.542c-4.52832 -17.4746 -9.79785 -34.8545 -15.9453 -51.8789c6.11133 0.705078 12.2168 1.38086 18.3281 2.0332c21.2031 2.25293 42.4424 4.04297 63.6992 5.65527
c2.82715 105.971 8.8916 213.233 27.5107 317.011c5.44141 30.3145 40.3145 50.4688 67.8789 55.1514c20.7891 3.5332 62.6631 -3.92969 60.5469 -34.043c-8.22754 -117.079 -23.124 -233.257 -27.8125 -350.656c-2.35352 -58.9512 -4.57617 -117.944 -5.25781 -176.938
c-0.308594 -26.5381 -1.17969 -52.9873 -1.78418 -79.5137c-0.337891 -14.7012 -0.0351562 -29.3779 -0.0761719 -44.0791c-0.0292969 -9.98242 -3.34863 -25.7617 1.02051 -35.2754c16.9893 -36.9834 -40.5273 -58.4238 -67.125 -50.374
c-49.0518 14.8428 -49.4902 106.118 -51.9922 147.796c-3.72266 61.9688 -5.43555 124.341 -4.32129 186.404c0.154297 8.4707 0.320312 16.959 0.492188 25.459c-0.432617 -0.0292969 -0.888672 -0.0830078 -1.32129 -0.112305
c-21.8672 -1.60645 -43.7227 -3.43262 -65.5312 -5.68555c-10.4268 -1.07324 -20.8418 -2.28809 -31.2393 -3.60449c-26.6865 -56.2539 -65.4834 -105.348 -123.143 -135.324c-38.7383 -20.1426 -83.6289 -26.4736 -126.208 -16.1123
c-26.8467 6.53809 -67.1914 22.2998 -60.1729 56.8828c15.5371 76.5684 141.039 101.643 202.735 115.217c13.2842 29.9355 22.7207 61.999 31.1201 92.0234c25.3525 90.623 33.2598 185.277 49.6738 277.649c2.88086 16.2061 30.5039 28.0908 43.1006 16.2832
c39.6387 -37.1729 39.3955 -98.6914 38.7256 -149.427zM174.32 151.122c22.2881 13.3193 39.8096 31.4229 54.1074 52.1523c-31.2217 -7.73535 -62.9648 -17.2256 -90.5879 -32.2646c-16.8818 -9.18848 -50.0889 -37.8555 -8.62402 -36.0176
c16.8291 0.74707 30.7832 7.57617 45.1045 16.1299z" />
    <glyph glyph-name="five" unicode="5" horiz-adv-x="604" 
d="M272.894 -61.958c56.9062 17.1074 83.2314 85.502 93.4863 138.199c12.792 65.7803 6.92383 135.858 -46.9775 181.55c-43.1953 36.6162 -105.994 43.0479 -154.667 13.042c-21.1562 -13.0469 -48.3701 -24.2617 -72.9521 -12.7148
c-22.0928 10.374 -23.9893 32.8281 -14.9082 53.0361c21.3281 47.4639 40.1367 95.876 59.0879 144.317c12.5254 32.0156 23.6279 65.2939 36.9414 97.3926c-39.4668 -2.27637 -78.584 0.40918 -114.358 18.9336c-25.0508 12.9697 11.0312 43.9482 30.6699 34.7188
c33.3076 -15.6611 69.1406 -15.7676 104.398 -9.43652c0.799805 1.49414 1.5293 3.0293 2.34766 4.51172c8.2334 14.8906 44.2861 28.9932 51.8145 7.86621c30.9434 7.32715 61.8213 14.2031 93.541 18.8145c50.374 7.32715 199.818 32.959 211.929 -44.001
c4.48145 -28.4648 -44.0078 -54.7246 -66.8242 -40.6279c-13.9238 8.60156 -23.0586 18.7793 -39.4961 21.957c-18.7432 3.62207 -38.6133 3.29004 -57.6055 3.2666c-41.8027 -0.0537109 -83.1191 -3.02344 -124.72 -6.74609
c-4.68262 -0.420898 -9.40723 -0.901367 -14.1436 -1.40527c-1.73047 -35.3115 -9.51953 -71.417 -16.5557 -104.506c-5.14551 -24.209 -11.5117 -48.1338 -18.5898 -71.8564c65.6562 12.0811 134.549 0.794922 191.165 -40.0234
c88.4238 -63.7529 100.179 -176.285 76.1895 -275.593c-25.0029 -103.517 -103.102 -196.938 -211.224 -217.757c-103.422 -19.9111 -205 39.2246 -216.197 148.722c-3.78223 36.9355 74.6006 74.458 89.5264 33.4912c11.458 -31.459 22.833 -63.6582 52.2344 -82.9648
c21.8438 -14.3447 50.6709 -19.7686 75.8877 -12.1865z" />
    <glyph glyph-name="six" unicode="6" horiz-adv-x="519" 
d="M256.5 432.144c-37.416 -78.6973 -64.8652 -164.252 -70.5439 -251.627c-0.735352 -11.3105 -1.16211 -23.2314 -1.13281 -35.4785c55.2998 23.332 122.894 27.9736 178.135 8.83887c52.5791 -18.21 104.915 -61.6846 105.994 -121.294
c1.00195 -55.3115 -34.7129 -104.363 -80.3271 -132.224c-49.4912 -30.2256 -121.566 -47.8252 -179.231 -37.458c-142.812 25.667 -167.791 185.752 -157.27 306.002c11.1562 127.512 64.0195 262.629 144.934 362.369c36.9473 45.5488 87.0723 92.1113 143.747 111.115
c33.2666 11.1562 115.295 20.5752 112.468 -35.3291c-0.936523 -18.459 -38.9102 -34.4521 -41.5068 -11.0615c-3.37891 30.4395 -40.1133 -10.166 -49.3018 -17.2969c-14.8252 -11.5176 -27.4277 -24.3096 -39.5557 -38.6484
c-27.208 -32.1816 -48.3643 -69.959 -66.4082 -107.908zM407.885 50.9365c-34.7305 85.5371 -147.63 55.2227 -218.372 31.5352c7.88379 -49.5264 27.0303 -96.96 67.1846 -125.295c31.5117 -22.2412 69.7754 -29.7334 105.805 -14.0605
c40.6289 17.6768 62.2949 66.1719 45.3828 107.82z" />
    <glyph glyph-name="seven" unicode="7" horiz-adv-x="469" 
d="M416.559 572.447c7.67676 -40.7471 -8.31738 -89.7637 -18.0918 -128.981c-16.2832 -65.3477 -37.6582 -130.689 -57.6289 -196.487c14.209 1.62402 28.4238 3.24805 42.6328 4.87207c33.3496 3.81152 15.5244 -37.0664 -9.52051 -39.7695l-44.9385 -4.85449
c-29.0752 -100.25 -51.9033 -201.774 -45.709 -306.222c3.8291 -64.5596 -123.943 -111.087 -137.536 -36.6582c-15.4834 84.7725 7.61133 176.754 29.1592 258.806c6.12891 23.3438 12.7803 46.5215 19.8105 69.5742c-17.623 -1.90918 -35.252 -3.81152 -52.875 -5.71387
c-32.2881 -3.48535 -14.7246 35.5371 9.16406 38.2695c18.6846 2.13965 37.3691 4.27344 56.0537 6.40723c14.6123 44.5889 30.7119 88.6797 48.1035 132.302c16.2246 40.6885 33.9482 80.79 49.793 121.614c10.7412 27.6709 45.543 85.5137 9.43066 106.652
c-19.5381 11.4346 -49.0342 6.97656 -70.7949 6.45508c-21.2451 -0.509766 -42.6025 -1.93262 -63.4443 -6.2832c-38.5596 -8.0498 -71.7725 -29.9473 -111.37 -33.9785c-34.4287 -3.50879 -15.7559 38.0215 9.7627 40.7715s48.1387 17.415 72.2705 25.3818
c19.2588 6.36035 39.2529 10.2256 59.3477 12.7803c41.7852 5.30566 88.1279 6.95996 129.776 -0.651367c35.7861 -6.53809 69.3848 -25.9512 76.6045 -64.2861z" />
    <glyph glyph-name="eight" unicode="8" horiz-adv-x="500" 
d="M55.8271 -16.7295c-26.5322 113.735 41.3008 224.696 127.146 296.476c-58.2285 51.957 -111.306 107.328 -106.682 188.835c7.18457 126.759 178.171 212.054 274.503 119.166c41.8027 -40.3086 53.0947 -98.5137 54.6719 -154.371
c1.49414 -52.7568 -4.80664 -105.188 -13.3662 -157.203c4.78418 -6.05859 9.4375 -12.2646 13.8838 -18.6846c76.7646 -110.968 50.8896 -274.36 -57.458 -356.531c-49.959 -37.8838 -117.879 -58.3525 -179.593 -41.458
c-59.0225 16.1592 -99.4434 65.2109 -113.106 123.771zM213.074 552.885c-31.9443 -46.4854 23.8301 -114.383 53.5049 -146.849c26.7812 -29.2949 56.165 -55.4893 83.7939 -83.3975c6.42578 48.9277 8.63672 98.2998 -0.586914 145.899
c-6.52051 33.6582 -21.2217 69.9893 -50.0664 90.7656c-25.46 18.3408 -67.1494 21.9453 -86.6455 -6.41895zM295.529 166.851c-21.2334 31.5234 -51.75 59.3779 -83.3037 87.1318c-36.0352 -40.3145 -57.5469 -90.457 -69.5146 -144.648
c-13.5859 -61.5244 -4.11914 -154.578 66.8125 -177.922c51.1387 -16.835 92.7637 16.0762 109.942 62.7871c21.1914 57.624 9.89355 122.42 -23.9365 172.651z" />
    <glyph glyph-name="nine" unicode="9" horiz-adv-x="664" 
d="M232.678 445.404c-19.5322 -27.9609 -35.8799 -61.085 -44.3154 -94.1562c-6.56836 -25.7617 -11.1797 -69.04 10.5869 -90.0713c34.1025 -32.9463 101.999 61.5303 118.525 87.209c41.3584 64.2627 64.1035 135.87 96.8779 204.081
c11.4941 23.9189 31.9922 41.9219 59.835 42.8584c30.5576 1.02539 51.0439 -20.4326 66.9951 -43.8115c38.9277 -57.0605 56.2783 -130.055 65.1465 -197.744c18.7852 -143.351 7.2793 -297.697 -82.9111 -416.323c-44.4229 -58.4238 -111.08 -105.573 -185.895 -111.999
c-64.2031 -5.51855 -130.642 26.8232 -149.018 92.0586c-8.41699 29.8818 10.0898 54.707 37.0312 67.8486c19.3359 9.43066 67.9854 16.8047 76.2666 -12.5908c6.81055 -24.1797 29.2178 -39.6035 53.5566 -36.3018c14.9561 2.02734 32.2715 19.8525 46.0771 36.3018
c43.6641 52.0098 61.7559 123.333 70.1436 189.25c9.06934 71.2695 9.81055 144.75 4.12598 216.328c-2.91602 36.6992 -8.62402 73.5938 -15.7666 109.706c-0.669922 3.37891 -3.44434 12.6025 -6.08203 22.1465c-0.367188 -0.62207 -0.75293 -1.25684 -1.06738 -1.84961
c-61.0791 -114.258 -97.4814 -254.681 -216.374 -326.389c-61.3994 -37.0303 -146.397 -24.9551 -176.054 46.457c-27.084 65.2109 3.44434 149.747 39.5146 205.729c36.6455 56.877 85.0576 102.687 143.683 136.374c47.2559 27.1553 125.467 59.1826 173.435 18.6309
c16.4141 -13.8711 -11.666 -32.0156 -23.6875 -33.3672c-65.1104 -7.33301 -124.127 -58.1221 -160.63 -110.375z" />
    <glyph glyph-name="colon" unicode=":" horiz-adv-x="175" 
d="M83.4346 365.319c-13.6875 -2.24707 -30.6924 2.30566 -32.6309 18.3525c-2.67383 22.0811 1.07227 50.0244 15.2334 67.7539c9.06934 11.3574 34.0312 20.2432 46.1123 8.03809c14.7598 -14.9141 11.8369 -45.667 7.87109 -64.416
c-3.4502 -16.3018 -21.3457 -27.2266 -36.5859 -29.7285zM122.72 -30.4707c8.31641 -19.2002 -11.1318 -36.7695 -27.125 -42.7627c-14.0664 -5.26953 -42.4658 -4.96094 -43.2305 16.4443c-0.581055 16.2656 -0.972656 32.4424 4.84277 47.8604
c6.53223 17.3027 19.1348 28.6484 38.1631 30.4619c10.1064 0.959961 19.7031 -5.11621 19.2285 -15.7031c-0.160156 -3.50293 -1.5 -6.70996 -3.45605 -9.60254c1.53516 -2.78613 3.35547 -5.64355 4.1377 -7.88379c2.23438 -6.37207 4.75391 -12.6201 7.43945 -18.8145z
" />
    <glyph glyph-name="semicolon" unicode=";" horiz-adv-x="209" 
d="M78.1016 395.824c-5.70801 2.69727 -13.2549 10.0078 -12.6855 17.1807c1.55273 19.5615 2.1748 39.4014 9.05664 57.8125c6.8584 18.3643 35.7031 32.7334 49.5439 13.3848c3.68066 -5.14551 6.27734 -8.69043 7.88965 -14.9619
c0.936523 -3.62793 1.77832 -7.28516 2.60254 -10.9365c1.94434 -8.64258 3.19531 -17.0186 3.80566 -25.8691c1.32227 -19.1348 -17.9248 -32.9824 -34.1016 -37.8135c-7.82422 -2.33594 -18.5713 -2.35352 -26.1113 1.20312zM137.307 62.4316
c28.6133 -60.3213 27.4805 -125.33 5.57129 -188.733c-7.91992 -22.9229 -30.2852 -39.6924 -54.8857 -40.6826c-19.1699 -0.770508 -43.8945 12.1338 -36.7275 35.1396c18.5361 59.5088 30.4092 121.271 41.8379 182.338c2.95215 15.7793 35.5137 30.249 44.2041 11.9385z
" />
    <glyph glyph-name="less" unicode="&#x3c;" horiz-adv-x="473" 
d="M409.802 362.931c15.6787 -2.08691 16.7637 -18.2881 8.00293 -28.4482c-32.4844 -37.6709 -87.5596 -59.4199 -131.894 -79.5146c-19.6094 -8.8916 -39.2305 -17.7539 -58.8457 -26.6221c9.53809 -1.33398 19.0762 -2.67383 28.6084 -4.01367
c36.7168 -5.15137 74.1807 -8.68457 110.471 -16.29c28.0088 -5.86816 41.5771 -30.4209 27.5996 -56.5859c-15.2578 -28.5596 -48.9863 -41.1201 -79.7041 -38.873c-62.2236 4.55273 -125.775 14.9912 -187.371 25.0146c-25.958 4.22656 -56.3555 11.7256 -70.541 36.498
c-16.3428 28.5361 2.76855 57.0781 24.8496 75.4961c46.7168 38.9629 111.697 57.6416 168.183 77.2324c49.1289 17.042 107.63 43.166 160.642 36.1064z" />
    <glyph glyph-name="equal" unicode="=" horiz-adv-x="449" 
d="M174.612 273.694c-36.041 -0.681641 -87.7598 -12.0859 -118.81 9.95898c-15.833 11.2451 4.75977 31.2041 14.0127 36.4736c38.3291 21.8203 90.7715 26.5508 134.08 29.2715c46.0527 2.89258 95.7568 5.18652 141.146 -4.33984
c56.1592 -11.7842 8.79688 -75.1104 -29.4727 -75.2764c-47.0664 -0.201172 -93.7832 4.80176 -140.956 3.91211zM362.037 215.218c20.5039 -0.509766 41.6816 -10.4688 36.4951 -34.9092c-5.09766 -23.9834 -32.1582 -38.1211 -54.5234 -40.4092
c-48.0977 -4.91992 -97.1855 -4.08398 -145.497 -4.16113c-24.3867 -0.0351562 -48.7139 0.0419922 -73.0889 0.545898c-10.2197 0.213867 -20.4863 -0.0947266 -30.6758 0.699219c-2.81543 0.219727 -22.1699 0.498047 -10.9482 2.34766
c-15.3174 -2.53125 -35.1338 4.87207 -25.0918 23.8945c21.4053 40.5459 88.2529 39.2539 127.607 42.2949c58.2109 4.49902 117.299 11.1436 175.723 9.69727z" />
    <glyph glyph-name="greater" unicode="&#x3e;" horiz-adv-x="473" 
d="M409.27 272.337c46.9717 -53.9482 -40.6514 -100.279 -79.0039 -120.611c-54.9863 -29.165 -112.983 -53.0186 -171.39 -74.3047c-22.9404 -8.36426 -54.8613 -0.308594 -62.4189 24.4639c-7.74121 25.377 16.6396 53.2139 38.8271 62.3311
c35.584 14.6182 71.8623 27.458 107.731 41.3525c18.7969 7.2793 37.2852 15.2109 55.8867 22.959c3.84082 1.60059 7.70605 3.1416 11.5654 4.68262c-26.4971 18.8086 -72.8701 24.3389 -97.2334 28.334c-26.4551 4.33887 -53.0117 7.76465 -79.5029 11.7959
c-23.3496 3.55078 -47.0898 13.2549 -70.4336 14.4346c-28.75 1.45801 -4.87891 39.0811 15.2637 38.9863c33.8115 -0.160156 67.3213 9.24707 101.726 8.7373c29.3301 -0.438477 58.5654 -1.95605 87.6348 -5.92188c48.9453 -6.68066 107.162 -17.9854 141.348 -57.2393z
" />
    <glyph glyph-name="question" unicode="?" horiz-adv-x="462" 
d="M342.706 643.983c90.499 -50.8721 72.7363 -161.142 56.0264 -247.775c-18.874 -97.832 -51.5957 -192.676 -71.6318 -290.389c-12.0752 -58.8623 -138.188 -84.7012 -127.317 -7.69922c10.6045 75.1162 37.9316 146.635 61.21 218.449
c21.4229 66.1006 50.2969 140.63 51.085 210.915c0.882812 78.8633 -83.8369 92.5684 -140.423 58.2051c-52.1875 -31.6953 -104.305 -119.379 -41.7969 -166.99c20.4922 -15.6074 -21.3457 -42.0625 -39.3545 -29.7324c-73.6289 50.416 -33.6641 150.855 15.667 202.854
c58.4951 61.6543 157.992 96.3135 236.535 52.1631zM261.807 -4.92871c9.8457 1.67773 25.0469 -0.178711 29.6055 -11.0977c9.1582 -21.9326 3.17676 -49.6689 0.936523 -72.5977c-1.99219 -20.3555 -29.8057 -33.248 -46.9131 -34.7715
c-19.2002 -1.70703 -33.6641 10.8242 -31.3936 30.0361c2.6377 22.2881 4.0957 46.8828 15.3105 66.8242c6.62695 11.79 19.4014 19.3896 32.4541 21.6064z" />
    <glyph glyph-name="at" unicode="@" horiz-adv-x="889" 
d="M624.304 716.913c169.783 -57.8965 253.466 -247.751 197.17 -414.973c-29.668 -88.1104 -92.4844 -181.556 -186.534 -208.018c-50.0127 -14.0723 -104.999 -0.266602 -140.376 38.3232c-6.90039 7.52832 -12.7158 15.4414 -17.8252 23.6221
c-27.8545 -29.6748 -61.3467 -52.6211 -100.037 -60.7539c-42.709 -8.98047 -84.9082 6.11133 -108.602 43.3076c-22.2705 34.9678 -17.2559 80.9141 -6.9834 118.982c21.0381 77.9326 71.1992 154.087 148.438 184.953c57.9434 23.1543 147.832 7.41016 152.479 -67.5879
c1.13184 -18.2217 -32.1523 -38.2041 -45.7568 -22.3174c-20.8955 24.4102 -56.1895 37.8428 -83.3975 15.8926c-27.1377 -21.8975 -43.3682 -61.2344 -51.4473 -94.0801c-4.77148 -19.3955 -10.5332 -45.5967 -3.25977 -64.998
c0.219727 -0.575195 1.63086 -2.96973 3.33203 -5.68457c9.77441 10.8242 21.8496 24.1797 23.7705 26.9775c13.3135 19.4072 23.5391 40.9307 32.3828 62.6504c14.2266 34.9199 96.8594 65.2109 115.698 19.5908c14.2559 -34.5117 26.3066 -79.96 55.0625 -105.698
c6.81738 -6.09961 20.2021 -8.82031 18.2041 -11.6777c7.68262 4.59375 14.4463 13.7939 20.5879 21.0967c43.7109 51.9863 61.7197 123.754 56.5273 190.654c-9.11719 117.352 -109.433 226.352 -230.613 231.165c-131.774 5.23438 -236.565 -121.791 -285.879 -230.156
c-59.3662 -130.452 -62.3652 -297.751 25.0693 -416.745c40.9014 -55.6621 104.571 -103.096 175.212 -108.52c75.6562 -5.81543 145.598 38.5 202.255 83.5742c14.9912 11.9326 45.8984 20.1426 61.5117 4.35059c16.0879 -16.2715 3.61035 -38.8975 -11.3867 -50.7354
c-85.0459 -67.126 -189.463 -119.734 -300.757 -106.539c-103.244 12.2412 -190.928 84.7969 -239.375 174.146c-89.5508 165.165 -50.1074 380.633 53.4268 529.864c105.407 151.929 283.169 263.418 471.103 199.333z" />
    <glyph glyph-name="A" unicode="A" horiz-adv-x="892" 
d="M117.578 -37.415c14.7246 30.2793 28.584 60.9463 42.6924 91.5156c28.3525 61.4648 56.3848 123.066 84.5293 184.62c-70.4277 -14.3984 -146.327 -17.3506 -188.047 43.0234c-12.7031 18.3818 30.1367 40.0537 43.3672 21.1562
c36.8174 -52.585 112.468 -32.7568 164.608 -21.4824c48.9453 102.781 105.544 202.516 170.903 295.605c35.0859 49.9648 71.1982 104.696 123.221 138.585c33.5039 21.8262 81.5781 42.0576 121.336 25.626c30.3975 -12.5605 45.8037 -40.1719 52.9346 -70.6943
c14.8311 -63.457 11.7607 -133.221 12.3418 -197.993c0.658203 -73.2607 1.31055 -146.463 4.74316 -219.665c5.70215 -121.709 15.6074 -250.14 86.6338 -353.342c18.1562 -26.373 -14.5234 -60.4639 -34.3047 -72.9238
c-26.0352 -16.4023 -62.0225 -21.874 -87.5771 -1.73145c-109.593 86.3672 -115.308 259.345 -119.605 386.721c-1.19727 35.46 -1.13184 70.9668 -0.568359 106.474c-36.2842 -2.73828 -73.5752 -12.0801 -105.069 -18.873
c-43.5156 -9.38379 -86.5215 -20.8662 -129.628 -31.9277c-0.420898 -0.723633 -0.835938 -1.44727 -1.25684 -2.1709c-43.0596 -74.5352 -87.1504 -148.893 -132.812 -221.863c-23.5098 -37.5703 -48.6436 -74.0498 -73.2441 -110.902
c-20.54 -30.7773 -38.1104 -63.6523 -68.3477 -86.1367c-20.8652 -15.5127 -49.2354 3.71094 -25.3105 23.4268c27.2383 22.4424 43.3262 61.8262 58.46 92.9531zM491.146 482.796c-37.084 -55.8867 -71.6133 -113.414 -105.419 -171.34
c9.00977 2.36523 18.0195 4.74219 27.0352 7.07227c47.5586 12.2881 95.3545 23.6631 143.927 31.209c12.8809 1.99805 25.8389 3.91309 38.8145 5.3418c0.710938 29.9229 1.6123 59.8281 2.28809 89.71c0.889648 39.04 2.08691 78.0742 2.95215 117.12
c0.415039 18.6309 1.55957 37.3213 1.53027 55.9521c-0.00585938 3.94824 -0.415039 7.9668 -0.764648 11.9678c-15.7324 -14.707 -28.6133 -35.1104 -40.3203 -49.9834c-24.6953 -31.376 -47.9678 -63.7773 -70.043 -97.0498z" />
    <glyph glyph-name="A" unicode="&#xc5;" horiz-adv-x="892" 
d="M117.578 -37.415c14.7246 30.2793 28.584 60.9463 42.6924 91.5156c28.3525 61.4648 56.3848 123.066 84.5293 184.62c-70.4277 -14.3984 -146.327 -17.3506 -188.047 43.0234c-12.7031 18.3818 30.1367 40.0537 43.3672 21.1562
c36.8174 -52.585 112.468 -32.7568 164.608 -21.4824c48.9453 102.781 105.544 202.516 170.903 295.605c35.0859 49.9648 71.1982 104.696 123.221 138.585c33.5039 21.8262 81.5781 42.0576 121.336 25.626c30.3975 -12.5605 45.8037 -40.1719 52.9346 -70.6943
c14.8311 -63.457 11.7607 -133.221 12.3418 -197.993c0.658203 -73.2607 1.31055 -146.463 4.74316 -219.665c5.70215 -121.709 15.6074 -250.14 86.6338 -353.342c18.1562 -26.373 -14.5234 -60.4639 -34.3047 -72.9238
c-26.0352 -16.4023 -62.0225 -21.874 -87.5771 -1.73145c-109.593 86.3672 -115.308 259.345 -119.605 386.721c-1.19727 35.46 -1.13184 70.9668 -0.568359 106.474c-36.2842 -2.73828 -73.5752 -12.0801 -105.069 -18.873
c-43.5156 -9.38379 -86.5215 -20.8662 -129.628 -31.9277c-0.420898 -0.723633 -0.835938 -1.44727 -1.25684 -2.1709c-43.0596 -74.5352 -87.1504 -148.893 -132.812 -221.863c-23.5098 -37.5703 -48.6436 -74.0498 -73.2441 -110.902
c-20.54 -30.7773 -38.1104 -63.6523 -68.3477 -86.1367c-20.8652 -15.5127 -49.2354 3.71094 -25.3105 23.4268c27.2383 22.4424 43.3262 61.8262 58.46 92.9531zM491.146 482.796c-37.084 -55.8867 -71.6133 -113.414 -105.419 -171.34
c9.00977 2.36523 18.0195 4.74219 27.0352 7.07227c47.5586 12.2881 95.3545 23.6631 143.927 31.209c12.8809 1.99805 25.8389 3.91309 38.8145 5.3418c0.710938 29.9229 1.6123 59.8281 2.28809 89.71c0.889648 39.04 2.08691 78.0742 2.95215 117.12
c0.415039 18.6309 1.55957 37.3213 1.53027 55.9521c-0.00585938 3.94824 -0.415039 7.9668 -0.764648 11.9678c-15.7324 -14.707 -28.6133 -35.1104 -40.3203 -49.9834c-24.6953 -31.376 -47.9678 -63.7773 -70.043 -97.0498z" />
    <glyph glyph-name="A" unicode="&#xc4;" horiz-adv-x="892" 
d="M117.578 -37.415c14.7246 30.2793 28.584 60.9463 42.6924 91.5156c28.3525 61.4648 56.3848 123.066 84.5293 184.62c-70.4277 -14.3984 -146.327 -17.3506 -188.047 43.0234c-12.7031 18.3818 30.1367 40.0537 43.3672 21.1562
c36.8174 -52.585 112.468 -32.7568 164.608 -21.4824c48.9453 102.781 105.544 202.516 170.903 295.605c35.0859 49.9648 71.1982 104.696 123.221 138.585c33.5039 21.8262 81.5781 42.0576 121.336 25.626c30.3975 -12.5605 45.8037 -40.1719 52.9346 -70.6943
c14.8311 -63.457 11.7607 -133.221 12.3418 -197.993c0.658203 -73.2607 1.31055 -146.463 4.74316 -219.665c5.70215 -121.709 15.6074 -250.14 86.6338 -353.342c18.1562 -26.373 -14.5234 -60.4639 -34.3047 -72.9238
c-26.0352 -16.4023 -62.0225 -21.874 -87.5771 -1.73145c-109.593 86.3672 -115.308 259.345 -119.605 386.721c-1.19727 35.46 -1.13184 70.9668 -0.568359 106.474c-36.2842 -2.73828 -73.5752 -12.0801 -105.069 -18.873
c-43.5156 -9.38379 -86.5215 -20.8662 -129.628 -31.9277c-0.420898 -0.723633 -0.835938 -1.44727 -1.25684 -2.1709c-43.0596 -74.5352 -87.1504 -148.893 -132.812 -221.863c-23.5098 -37.5703 -48.6436 -74.0498 -73.2441 -110.902
c-20.54 -30.7773 -38.1104 -63.6523 -68.3477 -86.1367c-20.8652 -15.5127 -49.2354 3.71094 -25.3105 23.4268c27.2383 22.4424 43.3262 61.8262 58.46 92.9531zM491.146 482.796c-37.084 -55.8867 -71.6133 -113.414 -105.419 -171.34
c9.00977 2.36523 18.0195 4.74219 27.0352 7.07227c47.5586 12.2881 95.3545 23.6631 143.927 31.209c12.8809 1.99805 25.8389 3.91309 38.8145 5.3418c0.710938 29.9229 1.6123 59.8281 2.28809 89.71c0.889648 39.04 2.08691 78.0742 2.95215 117.12
c0.415039 18.6309 1.55957 37.3213 1.53027 55.9521c-0.00585938 3.94824 -0.415039 7.9668 -0.764648 11.9678c-15.7324 -14.707 -28.6133 -35.1104 -40.3203 -49.9834c-24.6953 -31.376 -47.9678 -63.7773 -70.043 -97.0498z" />
    <glyph glyph-name="A" unicode="&#xc3;" horiz-adv-x="892" 
d="M117.578 -37.415c14.7246 30.2793 28.584 60.9463 42.6924 91.5156c28.3525 61.4648 56.3848 123.066 84.5293 184.62c-70.4277 -14.3984 -146.327 -17.3506 -188.047 43.0234c-12.7031 18.3818 30.1367 40.0537 43.3672 21.1562
c36.8174 -52.585 112.468 -32.7568 164.608 -21.4824c48.9453 102.781 105.544 202.516 170.903 295.605c35.0859 49.9648 71.1982 104.696 123.221 138.585c33.5039 21.8262 81.5781 42.0576 121.336 25.626c30.3975 -12.5605 45.8037 -40.1719 52.9346 -70.6943
c14.8311 -63.457 11.7607 -133.221 12.3418 -197.993c0.658203 -73.2607 1.31055 -146.463 4.74316 -219.665c5.70215 -121.709 15.6074 -250.14 86.6338 -353.342c18.1562 -26.373 -14.5234 -60.4639 -34.3047 -72.9238
c-26.0352 -16.4023 -62.0225 -21.874 -87.5771 -1.73145c-109.593 86.3672 -115.308 259.345 -119.605 386.721c-1.19727 35.46 -1.13184 70.9668 -0.568359 106.474c-36.2842 -2.73828 -73.5752 -12.0801 -105.069 -18.873
c-43.5156 -9.38379 -86.5215 -20.8662 -129.628 -31.9277c-0.420898 -0.723633 -0.835938 -1.44727 -1.25684 -2.1709c-43.0596 -74.5352 -87.1504 -148.893 -132.812 -221.863c-23.5098 -37.5703 -48.6436 -74.0498 -73.2441 -110.902
c-20.54 -30.7773 -38.1104 -63.6523 -68.3477 -86.1367c-20.8652 -15.5127 -49.2354 3.71094 -25.3105 23.4268c27.2383 22.4424 43.3262 61.8262 58.46 92.9531zM491.146 482.796c-37.084 -55.8867 -71.6133 -113.414 -105.419 -171.34
c9.00977 2.36523 18.0195 4.74219 27.0352 7.07227c47.5586 12.2881 95.3545 23.6631 143.927 31.209c12.8809 1.99805 25.8389 3.91309 38.8145 5.3418c0.710938 29.9229 1.6123 59.8281 2.28809 89.71c0.889648 39.04 2.08691 78.0742 2.95215 117.12
c0.415039 18.6309 1.55957 37.3213 1.53027 55.9521c-0.00585938 3.94824 -0.415039 7.9668 -0.764648 11.9678c-15.7324 -14.707 -28.6133 -35.1104 -40.3203 -49.9834c-24.6953 -31.376 -47.9678 -63.7773 -70.043 -97.0498z" />
    <glyph glyph-name="A" unicode="&#xc2;" horiz-adv-x="892" 
d="M117.578 -37.415c14.7246 30.2793 28.584 60.9463 42.6924 91.5156c28.3525 61.4648 56.3848 123.066 84.5293 184.62c-70.4277 -14.3984 -146.327 -17.3506 -188.047 43.0234c-12.7031 18.3818 30.1367 40.0537 43.3672 21.1562
c36.8174 -52.585 112.468 -32.7568 164.608 -21.4824c48.9453 102.781 105.544 202.516 170.903 295.605c35.0859 49.9648 71.1982 104.696 123.221 138.585c33.5039 21.8262 81.5781 42.0576 121.336 25.626c30.3975 -12.5605 45.8037 -40.1719 52.9346 -70.6943
c14.8311 -63.457 11.7607 -133.221 12.3418 -197.993c0.658203 -73.2607 1.31055 -146.463 4.74316 -219.665c5.70215 -121.709 15.6074 -250.14 86.6338 -353.342c18.1562 -26.373 -14.5234 -60.4639 -34.3047 -72.9238
c-26.0352 -16.4023 -62.0225 -21.874 -87.5771 -1.73145c-109.593 86.3672 -115.308 259.345 -119.605 386.721c-1.19727 35.46 -1.13184 70.9668 -0.568359 106.474c-36.2842 -2.73828 -73.5752 -12.0801 -105.069 -18.873
c-43.5156 -9.38379 -86.5215 -20.8662 -129.628 -31.9277c-0.420898 -0.723633 -0.835938 -1.44727 -1.25684 -2.1709c-43.0596 -74.5352 -87.1504 -148.893 -132.812 -221.863c-23.5098 -37.5703 -48.6436 -74.0498 -73.2441 -110.902
c-20.54 -30.7773 -38.1104 -63.6523 -68.3477 -86.1367c-20.8652 -15.5127 -49.2354 3.71094 -25.3105 23.4268c27.2383 22.4424 43.3262 61.8262 58.46 92.9531zM491.146 482.796c-37.084 -55.8867 -71.6133 -113.414 -105.419 -171.34
c9.00977 2.36523 18.0195 4.74219 27.0352 7.07227c47.5586 12.2881 95.3545 23.6631 143.927 31.209c12.8809 1.99805 25.8389 3.91309 38.8145 5.3418c0.710938 29.9229 1.6123 59.8281 2.28809 89.71c0.889648 39.04 2.08691 78.0742 2.95215 117.12
c0.415039 18.6309 1.55957 37.3213 1.53027 55.9521c-0.00585938 3.94824 -0.415039 7.9668 -0.764648 11.9678c-15.7324 -14.707 -28.6133 -35.1104 -40.3203 -49.9834c-24.6953 -31.376 -47.9678 -63.7773 -70.043 -97.0498z" />
    <glyph glyph-name="A" unicode="&#xc1;" horiz-adv-x="892" 
d="M117.578 -37.415c14.7246 30.2793 28.584 60.9463 42.6924 91.5156c28.3525 61.4648 56.3848 123.066 84.5293 184.62c-70.4277 -14.3984 -146.327 -17.3506 -188.047 43.0234c-12.7031 18.3818 30.1367 40.0537 43.3672 21.1562
c36.8174 -52.585 112.468 -32.7568 164.608 -21.4824c48.9453 102.781 105.544 202.516 170.903 295.605c35.0859 49.9648 71.1982 104.696 123.221 138.585c33.5039 21.8262 81.5781 42.0576 121.336 25.626c30.3975 -12.5605 45.8037 -40.1719 52.9346 -70.6943
c14.8311 -63.457 11.7607 -133.221 12.3418 -197.993c0.658203 -73.2607 1.31055 -146.463 4.74316 -219.665c5.70215 -121.709 15.6074 -250.14 86.6338 -353.342c18.1562 -26.373 -14.5234 -60.4639 -34.3047 -72.9238
c-26.0352 -16.4023 -62.0225 -21.874 -87.5771 -1.73145c-109.593 86.3672 -115.308 259.345 -119.605 386.721c-1.19727 35.46 -1.13184 70.9668 -0.568359 106.474c-36.2842 -2.73828 -73.5752 -12.0801 -105.069 -18.873
c-43.5156 -9.38379 -86.5215 -20.8662 -129.628 -31.9277c-0.420898 -0.723633 -0.835938 -1.44727 -1.25684 -2.1709c-43.0596 -74.5352 -87.1504 -148.893 -132.812 -221.863c-23.5098 -37.5703 -48.6436 -74.0498 -73.2441 -110.902
c-20.54 -30.7773 -38.1104 -63.6523 -68.3477 -86.1367c-20.8652 -15.5127 -49.2354 3.71094 -25.3105 23.4268c27.2383 22.4424 43.3262 61.8262 58.46 92.9531zM491.146 482.796c-37.084 -55.8867 -71.6133 -113.414 -105.419 -171.34
c9.00977 2.36523 18.0195 4.74219 27.0352 7.07227c47.5586 12.2881 95.3545 23.6631 143.927 31.209c12.8809 1.99805 25.8389 3.91309 38.8145 5.3418c0.710938 29.9229 1.6123 59.8281 2.28809 89.71c0.889648 39.04 2.08691 78.0742 2.95215 117.12
c0.415039 18.6309 1.55957 37.3213 1.53027 55.9521c-0.00585938 3.94824 -0.415039 7.9668 -0.764648 11.9678c-15.7324 -14.707 -28.6133 -35.1104 -40.3203 -49.9834c-24.6953 -31.376 -47.9678 -63.7773 -70.043 -97.0498z" />
    <glyph glyph-name="B" unicode="B" horiz-adv-x="799" 
d="M99.3574 -177.636c-39.0107 55.4307 -41.2139 129.964 -46.1875 195.3c-5.16309 67.6299 -3.37891 136.552 0.799805 204.188c8.66602 140.174 25.5664 279.992 62.4131 415.72c9.30078 34.2744 46.3848 57.8965 80.6172 59.7578
c31.21 1.70117 60.3154 -17.7598 53.9551 -51.6133c-25.3408 -134.951 -50.249 -270.27 -61.6719 -407.248c-0.213867 -2.59082 -0.385742 -5.18164 -0.592773 -7.77246c27.5586 91.625 62.2061 181.727 109.083 265.284c41.0137 73.1191 94.9268 152.848 177.625 182.309
c32.8574 11.707 85.4424 15.4834 111.127 -12.8213c28.1094 -30.9727 22.9814 -76.4736 9.33594 -112.669c-10.6289 -28.2041 -27.0371 -55.2998 -47.3867 -79.9414c56.3965 -16.7041 107.049 -51.3574 143.913 -105.312
c125.354 -183.452 -35.543 -441.962 -206.518 -530.024c-84.0557 -43.2959 -229.511 -76.3486 -296.844 12.4014c-12.8281 16.9121 -20.2314 35.8096 -23.4854 55.751c-3.98926 -25.5605 -10.0537 -50.7832 -19.8701 -75.4668
c-6.7041 -16.8584 -35.7266 -22.8809 -46.3135 -7.8418zM409.393 585.342c-31.9561 -35.4951 -56.4092 -77.5537 -78.751 -119.54c-3.75195 -7.05371 -7.26758 -14.2021 -10.8477 -21.3213c7.99023 8.07324 17.3506 14.4873 26.5088 17.9375
c19.7568 7.43945 39.8877 13.041 60.0957 16.7637c25.1104 11.1201 49.2422 33.1123 67.2686 51.2627c22.0273 22.1758 74.7246 72.8643 44.3564 106.83c-27.0361 30.2432 -90.3145 -31.5889 -108.631 -51.9326zM298.856 400.644
c-54.6953 -121.875 -87.6885 -251.961 -116.681 -382.537c18.7373 47.4814 48.7021 91.8623 76.2607 122.13c14.5469 15.9697 43.8711 28.8623 64.9795 17.9609c21.1621 -10.9307 17.9912 -33.6162 5.00977 -49.9111c-42.1289 -52.8936 -115.977 -229.09 13.9238 -221.935
c78.0801 4.29785 148.016 60.9258 191.229 123.167c47.9258 69.0283 84.0322 168.805 50.1846 250.696c-32.9111 79.6279 -110.375 123.161 -192.054 104.708c-5.85059 -1.84375 -11.707 -3.47949 -17.5635 -4.89062c-27.9912 -6.74609 -64.0615 -2.51367 -73.6348 28.8564
c-1.17383 3.85938 -1.67773 7.79492 -1.6543 11.7549z" />
    <glyph glyph-name="C" unicode="C" horiz-adv-x="693" 
d="M535.628 467.416c-5.99902 -26.3369 -73.8672 -49.835 -72.2725 -11.8916c1.60645 38.2578 32.8164 123.41 -13.0703 148.141c-31.2568 16.8467 -79.0469 -31.4883 -100.149 -49.9951c-57.9199 -50.7949 -102.639 -127.844 -127.678 -202.699
c-29.2354 -87.3867 -53.0059 -197.335 -19.2891 -287.087c14.2207 -37.8486 35.8389 -70.7832 77.8604 -79.8057c44.0674 -9.46094 90.3271 7.86621 128.354 29.0996c90.375 50.457 143.595 142.58 184.935 234.17c9.23535 20.4629 53.7646 20.8955 41.8438 -6.90527
c-53.498 -124.809 -140.405 -255.735 -270.591 -310.182c-57.7656 -24.1553 -124.067 -33.6221 -184.121 -11.9854c-55.543 20.0117 -94.998 68.5781 -112.864 123.623c-41.085 126.569 -8.9209 270.146 46.4209 387.562c53.042 112.532 145.509 219.09 267.295 257.857
c58.3711 18.5771 127.163 16.2354 157.928 -44.2637c28.1211 -55.3057 8.31641 -118.904 -4.60059 -175.639z" />
    <glyph glyph-name="D" unicode="D" horiz-adv-x="814" 
d="M195.85 697.608c30.5986 1.66602 62.0762 -17.9717 54.4531 -52.0684c-23.1123 -103.256 -45.4658 -206.767 -57.6943 -311.878c22.958 59.2061 50.9844 116.006 84.79 168.467c41.8086 64.873 96.0361 133.493 169.736 163.186
c70.0479 28.2217 143.013 21.2861 205.521 -21.5479c140.393 -96.2139 124.471 -316.607 78.9512 -458.672c-50.25 -156.831 -184.745 -348.719 -373.194 -325.808c-64.417 7.83008 -123.238 59.4248 -138.295 123.023c-20.2197 85.3955 33.8711 160.969 84.6543 223.495
c16.5205 20.3438 59.3486 9.94043 38.1387 -17.4102c-42.9463 -55.3711 -107.535 -146.185 -41.2031 -209.76c41.3281 -39.6152 110.808 -28.7793 153.985 -0.930664c101.24 65.2998 151.78 203.736 169.777 317.075c16.876 106.297 18.3877 272.784 -98.3057 326.027
c-66.4268 30.3027 -119.699 -26.8291 -158.158 -75.2051c-41.0615 -51.6484 -73.5752 -112.331 -101.252 -172.053c-39.3955 -85.0098 -68.4531 -174.845 -87.5996 -266.684c-0.0537109 -3.83496 -0.142578 -7.66406 -0.183594 -11.499
c-0.652344 -59.6211 1.5293 -122.71 -11.1445 -181.217c-4.00684 -18.4941 -31.3994 -32.2227 -48.5186 -23.6631c-52.8994 26.4434 -57.9678 114.465 -63.7588 166.291c-7.00098 62.668 -7.74219 126.682 -5.23438 189.622
c5.25195 132.011 21.8555 265.077 63.1953 390.917c11.292 34.3867 45.2461 58.3291 81.3398 60.291z" />
    <glyph glyph-name="E" unicode="E" horiz-adv-x="721" 
d="M76.9092 454.292c-44.666 16.248 -25.8154 57.0498 -0.266602 82.8174c52.0459 52.502 126.019 86.5449 197.626 112.645c16.0586 15.3711 37.7246 25.0625 60.3213 26.2891c5.25195 0.28418 10.4092 -0.0654297 15.3652 -0.901367
c85.8809 26.3486 175.716 42.1338 265.332 46.3242c47.5762 2.22266 103.22 3.90039 148.069 -14.9912c48.75 -20.5342 60.0723 -67.5469 26.8291 -108.306c-26.6514 -32.6797 -100.02 -32.9824 -90.375 15.3643c-5.77344 22.8984 -53.8184 20.3965 -73.1367 21.0068
c-38.9805 1.2334 -78.4414 -1.6709 -117.167 -5.93848c-41.2871 -4.55273 -82.2656 -12.1523 -122.616 -22.2529c-17.2139 -91.5303 -40.5811 -181.62 -53.7998 -273.15c37.7061 12.1338 75.8037 23.2842 114.328 32.4541c32.7686 7.80078 75.5254 22.709 107.138 5.28711
c39.7041 -21.8857 -14.541 -59.0586 -40.3857 -57.0664c-37.5049 2.89258 -74.8789 -5.53125 -111.814 -12.0576c-25.1045 -4.42773 -50.1016 -9.43066 -74.9863 -14.9551c-4.03711 -39.9531 -5.67285 -80.2617 -3.45605 -121.187
c3.01758 -55.6738 3.58691 -128.176 47.9092 -169.143c52.9463 -48.9453 137.968 -25.4355 193.872 3.69336c21.1914 11.043 42.0039 -11.7793 19.9648 -26.6934c-65.5312 -44.3516 -155.088 -76.0176 -234.958 -66.2432c-86.4805 10.5752 -130.631 77.5 -150.934 155.906
c-15.2998 59.0996 -18.916 121.644 -16.3906 183.5c-31.5176 -9.79883 -63.124 -19.2891 -95.4307 -26.4678c-20.9551 -4.65332 -30.1904 14.416 -13.6699 28.0264c2.47168 2.03906 4.9375 4.07227 7.40918 6.10547c7.7832 6.4082 16.6455 7.19629 23.1602 4.65918
c27.1016 7.62305 53.9775 15.999 80.7354 24.7842c1.43457 18.376 3.30176 36.6279 5.49512 54.625c1.3457 10.9961 2.82129 21.9805 4.39258 32.959c-3.36719 2.68555 -5.34082 6.9834 -4.7002 13.3379c5.1748 51.127 -81.5127 57.8018 -113.86 69.5684zM150.046 511.324
c-7.74805 -5.49512 -16.5645 -11.7598 -23.3516 -18.4463c-0.302734 -0.231445 -0.605469 -0.457031 -0.908203 -0.688477c1.44629 -1.42871 3.10645 -3.4209 5.00293 -6.0293c3.1709 -1.11426 6.3418 -2.22266 9.5127 -3.33105
c9.36621 -3.65137 19.5205 -5.70215 29.04 -8.92676c13.29 -4.49902 26.0996 -9.85742 37.3857 -18.3574c0.96582 -0.723633 1.87891 -1.48242 2.80371 -2.23535c6.76953 33.96 14.7363 67.6826 23.9951 101.015c-14.4043 -6.25391 -28.6846 -12.7686 -42.7041 -19.6562
c-14.0898 -6.92383 -27.9551 -14.251 -40.7764 -23.3438z" />
    <glyph glyph-name="E" unicode="&#xcb;" horiz-adv-x="721" 
d="M76.9092 454.292c-44.666 16.248 -25.8154 57.0498 -0.266602 82.8174c52.0459 52.502 126.019 86.5449 197.626 112.645c16.0586 15.3711 37.7246 25.0625 60.3213 26.2891c5.25195 0.28418 10.4092 -0.0654297 15.3652 -0.901367
c85.8809 26.3486 175.716 42.1338 265.332 46.3242c47.5762 2.22266 103.22 3.90039 148.069 -14.9912c48.75 -20.5342 60.0723 -67.5469 26.8291 -108.306c-26.6514 -32.6797 -100.02 -32.9824 -90.375 15.3643c-5.77344 22.8984 -53.8184 20.3965 -73.1367 21.0068
c-38.9805 1.2334 -78.4414 -1.6709 -117.167 -5.93848c-41.2871 -4.55273 -82.2656 -12.1523 -122.616 -22.2529c-17.2139 -91.5303 -40.5811 -181.62 -53.7998 -273.15c37.7061 12.1338 75.8037 23.2842 114.328 32.4541c32.7686 7.80078 75.5254 22.709 107.138 5.28711
c39.7041 -21.8857 -14.541 -59.0586 -40.3857 -57.0664c-37.5049 2.89258 -74.8789 -5.53125 -111.814 -12.0576c-25.1045 -4.42773 -50.1016 -9.43066 -74.9863 -14.9551c-4.03711 -39.9531 -5.67285 -80.2617 -3.45605 -121.187
c3.01758 -55.6738 3.58691 -128.176 47.9092 -169.143c52.9463 -48.9453 137.968 -25.4355 193.872 3.69336c21.1914 11.043 42.0039 -11.7793 19.9648 -26.6934c-65.5312 -44.3516 -155.088 -76.0176 -234.958 -66.2432c-86.4805 10.5752 -130.631 77.5 -150.934 155.906
c-15.2998 59.0996 -18.916 121.644 -16.3906 183.5c-31.5176 -9.79883 -63.124 -19.2891 -95.4307 -26.4678c-20.9551 -4.65332 -30.1904 14.416 -13.6699 28.0264c2.47168 2.03906 4.9375 4.07227 7.40918 6.10547c7.7832 6.4082 16.6455 7.19629 23.1602 4.65918
c27.1016 7.62305 53.9775 15.999 80.7354 24.7842c1.43457 18.376 3.30176 36.6279 5.49512 54.625c1.3457 10.9961 2.82129 21.9805 4.39258 32.959c-3.36719 2.68555 -5.34082 6.9834 -4.7002 13.3379c5.1748 51.127 -81.5127 57.8018 -113.86 69.5684zM150.046 511.324
c-7.74805 -5.49512 -16.5645 -11.7598 -23.3516 -18.4463c-0.302734 -0.231445 -0.605469 -0.457031 -0.908203 -0.688477c1.44629 -1.42871 3.10645 -3.4209 5.00293 -6.0293c3.1709 -1.11426 6.3418 -2.22266 9.5127 -3.33105
c9.36621 -3.65137 19.5205 -5.70215 29.04 -8.92676c13.29 -4.49902 26.0996 -9.85742 37.3857 -18.3574c0.96582 -0.723633 1.87891 -1.48242 2.80371 -2.23535c6.76953 33.96 14.7363 67.6826 23.9951 101.015c-14.4043 -6.25391 -28.6846 -12.7686 -42.7041 -19.6562
c-14.0898 -6.92383 -27.9551 -14.251 -40.7764 -23.3438z" />
    <glyph glyph-name="E" unicode="&#xca;" horiz-adv-x="721" 
d="M76.9092 454.292c-44.666 16.248 -25.8154 57.0498 -0.266602 82.8174c52.0459 52.502 126.019 86.5449 197.626 112.645c16.0586 15.3711 37.7246 25.0625 60.3213 26.2891c5.25195 0.28418 10.4092 -0.0654297 15.3652 -0.901367
c85.8809 26.3486 175.716 42.1338 265.332 46.3242c47.5762 2.22266 103.22 3.90039 148.069 -14.9912c48.75 -20.5342 60.0723 -67.5469 26.8291 -108.306c-26.6514 -32.6797 -100.02 -32.9824 -90.375 15.3643c-5.77344 22.8984 -53.8184 20.3965 -73.1367 21.0068
c-38.9805 1.2334 -78.4414 -1.6709 -117.167 -5.93848c-41.2871 -4.55273 -82.2656 -12.1523 -122.616 -22.2529c-17.2139 -91.5303 -40.5811 -181.62 -53.7998 -273.15c37.7061 12.1338 75.8037 23.2842 114.328 32.4541c32.7686 7.80078 75.5254 22.709 107.138 5.28711
c39.7041 -21.8857 -14.541 -59.0586 -40.3857 -57.0664c-37.5049 2.89258 -74.8789 -5.53125 -111.814 -12.0576c-25.1045 -4.42773 -50.1016 -9.43066 -74.9863 -14.9551c-4.03711 -39.9531 -5.67285 -80.2617 -3.45605 -121.187
c3.01758 -55.6738 3.58691 -128.176 47.9092 -169.143c52.9463 -48.9453 137.968 -25.4355 193.872 3.69336c21.1914 11.043 42.0039 -11.7793 19.9648 -26.6934c-65.5312 -44.3516 -155.088 -76.0176 -234.958 -66.2432c-86.4805 10.5752 -130.631 77.5 -150.934 155.906
c-15.2998 59.0996 -18.916 121.644 -16.3906 183.5c-31.5176 -9.79883 -63.124 -19.2891 -95.4307 -26.4678c-20.9551 -4.65332 -30.1904 14.416 -13.6699 28.0264c2.47168 2.03906 4.9375 4.07227 7.40918 6.10547c7.7832 6.4082 16.6455 7.19629 23.1602 4.65918
c27.1016 7.62305 53.9775 15.999 80.7354 24.7842c1.43457 18.376 3.30176 36.6279 5.49512 54.625c1.3457 10.9961 2.82129 21.9805 4.39258 32.959c-3.36719 2.68555 -5.34082 6.9834 -4.7002 13.3379c5.1748 51.127 -81.5127 57.8018 -113.86 69.5684zM150.046 511.324
c-7.74805 -5.49512 -16.5645 -11.7598 -23.3516 -18.4463c-0.302734 -0.231445 -0.605469 -0.457031 -0.908203 -0.688477c1.44629 -1.42871 3.10645 -3.4209 5.00293 -6.0293c3.1709 -1.11426 6.3418 -2.22266 9.5127 -3.33105
c9.36621 -3.65137 19.5205 -5.70215 29.04 -8.92676c13.29 -4.49902 26.0996 -9.85742 37.3857 -18.3574c0.96582 -0.723633 1.87891 -1.48242 2.80371 -2.23535c6.76953 33.96 14.7363 67.6826 23.9951 101.015c-14.4043 -6.25391 -28.6846 -12.7686 -42.7041 -19.6562
c-14.0898 -6.92383 -27.9551 -14.251 -40.7764 -23.3438z" />
    <glyph glyph-name="E" unicode="&#xc9;" horiz-adv-x="721" 
d="M76.9092 454.292c-44.666 16.248 -25.8154 57.0498 -0.266602 82.8174c52.0459 52.502 126.019 86.5449 197.626 112.645c16.0586 15.3711 37.7246 25.0625 60.3213 26.2891c5.25195 0.28418 10.4092 -0.0654297 15.3652 -0.901367
c85.8809 26.3486 175.716 42.1338 265.332 46.3242c47.5762 2.22266 103.22 3.90039 148.069 -14.9912c48.75 -20.5342 60.0723 -67.5469 26.8291 -108.306c-26.6514 -32.6797 -100.02 -32.9824 -90.375 15.3643c-5.77344 22.8984 -53.8184 20.3965 -73.1367 21.0068
c-38.9805 1.2334 -78.4414 -1.6709 -117.167 -5.93848c-41.2871 -4.55273 -82.2656 -12.1523 -122.616 -22.2529c-17.2139 -91.5303 -40.5811 -181.62 -53.7998 -273.15c37.7061 12.1338 75.8037 23.2842 114.328 32.4541c32.7686 7.80078 75.5254 22.709 107.138 5.28711
c39.7041 -21.8857 -14.541 -59.0586 -40.3857 -57.0664c-37.5049 2.89258 -74.8789 -5.53125 -111.814 -12.0576c-25.1045 -4.42773 -50.1016 -9.43066 -74.9863 -14.9551c-4.03711 -39.9531 -5.67285 -80.2617 -3.45605 -121.187
c3.01758 -55.6738 3.58691 -128.176 47.9092 -169.143c52.9463 -48.9453 137.968 -25.4355 193.872 3.69336c21.1914 11.043 42.0039 -11.7793 19.9648 -26.6934c-65.5312 -44.3516 -155.088 -76.0176 -234.958 -66.2432c-86.4805 10.5752 -130.631 77.5 -150.934 155.906
c-15.2998 59.0996 -18.916 121.644 -16.3906 183.5c-31.5176 -9.79883 -63.124 -19.2891 -95.4307 -26.4678c-20.9551 -4.65332 -30.1904 14.416 -13.6699 28.0264c2.47168 2.03906 4.9375 4.07227 7.40918 6.10547c7.7832 6.4082 16.6455 7.19629 23.1602 4.65918
c27.1016 7.62305 53.9775 15.999 80.7354 24.7842c1.43457 18.376 3.30176 36.6279 5.49512 54.625c1.3457 10.9961 2.82129 21.9805 4.39258 32.959c-3.36719 2.68555 -5.34082 6.9834 -4.7002 13.3379c5.1748 51.127 -81.5127 57.8018 -113.86 69.5684zM150.046 511.324
c-7.74805 -5.49512 -16.5645 -11.7598 -23.3516 -18.4463c-0.302734 -0.231445 -0.605469 -0.457031 -0.908203 -0.688477c1.44629 -1.42871 3.10645 -3.4209 5.00293 -6.0293c3.1709 -1.11426 6.3418 -2.22266 9.5127 -3.33105
c9.36621 -3.65137 19.5205 -5.70215 29.04 -8.92676c13.29 -4.49902 26.0996 -9.85742 37.3857 -18.3574c0.96582 -0.723633 1.87891 -1.48242 2.80371 -2.23535c6.76953 33.96 14.7363 67.6826 23.9951 101.015c-14.4043 -6.25391 -28.6846 -12.7686 -42.7041 -19.6562
c-14.0898 -6.92383 -27.9551 -14.251 -40.7764 -23.3438z" />
    <glyph glyph-name="F" unicode="F" horiz-adv-x="656" 
d="M843.901 663.316c20.6523 -42.3418 -3.40234 -85.5361 -33.4678 -115.395c-20.9551 -20.8066 -82.4795 -25.7744 -63.1436 18.8438c8.15039 18.8027 23.9297 42.0693 9.86328 61.459c-11.0732 15.2637 -33.2012 22.75 -50.3379 28.0312
c-47.6885 14.707 -98.7441 15.0801 -147.921 9.59082c-35.6973 -3.98926 -71.2402 -11.0371 -106.22 -20.5752c-19.5967 -116.438 -35.9814 -233.34 -42.8574 -351.207c48.4297 10.3916 97.4756 18.2344 147.02 23.3975c32.9463 3.43262 15.4775 -36.9238 -9.40137 -39.2715
c-46.9121 -4.42773 -93.4512 -11.3984 -139.45 -20.8232c-0.0888672 -2.16406 -0.243164 -4.32129 -0.326172 -6.48535c-2.6084 -69.1826 -3.7168 -138.49 -2.53711 -207.715c1.02539 -60.1309 5.28125 -122.912 -1.96875 -182.688
c-2.41895 -19.9287 -29.71 -34.7012 -47.6357 -35.3057c-37.8486 -1.26855 -51.2451 21.5889 -59.9053 54.541c-9.14062 34.7607 -15.0918 70.0723 -20.0771 105.656c-9.95312 71.0615 -13.3145 143.795 -12.8457 215.491
c0.0351562 5.97559 0.129883 11.957 0.207031 17.9385c-30.3916 -10.0059 -60.4395 -21.1445 -90.0898 -33.4209c-25.8984 -10.7178 -40.4395 18.002 -14.2148 29.1406c34.5352 14.665 69.5566 27.8545 104.987 39.6387c0.646484 24.2861 1.67773 48.5781 3.05273 72.8584
c-13.6045 15.6787 -29.7275 28.8027 -47.7832 37.1553c-43.1719 19.9707 -94.6777 20.8779 -136.083 44.2568c-98.5967 55.6738 52.2646 157.412 99.5918 186.672c44.873 27.7422 91.791 51.9805 140.269 72.5615c22.5547 26.7812 66.6035 41.8613 97.6357 35.6436
c10.0537 3.07617 20.1309 6.06348 30.2852 8.81348c94.2988 25.5127 198.047 40.9785 293.904 14.6885c37.0957 -10.1719 81.2871 -26.2539 99.4502 -63.4922zM274.013 421.773c5.53613 55.1338 13.2959 110.019 23.6631 164.37
c-4.59961 -2.24707 -9.1875 -4.51758 -13.7402 -6.8291c-41.5234 -21.1143 -83.1895 -44.7363 -119.177 -74.5469c-6.27734 -5.2041 -25.8506 -18.5596 -27.374 -26.8174c-1.48828 -8.06152 -3.32617 -5.95703 6.4668 -11.6895
c17.3623 -10.166 40.3506 -13.2539 59.5566 -18.5713c24.3213 -6.74023 48.7373 -14.1201 70.6045 -25.916z" />
    <glyph glyph-name="G" unicode="G" horiz-adv-x="725" 
d="M380.678 566.984c-51.4707 -37.6943 -89.6426 -86.0693 -119.809 -141.992c-54.2393 -100.564 -93.3799 -237.78 -55.9639 -350.229c7.73535 -23.249 22.1396 -43.4033 43.8711 -55.5488c24.8076 -13.8711 54.3105 2.96973 74.5244 17.8662
c47.9551 35.3477 84.0137 88.2178 115.786 137.69c26.165 40.7412 50.9844 82.3477 78.5488 122.141c-3.1709 -0.598633 -6.33594 -1.19727 -9.50684 -1.7959c-24.0488 -4.54688 -48.1035 -9.05176 -72.1406 -13.6396c-8.94531 -1.70703 -17.9434 -3.24805 -26.752 -5.60156
c-5.25781 -1.40527 -13.4736 -5.99902 -18.8916 -7.14941c3.79395 -11.6357 -15.8389 -30.6816 -31.8203 -28.2217c-23.5156 3.61621 -22.6084 24.9326 -9.5498 40.2266c16.9648 19.8701 45.5488 28.5664 69.9707 34.1084c44.6299 10.1309 89.5566 19.165 134.507 28.0625
c11.3994 10.8418 25.1641 18.832 41.708 17.0117c6.52051 -0.716797 12.0693 -2.61328 16.7998 -5.37598c12.3828 2.47168 24.7715 4.91992 37.1367 7.45117c34.7422 7.11328 33.0234 -33.9658 3.30762 -39.585c-6.29492 -1.18555 -12.5898 -2.37695 -18.8848 -3.56836
c0.0947266 -0.544922 0.207031 -1.08398 0.290039 -1.63574c21.002 -137.334 8.50586 -277.442 21.1914 -415.648c5.9873 -65.2227 -127.316 -111.293 -138.152 -36.8223c-11.5889 79.6455 -3.46191 158.484 6.69238 237.898
c5.19238 40.6055 12.0566 81.2461 20.4678 121.317c3.58008 17.0605 7.33789 34.0791 10.7461 51.1807c-7.24414 -10.9961 -14.334 -22.0986 -21.2871 -33.2783c-17.2139 -27.6826 -33.7939 -55.7627 -51.2451 -83.2969
c-32.1758 -50.7656 -66.7227 -100.914 -111.192 -141.774c-41.3584 -37.9971 -88.3711 -65.1104 -144.59 -73.249c-62.8105 -9.09277 -112.592 18.0205 -145.87 70.6113c-32.4072 51.2217 -33.8535 119.983 -27.7119 178.324c6.56836 62.3662 24.9033 122.474 48.1582 180.5
c44.3633 110.707 118.981 209.553 221.828 271.753c50.0957 30.2969 104.192 50.374 162.782 55.7383c26.6279 2.43652 59.0947 3.88281 81.1279 -13.8115c16.0762 -12.9111 20.1904 -36.0117 20.8662 -56.0889c0.770508 -22.9111 -41.5537 -38.5781 -48.2754 -12.8691
c-5.65527 21.6367 -72.2178 -4.20801 -85.2939 -9.91016c-25.6494 -11.1797 -50.7891 -24.25 -73.374 -40.7881z" />
    <glyph glyph-name="H" unicode="H" horiz-adv-x="926" 
d="M802.227 288.866c-3.79395 -68.5547 -4.39844 -136.898 -5.60156 -205.5c-1.02539 -58.5244 10.2021 -134.488 -19.3828 -186.967c-14.665 -26.0107 -49.7871 -29.4668 -69.9707 -9.94629c-24.1553 23.3613 -28.5117 74.8262 -32.5244 107.025
c-9.30664 74.6543 -11.79 149.563 -11.209 224.751c0.254883 33.4922 1.2334 67.2568 2.92285 101.122c-27.7236 -3.60449 -55.2578 -8.50684 -82.6084 -14.417c-75.5312 -16.3193 -149.474 -38.9512 -224.104 -58.8154
c-1.08496 -42.6797 -1.16211 -85.3955 -0.208008 -128.046c0.681641 -30.5576 2.14551 -61.21 2.44238 -91.7617c0.27832 -28.9688 2.7207 -60.208 -10.9248 -86.2666l-0.427734 0.28418c-9.92285 -16.918 -36.0996 -31.1865 -52.8574 -20.499
c-47.1611 30.0713 -56.6748 118.929 -63.5986 170.565c-5.48926 40.9551 -8.37598 81.9688 -9.40137 123.107c-32.6621 -5.98145 -65.4658 -9.78711 -97.6533 -9.30664c-24.4639 0.361328 -61.5 4.2793 -73.6104 29.9229c-10.4746 22.1758 4.03613 42.8398 23.2363 53.0479
c25.8389 13.7344 38.5303 -15.2227 14.416 -29.5498c-1.35156 -0.806641 31.3818 -13.125 31.5186 -13.1484c7.78906 -1.26855 15.7383 -1.51172 23.6162 -1.29785c16.9648 0.461914 34.0068 2.89258 50.7705 5.35254c9.11133 1.33398 18.1924 2.85742 27.2559 4.48145
c0.0234375 7.35645 0.0888672 14.7188 0.219727 22.0869c2.25879 129.652 15.8096 259.678 38.1631 387.355c11.3281 64.707 147.69 91.998 138.206 8.35742c-13.7764 -121.489 -32.8164 -242.451 -38.9873 -364.711
c-0.361328 -7.04785 -0.568359 -14.1074 -0.858398 -21.1611c42.1348 11.4346 84.0615 23.6816 126.196 35.1162c59.7695 16.2246 120.138 30.6172 181.52 39.1592c7.41016 109.136 23.0361 218.669 49.9541 323.175c15.4658 60.0479 147.163 89.6982 133.968 8.10254
c-17.4814 -108.087 -34.6484 -215.361 -44.6016 -324.035c20.498 -1.96777 40.3623 -5.95117 58.5781 -12.9873c14.25 -5.50684 10.8828 -22.3418 3.16504 -31.542c-9.91699 -11.8203 -26.7402 -16.0293 -41.0615 -11.3525
c-8.38184 2.73828 -16.5381 4.91406 -24.624 6.81055c-0.658203 -9.50195 -1.40527 -18.9863 -1.93262 -28.5127z" />
    <glyph glyph-name="I" unicode="I" horiz-adv-x="456" 
d="M416.862 715.25c-20.457 4.59961 -40.9512 5.81641 -61.4141 4.90332c0.189453 -3.64551 0.148438 -7.48633 -0.337891 -11.6836c-14.6592 -126.534 -31.2686 -252.47 -34.084 -380.023c-1.44629 -65.5254 -1.09668 -131.354 1.42285 -196.844
c2.20508 -57.2324 7.18457 -115.953 -0.189453 -173.049c16.4551 3.99512 32.9229 7.52832 49.3486 10.4385c37.9316 6.72754 35.1816 -34.5293 3.58691 -42.9111c-45.1758 -11.9863 -91.1572 -19.9766 -136.202 -33.1123
c-44.7607 -13.0527 -89.1006 -27.8125 -132.983 -43.5625c-24.665 -8.85059 -29.6025 22.4424 -8.5 31.2803c42.4961 17.7949 86.7588 35.3525 131.769 50.5869c-25.9043 53.9131 -32.9639 118.324 -39.4248 176.688c-7.14844 64.5771 -10.7646 129.083 -11.0254 194.057
c-0.527344 130.393 7.41602 262.735 36.3193 390.152c-17.6709 -4.94922 -35.2764 -10.1357 -52.7158 -15.8496c-13.6572 -4.47559 -27.2197 -9.22949 -40.7646 -14.0254c-6.75781 -2.34766 -13.498 -4.75977 -20.2197 -7.22559
c-3.1123 -1.28613 -5.63184 -2.31152 -7.77148 -3.17676c-8.06738 -16.0107 -40.208 -23.918 -43.3672 -3.1709c-4.08398 26.8057 33.5156 36.9307 51.9268 44.2393c35.5371 14.1084 71.8857 26.1895 108.644 36.6875c11.3457 3.24219 22.8574 6.48438 34.4756 9.61426
c24.665 18.0498 59.3779 26.2061 83.2549 17.9902c36.8057 5.28711 73.8896 6.14062 110.186 -1.81445c31.8086 -6.97656 1.69531 -45.501 -21.9326 -40.1895z" />
    <glyph glyph-name="I" unicode="&#xcf;" horiz-adv-x="456" 
d="M416.862 715.25c-20.457 4.59961 -40.9512 5.81641 -61.4141 4.90332c0.189453 -3.64551 0.148438 -7.48633 -0.337891 -11.6836c-14.6592 -126.534 -31.2686 -252.47 -34.084 -380.023c-1.44629 -65.5254 -1.09668 -131.354 1.42285 -196.844
c2.20508 -57.2324 7.18457 -115.953 -0.189453 -173.049c16.4551 3.99512 32.9229 7.52832 49.3486 10.4385c37.9316 6.72754 35.1816 -34.5293 3.58691 -42.9111c-45.1758 -11.9863 -91.1572 -19.9766 -136.202 -33.1123
c-44.7607 -13.0527 -89.1006 -27.8125 -132.983 -43.5625c-24.665 -8.85059 -29.6025 22.4424 -8.5 31.2803c42.4961 17.7949 86.7588 35.3525 131.769 50.5869c-25.9043 53.9131 -32.9639 118.324 -39.4248 176.688c-7.14844 64.5771 -10.7646 129.083 -11.0254 194.057
c-0.527344 130.393 7.41602 262.735 36.3193 390.152c-17.6709 -4.94922 -35.2764 -10.1357 -52.7158 -15.8496c-13.6572 -4.47559 -27.2197 -9.22949 -40.7646 -14.0254c-6.75781 -2.34766 -13.498 -4.75977 -20.2197 -7.22559
c-3.1123 -1.28613 -5.63184 -2.31152 -7.77148 -3.17676c-8.06738 -16.0107 -40.208 -23.918 -43.3672 -3.1709c-4.08398 26.8057 33.5156 36.9307 51.9268 44.2393c35.5371 14.1084 71.8857 26.1895 108.644 36.6875c11.3457 3.24219 22.8574 6.48438 34.4756 9.61426
c24.665 18.0498 59.3779 26.2061 83.2549 17.9902c36.8057 5.28711 73.8896 6.14062 110.186 -1.81445c31.8086 -6.97656 1.69531 -45.501 -21.9326 -40.1895z" />
    <glyph glyph-name="I" unicode="&#xce;" horiz-adv-x="456" 
d="M416.862 715.25c-20.457 4.59961 -40.9512 5.81641 -61.4141 4.90332c0.189453 -3.64551 0.148438 -7.48633 -0.337891 -11.6836c-14.6592 -126.534 -31.2686 -252.47 -34.084 -380.023c-1.44629 -65.5254 -1.09668 -131.354 1.42285 -196.844
c2.20508 -57.2324 7.18457 -115.953 -0.189453 -173.049c16.4551 3.99512 32.9229 7.52832 49.3486 10.4385c37.9316 6.72754 35.1816 -34.5293 3.58691 -42.9111c-45.1758 -11.9863 -91.1572 -19.9766 -136.202 -33.1123
c-44.7607 -13.0527 -89.1006 -27.8125 -132.983 -43.5625c-24.665 -8.85059 -29.6025 22.4424 -8.5 31.2803c42.4961 17.7949 86.7588 35.3525 131.769 50.5869c-25.9043 53.9131 -32.9639 118.324 -39.4248 176.688c-7.14844 64.5771 -10.7646 129.083 -11.0254 194.057
c-0.527344 130.393 7.41602 262.735 36.3193 390.152c-17.6709 -4.94922 -35.2764 -10.1357 -52.7158 -15.8496c-13.6572 -4.47559 -27.2197 -9.22949 -40.7646 -14.0254c-6.75781 -2.34766 -13.498 -4.75977 -20.2197 -7.22559
c-3.1123 -1.28613 -5.63184 -2.31152 -7.77148 -3.17676c-8.06738 -16.0107 -40.208 -23.918 -43.3672 -3.1709c-4.08398 26.8057 33.5156 36.9307 51.9268 44.2393c35.5371 14.1084 71.8857 26.1895 108.644 36.6875c11.3457 3.24219 22.8574 6.48438 34.4756 9.61426
c24.665 18.0498 59.3779 26.2061 83.2549 17.9902c36.8057 5.28711 73.8896 6.14062 110.186 -1.81445c31.8086 -6.97656 1.69531 -45.501 -21.9326 -40.1895z" />
    <glyph glyph-name="I" unicode="&#xcd;" horiz-adv-x="456" 
d="M416.862 715.25c-20.457 4.59961 -40.9512 5.81641 -61.4141 4.90332c0.189453 -3.64551 0.148438 -7.48633 -0.337891 -11.6836c-14.6592 -126.534 -31.2686 -252.47 -34.084 -380.023c-1.44629 -65.5254 -1.09668 -131.354 1.42285 -196.844
c2.20508 -57.2324 7.18457 -115.953 -0.189453 -173.049c16.4551 3.99512 32.9229 7.52832 49.3486 10.4385c37.9316 6.72754 35.1816 -34.5293 3.58691 -42.9111c-45.1758 -11.9863 -91.1572 -19.9766 -136.202 -33.1123
c-44.7607 -13.0527 -89.1006 -27.8125 -132.983 -43.5625c-24.665 -8.85059 -29.6025 22.4424 -8.5 31.2803c42.4961 17.7949 86.7588 35.3525 131.769 50.5869c-25.9043 53.9131 -32.9639 118.324 -39.4248 176.688c-7.14844 64.5771 -10.7646 129.083 -11.0254 194.057
c-0.527344 130.393 7.41602 262.735 36.3193 390.152c-17.6709 -4.94922 -35.2764 -10.1357 -52.7158 -15.8496c-13.6572 -4.47559 -27.2197 -9.22949 -40.7646 -14.0254c-6.75781 -2.34766 -13.498 -4.75977 -20.2197 -7.22559
c-3.1123 -1.28613 -5.63184 -2.31152 -7.77148 -3.17676c-8.06738 -16.0107 -40.208 -23.918 -43.3672 -3.1709c-4.08398 26.8057 33.5156 36.9307 51.9268 44.2393c35.5371 14.1084 71.8857 26.1895 108.644 36.6875c11.3457 3.24219 22.8574 6.48438 34.4756 9.61426
c24.665 18.0498 59.3779 26.2061 83.2549 17.9902c36.8057 5.28711 73.8896 6.14062 110.186 -1.81445c31.8086 -6.97656 1.69531 -45.501 -21.9326 -40.1895z" />
    <glyph glyph-name="J" unicode="J" horiz-adv-x="808" 
d="M756.792 754.142c19.8164 -0.913086 39.7227 -3.46387 53.0898 -19.5576c17.3213 -20.8779 -26.1826 -48.9219 -40.8779 -30.8896c-16.7402 20.5342 -68.4121 11.666 -92.4609 10.6816c-17.3623 -0.705078 -34.6895 -2.00293 -51.9746 -3.69238
c4.13184 -12.8037 6.96484 -26.5322 10.6816 -38.7256c11.251 -36.8887 20.5635 -73.7529 28.1572 -111.578c15.4473 -76.9424 24.5762 -156.31 21.9561 -234.905c-4.41016 -132.331 -35.5547 -265.38 -114.329 -373.977
c-69.6982 -96.0771 -186.914 -164.709 -308.521 -139.937c-120.014 24.4463 -177.217 141.383 -143.535 255.729c16.7158 56.752 49.2354 110.47 91.9033 151.46c45.1279 43.3555 95.6914 63.6934 156.641 73.6465c22.1279 3.61035 38.6309 -15.3525 31.1504 -35.7676
c-8.40527 -22.9404 -34.8486 -33.373 -57.5049 -31.5596c-42.4424 3.39062 -84.6836 -47.6113 -104.446 -79.1709c-29.0635 -46.4023 -47.8008 -101.092 -37.1074 -156.179c15.2285 -78.4297 97.5771 -124.643 172.095 -93.7061
c74.5234 30.9434 116.883 122.13 139.396 194.116c29.9531 95.7627 38.0977 196.896 35.0684 296.756c-1.70703 56.3369 -6.27734 112.911 -11.5889 169.018c-2.78613 29.3955 -4.42188 58.7559 -5.84473 88.2588c-0.776367 16.0703 -3.51465 34.873 -3.12305 52.4014
c-44.5947 -8.16797 -88.8516 -18.2988 -132.942 -28.7256c-64.1562 -15.1689 -128.135 -31.2217 -192.86 -43.8301c-47.7598 -9.30664 -101.412 -24.8906 -145.017 4.0127c-17.3857 11.5293 16.9482 39.3428 32.0342 29.5205
c29.6445 -19.3066 67.1318 -7.70605 99.3672 -1.41699c32.3418 6.31348 64.5 13.5576 96.5635 21.1631c62.4072 14.8018 124.477 31.0615 187.139 44.8203c21.4766 4.71875 43.0537 9.12891 64.7021 13.1299c11.583 13.9541 32.8457 23.8242 50.1426 19.8174
c7.39746 -1.71289 13.4199 -4.81348 18.4707 -8.8623c18.5068 2.4541 37.0605 4.5166 55.6738 5.98047c32.5312 2.56055 65.2939 3.47363 97.9023 1.96777z" />
    <glyph glyph-name="K" unicode="K" horiz-adv-x="759" 
d="M273.288 300.36c-3.46777 -1.79004 -7.5498 -3.82812 -12.0254 -6.00391c-0.498047 -5.41211 -1.07324 -10.8301 -1.5293 -16.2422c9.03418 -2.05664 18.0508 -4.18457 26.8828 -8.69531c10.3086 -5.26953 20.1367 -12.0508 29.5381 -18.7314
c19.3301 -13.7285 36.8408 -29.585 53.6758 -46.2539c32.9053 -32.5791 62.7158 -68.1396 95.8105 -100.618c57.416 -56.3496 131.596 -108.745 215.266 -112.682c47.25 -2.22266 26.5625 -46.8115 -4.74805 -57.748c-104.909 -36.6514 -215.343 -4.71289 -298.918 64.9561
c-40.208 33.5215 -74.5713 75.4482 -107.091 116.29c-6.11719 7.68848 -12.2109 15.5723 -18.2158 23.5391c-0.106445 -3.41992 -0.272461 -6.82812 -0.367188 -10.2539c-0.96582 -34.3984 -0.207031 -68.6494 0.646484 -103.03
c0.378906 -15.3828 0.367188 -30.7715 0.835938 -46.1543c0.295898 -9.65625 -3.41504 -28.0859 0.408203 -36.0469c8.625 -17.9434 -9.09277 -37.4639 -24.2676 -44.4707c-34.334 -15.8447 -63.3506 -4.35645 -74.0977 31.7021
c-10.6406 35.7207 -17.2676 72.3604 -22.0811 109.255c-9.24707 70.8896 -11.1436 141.696 -8.5 213.066c-32.9697 -1.47559 -60.9307 7.88477 -71.8975 38.6377c-10.7588 30.1777 13.3555 57.6709 41.542 65.0332c13.5986 3.55664 25.8037 2.47754 36.7998 -1.67188
c10.6221 119.67 32.1162 239.837 65.2822 354.184c9.96484 34.375 46.083 58.1279 80.9795 60.0244c31.6602 1.71875 60.1611 -17.8369 54.1982 -51.8506c-22.2412 -126.842 -51.4707 -252.013 -65.958 -380.117c41.9863 22.543 80.9971 50.4033 119.018 79.1055
c96.6104 72.9355 188.183 154.946 248.568 261.296c11.1084 19.5674 57.3926 19.4609 42.3955 -7.00098c-45.2109 -79.7578 -106.729 -147.305 -175.408 -207.501c-69.1885 -60.6465 -144.69 -119.775 -226.742 -162.017zM95.9082 311.991
c2.61426 -12.9756 17.6826 -17.4873 30.5752 -18.5547c0.225586 3.88281 0.462891 7.76562 0.711914 11.6543c-12.6201 12.2412 -35.8926 29.7754 -31.2871 6.90039z" />
    <glyph glyph-name="L" unicode="L" horiz-adv-x="355" 
d="M528.653 -86.9834c-27.6885 -6.66309 -55.0312 -14.6611 -82.4473 -22.2842c-49.3721 -13.7344 -99.5332 -26.8408 -150.873 -30.1543c-48.1572 -3.1123 -101.596 -10.3623 -145.663 14.2324s-66.1006 71.3115 -79.0469 118.088
c-30.2793 109.402 -21.2695 228.515 -10.2969 340.199c11.6299 118.419 30.9072 235.581 56.9062 351.646c13.8535 61.8623 146.973 90.2148 135.177 8.1748c-15.7979 -109.823 -37.7305 -218.687 -52.0635 -328.718c-13.5391 -103.913 -28.1631 -214.039 -17.8848 -318.824
c3.80566 -38.7793 11.085 -95.5078 42.5908 -123.339c38.6074 -34.1025 100.458 -21.4824 145.959 -11.832c48.625 10.3086 95.9639 25.7031 144.168 37.6836c38.2344 9.50195 89 26.8525 126.381 6.25977c23.9717 -13.2012 -10.6934 -41.8799 -29.4668 -33.3555
c-24.2686 11.0254 -58.875 -1.86719 -83.4395 -7.77734z" />
    <glyph glyph-name="M" unicode="M" horiz-adv-x="993" 
d="M184.556 -87.8779c-10.5811 -32.0459 -67.4521 -61.0771 -89.918 -24.3076c-17.2852 28.293 -21.9092 65.4248 -27.1318 97.8018c-5.19238 32.1875 -8.78418 65.1934 -11.3096 97.7012c-5.10352 65.7568 -6.70996 132.047 -6.05762 197.976
c1.35156 136.528 9.0166 272.564 32.2354 407.237c5.69629 33.041 44.1201 55.0508 74.002 60.1309c22.9111 3.89453 68.0098 -4.28027 66.0117 -37.1143c-7.77148 -127.672 -18.1631 -255.355 -21.4414 -383.253c2.32324 13.0176 4.65332 26.0352 7.03613 39.0352
c11.1914 60.9844 22.1816 122.229 36.3965 182.592c6.92969 29.4375 15.1934 58.4893 25.9697 86.7588c8.46484 22.2109 17.1729 45.1455 39.8643 56.4023c50.6348 25.1221 81.5186 -36.7344 91.9102 -76.3203c15.2637 -58.1396 26.2891 -117.097 43.9482 -174.661
c9.30664 -30.3438 19.4434 -60.6758 30.3086 -90.5039c4.52246 -12.4189 9.31836 -24.7842 16.0049 -36.2363c1.29785 -2.22266 3.47949 -5.03223 5.0918 -7.56348c7.15527 4.77734 16.1836 10.4502 17.2383 11.4219c8.49414 7.83008 15.5723 17.2197 22.6621 26.3486
c18.2754 23.5449 34.5 48.4062 49.8828 73.9131c30.6582 50.8428 55.8574 104.886 81.3584 158.438c22.8398 47.9619 39.2539 100.944 78.8926 138.307c13.5098 12.7324 51.0088 30.1484 62.3604 4.17871c28.5713 -65.3535 23.2363 -138.84 23.9893 -208.698
c0.776367 -71.6543 2.9873 -143.149 6.36621 -214.721c6.1709 -130.725 21.168 -279.375 97.8965 -389.513c14.8018 -21.2451 -8.55957 -52.2236 -24.7725 -64.5352c-20.5635 -15.6133 -55.1221 -26.248 -79.7461 -13.8945
c-70.1133 35.1689 -90.042 112.194 -107.209 183.084c-17.3271 71.5596 -23.9844 146.071 -26.2432 219.517c-2.38281 77.5469 3.36133 155.349 11.4648 232.439c4.12598 39.2715 8.03223 78.6436 14.4463 117.601c0.871094 5.28125 1.91406 10.6816 3.02832 16.1406
c-4.65918 -9.21777 -9.08105 -18.5127 -13.3672 -27.6768c-19.5498 -41.7852 -37.4697 -84.3047 -56.2666 -126.434c-18.3936 -41.21 -36.2891 -82.6807 -58.6426 -121.97c-21.624 -38.0029 -44.3506 -75.8574 -83.0469 -98.6797
c-44.3867 -26.1826 -102.538 -27.0713 -141.673 9.66895c-33.7344 31.6719 -45.0625 89.5566 -55.7744 132.503c-11.6895 46.8467 -19.5322 93.9365 -23.5273 142.028c-0.907227 -3.71094 -1.82031 -7.41602 -2.71582 -11.127
c-14.6416 -60.6348 -28.418 -121.478 -41.5244 -182.462c-20.8066 -96.7881 -39.3252 -193.92 -56.2129 -291.408c-0.112305 -2.76855 -0.183594 -5.54883 -0.314453 -8.31738c-1.60645 -33.8652 -0.758789 -69.3848 -11.4707 -101.827z" />
    <glyph glyph-name="N" unicode="N" horiz-adv-x="668" 
d="M485.59 -96.2012c-45.0508 106.45 -41.4111 228.268 -39.5674 341.695c1.67188 103.036 7.8252 206.197 1.74316 309.216c-1.51172 25.6729 -0.8125 52.7393 -7.81348 77.7305c-3.1416 11.2148 -13.3311 41.043 -28.5889 41.9971
c-15.5244 0.97168 -33.2842 -33.1836 -40.0361 -44.5771c-11.3105 -19.0938 -20.7354 -39.2656 -29.123 -59.7998c-39.3252 -96.3027 -64.4355 -199.292 -87.6543 -300.455c-21.8496 -95.2061 -42.1104 -190.886 -58.0742 -287.271
c0.34375 -3.76367 0.764648 -7.48633 1.375 -11.084c3.96582 -7.83008 3.19531 -17.8779 -1.4873 -25.3584c-0.27832 -0.450195 -0.5625 -0.894531 -0.84082 -1.34473c-11.1562 -17.8252 -35.4131 -32.9346 -57.3691 -27.9785
c-50.6709 11.4404 -61.8623 104.749 -69.1006 146.942c-10.9365 63.7646 -15.3467 128.993 -17.5459 193.576c-4.54688 133.368 0.461914 269.777 25.1748 401.148c12.377 65.7803 151.572 94.0791 141.229 8.54199c-14.5703 -120.493 -28.5596 -240.204 -30.2197 -361.759
c-0.207031 -15.2578 -0.301758 -30.5273 -0.290039 -45.8027c5.70801 30.0889 11.8906 60.1309 18.7549 90.1133c24.5117 107.091 52.7754 229.623 117.986 320.199c27.9971 38.8799 68.7383 69.4082 118.804 66.5332c51.2695 -2.94629 89.5391 -43.4326 107.915 -88.6553
c42.5078 -104.602 40.9785 -229.346 42.1699 -340.438c1.27441 -119.16 12.6621 -235.267 25.2285 -353.537c5.89258 -55.4482 -107.512 -109.07 -132.669 -49.6328z" />
    <glyph glyph-name="O" unicode="O" horiz-adv-x="720" 
d="M593.388 107.744c-77.6416 -138.206 -256.234 -269.835 -417.789 -181.357c-75.9229 41.583 -106.759 126.527 -111.679 209.125c-4.26758 71.584 10.6699 141.46 35.2822 207.964c-4.54688 0.0410156 -8.80859 1.26172 -12.1699 4.08301
c-59.7754 50.2314 -34.9258 149.711 -10.3311 211.626c31.1504 78.4297 89.7637 141.649 166.131 177.986c144.934 68.9697 310.632 -2.24023 381.789 -141.051c77.4814 -151.146 49.5557 -344.568 -31.2334 -488.376zM200.685 177.327
c3.79395 -57.7598 24.5283 -130.058 86.4795 -149.329c20.623 -6.41406 42.2539 -5.29395 56.4688 -2.16406c-1.50586 -0.332031 9.39551 3.01758 14.3154 4.32715c4.71875 2.38281 16.7939 7.84863 15.1221 6.96582c8.83789 4.65918 9.70312 5.80957 20.3672 14.2627
c40.6406 32.2236 72.2588 84.5537 94.9678 134.798c50.6943 112.147 67.3398 259.186 17.043 374.326c-45.6611 104.53 -156.896 183.334 -270.447 127.169c-58.3467 -28.8564 -98.0801 -88.4717 -118.43 -148.739c-14.9795 -44.3574 -32.0518 -111.441 0.27832 -151.756
c2.30566 5.25781 4.65918 10.4922 7.05957 15.6963c12.5078 27.1377 48.6611 42.959 76.9717 41.6553c23.2363 -1.07324 51.7432 -19.8467 42.1523 -47.3037c-24.5469 -70.25 -47.2861 -144.715 -42.3486 -219.908z" />
    <glyph glyph-name="O" unicode="&#xd6;" horiz-adv-x="720" 
d="M593.388 107.744c-77.6416 -138.206 -256.234 -269.835 -417.789 -181.357c-75.9229 41.583 -106.759 126.527 -111.679 209.125c-4.26758 71.584 10.6699 141.46 35.2822 207.964c-4.54688 0.0410156 -8.80859 1.26172 -12.1699 4.08301
c-59.7754 50.2314 -34.9258 149.711 -10.3311 211.626c31.1504 78.4297 89.7637 141.649 166.131 177.986c144.934 68.9697 310.632 -2.24023 381.789 -141.051c77.4814 -151.146 49.5557 -344.568 -31.2334 -488.376zM200.685 177.327
c3.79395 -57.7598 24.5283 -130.058 86.4795 -149.329c20.623 -6.41406 42.2539 -5.29395 56.4688 -2.16406c-1.50586 -0.332031 9.39551 3.01758 14.3154 4.32715c4.71875 2.38281 16.7939 7.84863 15.1221 6.96582c8.83789 4.65918 9.70312 5.80957 20.3672 14.2627
c40.6406 32.2236 72.2588 84.5537 94.9678 134.798c50.6943 112.147 67.3398 259.186 17.043 374.326c-45.6611 104.53 -156.896 183.334 -270.447 127.169c-58.3467 -28.8564 -98.0801 -88.4717 -118.43 -148.739c-14.9795 -44.3574 -32.0518 -111.441 0.27832 -151.756
c2.30566 5.25781 4.65918 10.4922 7.05957 15.6963c12.5078 27.1377 48.6611 42.959 76.9717 41.6553c23.2363 -1.07324 51.7432 -19.8467 42.1523 -47.3037c-24.5469 -70.25 -47.2861 -144.715 -42.3486 -219.908z" />
    <glyph glyph-name="O" unicode="&#xd5;" horiz-adv-x="720" 
d="M593.388 107.744c-77.6416 -138.206 -256.234 -269.835 -417.789 -181.357c-75.9229 41.583 -106.759 126.527 -111.679 209.125c-4.26758 71.584 10.6699 141.46 35.2822 207.964c-4.54688 0.0410156 -8.80859 1.26172 -12.1699 4.08301
c-59.7754 50.2314 -34.9258 149.711 -10.3311 211.626c31.1504 78.4297 89.7637 141.649 166.131 177.986c144.934 68.9697 310.632 -2.24023 381.789 -141.051c77.4814 -151.146 49.5557 -344.568 -31.2334 -488.376zM200.685 177.327
c3.79395 -57.7598 24.5283 -130.058 86.4795 -149.329c20.623 -6.41406 42.2539 -5.29395 56.4688 -2.16406c-1.50586 -0.332031 9.39551 3.01758 14.3154 4.32715c4.71875 2.38281 16.7939 7.84863 15.1221 6.96582c8.83789 4.65918 9.70312 5.80957 20.3672 14.2627
c40.6406 32.2236 72.2588 84.5537 94.9678 134.798c50.6943 112.147 67.3398 259.186 17.043 374.326c-45.6611 104.53 -156.896 183.334 -270.447 127.169c-58.3467 -28.8564 -98.0801 -88.4717 -118.43 -148.739c-14.9795 -44.3574 -32.0518 -111.441 0.27832 -151.756
c2.30566 5.25781 4.65918 10.4922 7.05957 15.6963c12.5078 27.1377 48.6611 42.959 76.9717 41.6553c23.2363 -1.07324 51.7432 -19.8467 42.1523 -47.3037c-24.5469 -70.25 -47.2861 -144.715 -42.3486 -219.908z" />
    <glyph glyph-name="O" unicode="&#xd4;" horiz-adv-x="720" 
d="M593.388 107.744c-77.6416 -138.206 -256.234 -269.835 -417.789 -181.357c-75.9229 41.583 -106.759 126.527 -111.679 209.125c-4.26758 71.584 10.6699 141.46 35.2822 207.964c-4.54688 0.0410156 -8.80859 1.26172 -12.1699 4.08301
c-59.7754 50.2314 -34.9258 149.711 -10.3311 211.626c31.1504 78.4297 89.7637 141.649 166.131 177.986c144.934 68.9697 310.632 -2.24023 381.789 -141.051c77.4814 -151.146 49.5557 -344.568 -31.2334 -488.376zM200.685 177.327
c3.79395 -57.7598 24.5283 -130.058 86.4795 -149.329c20.623 -6.41406 42.2539 -5.29395 56.4688 -2.16406c-1.50586 -0.332031 9.39551 3.01758 14.3154 4.32715c4.71875 2.38281 16.7939 7.84863 15.1221 6.96582c8.83789 4.65918 9.70312 5.80957 20.3672 14.2627
c40.6406 32.2236 72.2588 84.5537 94.9678 134.798c50.6943 112.147 67.3398 259.186 17.043 374.326c-45.6611 104.53 -156.896 183.334 -270.447 127.169c-58.3467 -28.8564 -98.0801 -88.4717 -118.43 -148.739c-14.9795 -44.3574 -32.0518 -111.441 0.27832 -151.756
c2.30566 5.25781 4.65918 10.4922 7.05957 15.6963c12.5078 27.1377 48.6611 42.959 76.9717 41.6553c23.2363 -1.07324 51.7432 -19.8467 42.1523 -47.3037c-24.5469 -70.25 -47.2861 -144.715 -42.3486 -219.908z" />
    <glyph glyph-name="O" unicode="&#xd3;" horiz-adv-x="720" 
d="M593.388 107.744c-77.6416 -138.206 -256.234 -269.835 -417.789 -181.357c-75.9229 41.583 -106.759 126.527 -111.679 209.125c-4.26758 71.584 10.6699 141.46 35.2822 207.964c-4.54688 0.0410156 -8.80859 1.26172 -12.1699 4.08301
c-59.7754 50.2314 -34.9258 149.711 -10.3311 211.626c31.1504 78.4297 89.7637 141.649 166.131 177.986c144.934 68.9697 310.632 -2.24023 381.789 -141.051c77.4814 -151.146 49.5557 -344.568 -31.2334 -488.376zM200.685 177.327
c3.79395 -57.7598 24.5283 -130.058 86.4795 -149.329c20.623 -6.41406 42.2539 -5.29395 56.4688 -2.16406c-1.50586 -0.332031 9.39551 3.01758 14.3154 4.32715c4.71875 2.38281 16.7939 7.84863 15.1221 6.96582c8.83789 4.65918 9.70312 5.80957 20.3672 14.2627
c40.6406 32.2236 72.2588 84.5537 94.9678 134.798c50.6943 112.147 67.3398 259.186 17.043 374.326c-45.6611 104.53 -156.896 183.334 -270.447 127.169c-58.3467 -28.8564 -98.0801 -88.4717 -118.43 -148.739c-14.9795 -44.3574 -32.0518 -111.441 0.27832 -151.756
c2.30566 5.25781 4.65918 10.4922 7.05957 15.6963c12.5078 27.1377 48.6611 42.959 76.9717 41.6553c23.2363 -1.07324 51.7432 -19.8467 42.1523 -47.3037c-24.5469 -70.25 -47.2861 -144.715 -42.3486 -219.908z" />
    <glyph glyph-name="P" unicode="P" horiz-adv-x="677" 
d="M94.6807 -161.026c-40.415 54.043 -37.9131 134.214 -41.3691 199.158c-3.61621 67.9502 -3.69922 136.439 -2.90527 204.467c1.62988 140.31 5.57227 287.229 33.0947 425.103c6.37207 31.9385 41.9443 53.0293 71.4229 58.0381
c23.0586 3.91797 64.4521 -4.16113 63.7109 -35.8213c-1.6416 -70.0127 -10.0586 -139.848 -15.3936 -209.646c-2.03906 -26.6807 -3.71094 -53.3672 -5.24609 -80.0596c3.2666 9.92871 6.66309 19.8164 10.2734 29.627c25.0449 67.9971 55.8096 138.099 104.191 193.014
c45.5967 51.7432 115.936 95.1816 187.003 73.1719c66.9062 -20.7236 100.374 -93.5996 116.112 -156.244c18.127 -72.1582 13.752 -150.429 -8.27539 -221.324c-20.6289 -66.4023 -53.3623 -132.87 -102.746 -182.776c-51.168 -51.708 -129.319 -99.3018 -205.129 -88.6025
c-170.263 24.0312 -35.3232 253.507 28.1279 319.714c18.9629 19.7871 66.0645 9.10547 40.9482 -18.6895c-37.8721 -41.9092 -82.6084 -107.103 -78.8916 -166.718c3.92969 -63.0303 61.2744 -42.0283 93.5986 -17.3096c75.9941 58.1094 113.066 169.48 119.189 261.598
c3.55078 53.4033 0.640625 113.102 -19.958 163.173c-7.55176 18.3525 -21.5654 46.4326 -44.2861 49.2539c-22.8398 2.83301 -47.1377 -19.7217 -61.6484 -34.458c-40.2197 -40.8486 -67.3691 -95.2178 -90.6123 -146.984
c-24.9502 -55.5723 -44.1914 -114.299 -60.3682 -172.983c-20.3975 -73.9785 -32.0693 -149.818 -40.6172 -226.079c-0.936523 -29.8281 -1.93848 -59.6387 -1.98633 -89.5029c-0.0478516 -32.3896 1.79004 -65.6084 -4.50488 -97.4814
c-5.40625 -27.374 -62.6738 -59.7988 -83.7354 -31.6357z" />
    <glyph glyph-name="Q" unicode="Q" horiz-adv-x="722" 
d="M521.465 736.418c158.075 -100.439 170.554 -297.271 131.182 -464.664c-27.0303 -114.945 -94.6602 -228.936 -195.634 -287.093c37.5342 -0.539062 64.0967 -13.9004 46.3311 -56.8584c-9.36035 -22.626 -44.6719 -35.9395 -66.9482 -28.7549
c-13.835 4.46387 -20.3145 14.5586 -20.5635 25.6846c-17.0723 -0.130859 -64.0615 -10.3262 -70.2383 -11.9209c-24.3271 -6.2832 -48.2393 -14.3096 -71.832 -22.9287c-41.4287 -15.1279 -80.9609 -35.3594 -119.479 -56.9658
c-2.83301 -5.45898 -8.3877 -10.3496 -16.4912 -12.2939c-4.07812 -0.978516 -8.16211 -1.95703 -12.2461 -2.93555c-19.6035 -4.69434 -32.6621 16.0947 -13.7529 28.1992c58.335 37.3271 120.742 71.7373 184.839 99.4316
c-85.8164 3.58594 -159.759 47.1611 -198.384 125.573c-41.2334 83.7178 -36.7227 185.509 -20.7471 275.029c0.154297 0.859375 0.40918 1.68359 0.610352 2.52539c-7.88965 14.2803 -14.1494 29.3604 -18.4229 44.8262c-23.3496 84.542 -2.66211 182.563 42.4658 256.589
c87.8496 144.098 279.968 175.094 419.312 86.5566zM533.808 330.42c20.9551 122.864 11.0488 265.391 -98.1992 343.98c-46.3076 33.3145 -108.655 51.6133 -165.194 38.7676c-59.6514 -13.5566 -98.917 -64.4756 -122.284 -117.991
c-23.8887 -54.7012 -35.6787 -133.499 -20.5098 -198.698c6.23047 2.37109 12.4785 4.12012 18.3945 5.12793c22.3955 3.80566 61.4893 -4.00684 61.1221 -34.3633c-0.302734 -24.8135 -1.77832 -49.8584 -2.4834 -74.7969
c14.0068 -6.36035 29.9707 -10.6279 48.1865 -12.2168c11.7188 -1.01953 14.5166 -12.3594 10.4795 -21.4824c-4.95605 -11.2148 -19.1768 -15.335 -30.2559 -14.7598c-9.65039 0.503906 -19.1348 1.91504 -28.3994 4.09668c1.5 -40.1484 8.13281 -79.4795 28.3701 -116.534
c27.1846 -49.7871 78.999 -77.3926 130.624 -67.0312c26.29 5.27539 40.6348 12.8037 59.3008 28.2451c17.1494 14.1855 34.417 34.8857 47.2207 55.6387c34.1553 55.3535 52.7568 118.253 63.6279 182.018z" />
    <glyph glyph-name="R" unicode="R" horiz-adv-x="705" 
d="M620.526 -26.0459c29.4785 -5.05078 42.6582 -32.3164 28.6152 -58.6357c-15.8682 -29.7041 -50.7119 -42.4189 -82.5859 -40.2793c-75.0869 5.03906 -145.734 32.4902 -207.846 74.293c-51.832 34.8789 -89.8818 78.9102 -124.506 128.555
c-12.6855 -66.124 -26.4795 -131.875 -41.791 -197.845c0.0234375 -0.213867 0.0351562 -0.451172 0.0585938 -0.658203c7.55176 -8.98047 7.74121 -22.0098 1.9502 -33.3496c-9.25879 -18.1387 -30.8066 -28.2754 -50.0664 -30.3623
c-38.8916 -4.21484 -49.1348 24.8135 -57.1846 55.999c-8.96289 34.707 -14.1611 70.4336 -19.4365 105.864c-10.5635 70.9375 -14.7188 143.262 -16.8174 214.898c-4.28613 146.374 6.39551 294.515 33.4971 438.464c11.5117 61.1621 143.464 86.4443 130.944 7.91895
c-20.2969 -127.328 -33.4385 -254.769 -36.3965 -383.727c-0.640625 -27.8779 -0.688477 -55.7676 -0.338867 -83.6514c5.85059 46.2305 13.0352 92.3486 22.2998 137.85c23.1602 113.718 55.04 246.286 135.338 334.568c36.6279 40.2734 87.292 71.9043 143.001 73.9551
c57.0898 2.10449 104.95 -36.3369 128.193 -86.5566c46.9414 -101.412 4.45117 -229.268 -51.8027 -318.202c-48.4297 -76.5752 -116.272 -143.713 -195.758 -188.651c59.793 -82.4316 163.398 -133.79 260.632 -150.447zM252.676 178.867
c0.355469 0.183594 0.740234 0.413086 1.08984 0.584961c82.0107 40.0898 153.808 99.3848 204.039 178.977c44.1504 69.9473 89.9424 174.151 50.7305 255.456c-22.7744 47.2148 -65.4189 44.4766 -101.062 12.04c-34.5469 -31.4404 -56.0703 -76.5742 -73.2783 -119.171
c-40.042 -99.1006 -60.3564 -205.64 -78.4717 -310.549c-1.00195 -5.79102 -2.0332 -11.5586 -3.04688 -17.3379z" />
    <glyph glyph-name="S" unicode="S" horiz-adv-x="666" 
d="M615.702 94.0088c-4.71289 -168.538 -152.41 -292.754 -318.269 -286.72c-73.4209 2.67383 -156.753 25.8398 -204.685 85.1943c-44.6895 55.3359 -53.9014 129.729 -29.6982 195.741c24.4639 66.7285 74.7373 127.684 140.417 156.919
c62.4434 27.7949 139.469 23.4795 187.454 -29.3545c17.2441 -18.9863 -23.6514 -45.6904 -38.8438 -29.3535c-67.043 72.0938 -167.347 25.1699 -213.091 -45.8213c-41.4766 -64.3633 -34.7305 -160.487 21.2334 -214.507
c93.0771 -89.835 284.425 -63.4268 317.964 71.1865c34.6953 139.249 -79.0225 252.777 -181.591 326.353c-57.4102 41.1797 -114.465 78.459 -156.386 136.651c-42.1699 58.5303 -50.4746 136.979 -12.501 200.542c71.2217 119.225 259.464 85.543 313.596 -31.7373
c12.6201 -27.3447 -40.5283 -58.2695 -59.1475 -36.2305c-27.4043 32.4248 -57.9854 62.7686 -100.926 72.5195c-23.8232 5.40625 -60.623 5.09766 -65.9346 -25.1572c-6.35449 -36.2188 27.9912 -73.249 50.6885 -97.458
c28.1445 -30.0127 61.2568 -55.2178 94.2334 -79.6396c62.0166 -45.9287 125.627 -86.7773 173.837 -148.219c49.8877 -63.5752 83.9482 -138.537 81.6484 -220.909z" />
    <glyph glyph-name="T" unicode="T" horiz-adv-x="670" 
d="M814.941 720.448c-59.0586 1.40527 -117.998 -4.81348 -176.256 -14.0781c-16.9648 -2.69141 -33.9004 -5.66699 -50.8125 -8.77344c2.92285 -7.29102 4.17383 -16.1172 3.18945 -26.6748c-12.1992 -130.778 -27.8369 -261.165 -35.6973 -392.334
c-4.00098 -66.6631 -8.69531 -133.392 -10.2422 -200.168c-1.53516 -66.3496 0.996094 -133.713 -4.97949 -199.802c-2.78027 -30.8184 -70.9668 -57.9854 -85.1758 -23.0059c-25.2881 62.2471 -31.7852 134.447 -35.7979 200.951
c-2.26465 37.5283 -3.46191 75.0449 -3.87695 112.573c-9.39551 14.5049 -9.78711 35.0566 -12.71 52.2061c-5.00293 29.3896 -8.93848 59.3252 -18.0195 87.8203c-19.4668 61.0859 -64.624 95.2891 -123.896 115.556c-55.2998 18.9092 -114.927 20.166 -170.357 38.459
c-41.6426 13.7461 -53.6465 47.2793 -23.5635 81.21c35.6611 40.2197 86.3848 64.2744 134.239 86.4561c56.0762 25.9873 113.593 48.8096 172.088 68.7686c119.545 40.7949 246.5 72.1289 372.347 84.4287c63.7822 6.23633 129.349 6.39062 192.729 -4.00098
c53.1006 -8.70801 98.7031 -30.9434 111.306 -86.8359c9.83398 -43.6338 -89.0059 -71.3164 -90.1377 -24.0244c-1.27441 53.1777 -108.377 50.415 -144.376 51.2686zM448.025 662.278c0.290039 1.80762 0.716797 3.57324 1.19141 5.32227
c-40.042 -9.99414 -79.8115 -21.0254 -119.195 -33.0762c-48.5068 -14.8486 -97.5469 -30.7354 -143.362 -52.6855c-22.8633 -10.9541 -44.9912 -23.3906 -64.3633 -39.8936c-5.54883 -4.71875 -22.9287 -18.1035 -21.2217 -27.0186
c1.68359 -8.77344 23.8057 -12.3652 30.5811 -14.1025c86.4502 -22.1641 190.251 -11.9209 258.225 -80.1494c12.5908 -12.6436 22.3955 -27.0303 30.2793 -42.4365c4.67676 95.1172 12.8389 190.133 27.8662 284.04z" />
    <glyph glyph-name="U" unicode="U" horiz-adv-x="821" 
d="M657.163 632.83c0.723633 9.63867 1.27246 19.3672 1.04688 29.0469c-6.98926 -14.7422 -13.2842 -29.876 -19.4316 -44.9854c-32.0098 -78.6729 -55.4893 -160.624 -78.9219 -242.16c-23.2363 -80.8369 -45.9814 -162.047 -75.1455 -241.005
c-24.8428 -67.2559 -51.4883 -146.788 -103.409 -198.484c-55.0098 -54.7666 -130.778 -63.2139 -201.567 -36.7646c-81.1982 30.3379 -113.961 113.581 -124.098 193.547c-11.6123 91.6191 -2.96973 185.675 5.18652 277.235
c4.14941 46.6396 9.81055 93.2734 15.2285 139.782c2.75 23.6514 4.49316 46.918 9.69727 70.1963c1.01367 4.55273 6.56836 54.0791 6.39062 54.002c-20.1836 -9.0166 -41.0254 11.1201 -19.1396 25.5898c29.71 19.6445 70.333 15.4893 94.1094 -11.5654
c31.376 -35.7031 34.085 -95.0752 36.918 -140.049c6.74609 -107.073 -4.1377 -214.336 2.60254 -321.521c4.26172 -67.8252 13.8887 -161.46 68.626 -210.139c55.8633 -49.6807 96.8301 66.4795 112.924 103.243c70.8311 161.792 102.219 337.183 163.761 502.3
c21.4521 57.5703 52.5732 171.958 130.678 175.136c81.8145 3.3252 80.8184 -153.144 81.7373 -205.699c1.63574 -93.8184 -2.28223 -187.602 -3.69336 -281.396c-1.42285 -94.9453 4.29785 -188.248 10.1133 -282.932c4.0957 -66.7051 -122.61 -112.414 -140.613 -37.4814
c-23.8652 99.3369 -17.9316 207.507 -9.49609 308.635c8.57715 102.811 19.7158 205.426 29.1289 308.16c2.05664 22.4717 5.67285 44.7959 7.36816 67.3096z" />
    <glyph glyph-name="U" unicode="&#xdc;" horiz-adv-x="821" 
d="M657.163 632.83c0.723633 9.63867 1.27246 19.3672 1.04688 29.0469c-6.98926 -14.7422 -13.2842 -29.876 -19.4316 -44.9854c-32.0098 -78.6729 -55.4893 -160.624 -78.9219 -242.16c-23.2363 -80.8369 -45.9814 -162.047 -75.1455 -241.005
c-24.8428 -67.2559 -51.4883 -146.788 -103.409 -198.484c-55.0098 -54.7666 -130.778 -63.2139 -201.567 -36.7646c-81.1982 30.3379 -113.961 113.581 -124.098 193.547c-11.6123 91.6191 -2.96973 185.675 5.18652 277.235
c4.14941 46.6396 9.81055 93.2734 15.2285 139.782c2.75 23.6514 4.49316 46.918 9.69727 70.1963c1.01367 4.55273 6.56836 54.0791 6.39062 54.002c-20.1836 -9.0166 -41.0254 11.1201 -19.1396 25.5898c29.71 19.6445 70.333 15.4893 94.1094 -11.5654
c31.376 -35.7031 34.085 -95.0752 36.918 -140.049c6.74609 -107.073 -4.1377 -214.336 2.60254 -321.521c4.26172 -67.8252 13.8887 -161.46 68.626 -210.139c55.8633 -49.6807 96.8301 66.4795 112.924 103.243c70.8311 161.792 102.219 337.183 163.761 502.3
c21.4521 57.5703 52.5732 171.958 130.678 175.136c81.8145 3.3252 80.8184 -153.144 81.7373 -205.699c1.63574 -93.8184 -2.28223 -187.602 -3.69336 -281.396c-1.42285 -94.9453 4.29785 -188.248 10.1133 -282.932c4.0957 -66.7051 -122.61 -112.414 -140.613 -37.4814
c-23.8652 99.3369 -17.9316 207.507 -9.49609 308.635c8.57715 102.811 19.7158 205.426 29.1289 308.16c2.05664 22.4717 5.67285 44.7959 7.36816 67.3096z" />
    <glyph glyph-name="U" unicode="&#xdb;" horiz-adv-x="821" 
d="M657.163 632.83c0.723633 9.63867 1.27246 19.3672 1.04688 29.0469c-6.98926 -14.7422 -13.2842 -29.876 -19.4316 -44.9854c-32.0098 -78.6729 -55.4893 -160.624 -78.9219 -242.16c-23.2363 -80.8369 -45.9814 -162.047 -75.1455 -241.005
c-24.8428 -67.2559 -51.4883 -146.788 -103.409 -198.484c-55.0098 -54.7666 -130.778 -63.2139 -201.567 -36.7646c-81.1982 30.3379 -113.961 113.581 -124.098 193.547c-11.6123 91.6191 -2.96973 185.675 5.18652 277.235
c4.14941 46.6396 9.81055 93.2734 15.2285 139.782c2.75 23.6514 4.49316 46.918 9.69727 70.1963c1.01367 4.55273 6.56836 54.0791 6.39062 54.002c-20.1836 -9.0166 -41.0254 11.1201 -19.1396 25.5898c29.71 19.6445 70.333 15.4893 94.1094 -11.5654
c31.376 -35.7031 34.085 -95.0752 36.918 -140.049c6.74609 -107.073 -4.1377 -214.336 2.60254 -321.521c4.26172 -67.8252 13.8887 -161.46 68.626 -210.139c55.8633 -49.6807 96.8301 66.4795 112.924 103.243c70.8311 161.792 102.219 337.183 163.761 502.3
c21.4521 57.5703 52.5732 171.958 130.678 175.136c81.8145 3.3252 80.8184 -153.144 81.7373 -205.699c1.63574 -93.8184 -2.28223 -187.602 -3.69336 -281.396c-1.42285 -94.9453 4.29785 -188.248 10.1133 -282.932c4.0957 -66.7051 -122.61 -112.414 -140.613 -37.4814
c-23.8652 99.3369 -17.9316 207.507 -9.49609 308.635c8.57715 102.811 19.7158 205.426 29.1289 308.16c2.05664 22.4717 5.67285 44.7959 7.36816 67.3096z" />
    <glyph glyph-name="U" unicode="&#xda;" horiz-adv-x="821" 
d="M657.163 632.83c0.723633 9.63867 1.27246 19.3672 1.04688 29.0469c-6.98926 -14.7422 -13.2842 -29.876 -19.4316 -44.9854c-32.0098 -78.6729 -55.4893 -160.624 -78.9219 -242.16c-23.2363 -80.8369 -45.9814 -162.047 -75.1455 -241.005
c-24.8428 -67.2559 -51.4883 -146.788 -103.409 -198.484c-55.0098 -54.7666 -130.778 -63.2139 -201.567 -36.7646c-81.1982 30.3379 -113.961 113.581 -124.098 193.547c-11.6123 91.6191 -2.96973 185.675 5.18652 277.235
c4.14941 46.6396 9.81055 93.2734 15.2285 139.782c2.75 23.6514 4.49316 46.918 9.69727 70.1963c1.01367 4.55273 6.56836 54.0791 6.39062 54.002c-20.1836 -9.0166 -41.0254 11.1201 -19.1396 25.5898c29.71 19.6445 70.333 15.4893 94.1094 -11.5654
c31.376 -35.7031 34.085 -95.0752 36.918 -140.049c6.74609 -107.073 -4.1377 -214.336 2.60254 -321.521c4.26172 -67.8252 13.8887 -161.46 68.626 -210.139c55.8633 -49.6807 96.8301 66.4795 112.924 103.243c70.8311 161.792 102.219 337.183 163.761 502.3
c21.4521 57.5703 52.5732 171.958 130.678 175.136c81.8145 3.3252 80.8184 -153.144 81.7373 -205.699c1.63574 -93.8184 -2.28223 -187.602 -3.69336 -281.396c-1.42285 -94.9453 4.29785 -188.248 10.1133 -282.932c4.0957 -66.7051 -122.61 -112.414 -140.613 -37.4814
c-23.8652 99.3369 -17.9316 207.507 -9.49609 308.635c8.57715 102.811 19.7158 205.426 29.1289 308.16c2.05664 22.4717 5.67285 44.7959 7.36816 67.3096z" />
    <glyph glyph-name="V" unicode="V" horiz-adv-x="713" 
d="M66.9248 653.405c-3.92383 13.1719 -1.98438 23.334 -12.1445 33.168c-18.5303 17.9316 21.583 42.123 38.3408 28.9697c12.2412 -9.60938 27.2324 -12.2832 38.6074 -22.4375c11.1855 -9.98242 20.4805 -23.1064 28.8975 -35.377
c18.0205 -26.2598 31.0557 -54.9678 44.0615 -83.9072c29.6035 -65.875 50.4873 -135.413 73.7236 -203.689c21.0312 -61.7793 40.8008 -123.985 64.6602 -184.763c11.7607 -29.9648 23.4326 -60.1846 36.248 -89.7168c9.96484 -22.9639 19.2236 -48.293 37.2148 -66.1475
c5.91602 -5.86816 11.4707 -7.70605 18.0449 -11.2861c0.438477 -0.237305 0.913086 -0.40332 1.39355 -0.540039c2.875 2.6377 7.39746 6.03418 7.6582 6.29492c4.10156 4.15527 7.90723 9.60254 11.1377 14.2969c15.7441 22.8633 25.3652 50.1016 35.1523 75.8691
c23.7764 62.585 41.7256 126.901 59.3906 191.413c31.2041 113.949 61.4893 231.882 116.617 337.1c25.3115 48.3115 56.3555 94.418 94.3818 133.672c27.4043 28.2871 100.506 101.738 140.156 51.3291c33.3438 -42.3955 -30.1074 -73.7002 -65.6387 -66.7412
c-3.66895 -3.07617 -7.37988 -6.09375 -10.9189 -9.3125c-11.6182 -10.5811 -22.4775 -22.0039 -32.916 -33.7354c-21.5117 -24.167 -40.9961 -49.8105 -58.2754 -77.167c-34.9268 -55.2998 -64.417 -115.977 -85.4844 -177.934
c-42.1406 -123.926 -65.5732 -253.648 -111.81 -376.3c-18.3105 -48.5723 -37.6523 -93.416 -80.1191 -125.598c-51.293 -38.874 -126.712 -29.6387 -172.035 14.9502c-44.3223 43.6045 -65.6797 111.424 -86.083 168.526
c-21.8262 61.0674 -40.4746 122.977 -56.8467 185.71c-16.5264 63.3203 -33.1357 126.931 -45.2402 191.265c-5.69043 30.2432 -10.3145 60.7588 -16.4619 90.8955c-2.91602 14.2861 -7.58105 27.333 -11.7129 41.1924z" />
    <glyph glyph-name="W" unicode="W" horiz-adv-x="980" 
d="M271.179 -31.1914c8.26953 13.2725 16.209 26.7822 23.5889 40.5645c15.9336 29.6982 28.5889 61.8271 40.6934 93.25c22.668 58.8564 45.6914 117.571 81.916 169.676c26.2002 37.6885 77.2324 59.3066 99.2715 5.81445
c21.873 -53.083 34.5352 -107.387 50.582 -162.396c14.2617 -48.8984 32.5605 -101.881 64.9561 -141.988c10.877 -13.4795 31.6182 -42.8516 51.6299 -42.46c12.4365 0.243164 24.9385 14.9795 33.4326 24.1738c83.6523 90.5166 109.064 223.915 127.399 341.741
c19.5146 125.413 39.5859 267.099 -21.9854 384.385c-14.2324 27.1074 40.374 52.1582 56.7764 27.6885c59.8115 -89.248 52.04 -212.012 48.5127 -314.882c-3.69922 -107.938 -19.2236 -220.768 -54.998 -323.045c-29.7871 -85.1699 -73.7646 -172.966 -153.214 -221.633
c-46.9062 -28.7314 -102.65 -36.6631 -153.783 -14.0664c-42.5312 18.791 -70.8955 55.7266 -91.1924 96.373c-20.5986 41.2393 -30.9189 87.0137 -35.9639 132.634c-4.97949 45.0391 -7.4043 95.1875 -0.841797 140.007c0.882812 5.99316 1.66504 11.9805 2.37598 17.9736
c-1.84961 -3.57422 -3.71094 -7.14258 -5.4834 -10.7588c-20.1426 -41.1328 -36.2012 -84.8379 -49.5146 -128.632c-22.4248 -73.7588 -35.0986 -186.955 -111.655 -225.29c-50.9727 -25.5254 -105.425 -7.32129 -134.477 40.1953
c-24.9678 40.8301 -30.9668 93.2432 -36.124 139.859c-11.7373 106.106 -9.37207 214.234 -9.33105 320.81c0.0234375 55.0098 0.853516 109.996 0.770508 165.012c-0.0351562 25.833 -0.936523 51.6484 -1.06738 77.4697
c-0.0234375 5.75586 -4.56445 50.6289 -7.97852 48.1396c-15.75 -11.4883 -49.3779 -0.362305 -29.2119 19.1875c48.6191 47.1436 123.409 18.0381 140.072 -43.7109c21.5537 -79.8887 29.2656 -164.649 35.4717 -246.885
c6.52051 -86.4922 9.49023 -173.228 17.5518 -259.601c3.65723 -39.1592 5.71387 -78.6562 12.6729 -117.418c1.59473 -8.90332 4.77246 -20.8418 9.14746 -32.1875z" />
    <glyph glyph-name="X" unicode="X" horiz-adv-x="773" 
d="M97.4775 -119.04c-24.3213 1.12012 -56.2881 21.46 -45.2266 50.7666c50.6348 134.229 121.358 259.132 204.323 375.761c-8.93945 31.1084 -17.3984 62.3535 -25.709 93.5811c-12.6025 47.3809 -25.0801 95.6094 -34.3389 143.755
c-6.06445 31.5361 -6.30762 90.3096 -40.4219 104.37c-23.8232 9.81641 7.71875 39.8408 24.957 35.2705c72.2236 -19.1406 97.4111 -88.9521 118.959 -153.055c13.1416 -39.0879 25.2754 -78.4893 37.4688 -117.879c41.8916 50.5811 87.0615 98.667 134.021 144.376
c29.1523 28.3818 59.5146 55.9463 91.293 81.3818c31.1797 24.9561 67.458 54.7139 107.174 63.8838c10.1484 2.3418 30.7002 -1.45215 25.2822 -17.1729c-11.4463 -33.2012 -42.0391 -60.0068 -65.6611 -84.9746c-26.4912 -27.9854 -53.125 -55.792 -79.1416 -84.2275
c-52.5791 -57.4697 -100.849 -118.377 -146.243 -181.632c-9.69141 -13.5098 -19.1045 -27.1787 -28.3457 -40.9492c1.36328 -3.96582 2.67969 -7.95508 4.06641 -11.915c27.25 -77.9082 54.4463 -164.472 105.17 -230.851
c36.3076 -47.5166 113.38 -103.688 174.353 -63.6816c14.8965 9.76855 36.8584 17.6582 53.2549 6.33594c15.0391 -10.3799 12.1582 -29.5029 0.901367 -41.9102c-61.874 -68.1748 -165.42 -78.335 -243.239 -31.3936c-77.8311 46.9482 -119.978 128.455 -153.677 209.831
c-5.61328 13.5508 -10.8828 27.2324 -16.0107 40.9668c-44.6836 -79.5508 -84.085 -162.071 -120.618 -245.943c-12.7324 -29.2295 -52.7148 -46.0703 -82.5908 -44.6953z" />
    <glyph glyph-name="Y" unicode="Y" horiz-adv-x="798" 
d="M119.366 213.934c-69.1592 48.7324 -72.3672 151.168 -68.1465 227.736c4.71875 85.6025 22.585 192.462 93.1611 248.574c7.91992 6.30078 31.4883 12.7861 36.5566 -1.53516c16.7285 -47.25 -3.69238 -98.1875 -7.60449 -146.742
c-4.30957 -53.5391 -2.25293 -109.053 7.73535 -161.852c4.46387 -23.5928 10.8535 -44.3994 21.6777 -65.9229c4.80762 -9.56152 9.11133 -20.5518 15.8457 -28.9756c2.70898 -3.38477 7.03613 -7.93164 11.2148 -9.50879c16.627 5.66699 34.1846 35.1221 43.6982 48.0264
c14.6123 19.8164 27.25 40.9844 40.042 61.9922c47.79 78.4541 82.6924 163.304 125.467 244.407c32.9346 62.4434 85.0391 144.881 166.795 100.34c79.8584 -43.5098 108.466 -149.125 126.131 -231.177c20.7061 -96.1777 19.7578 -198.028 8.50098 -295.314
c-10.8301 -93.6406 -41.915 -188.022 -106.871 -258.474c-64.8018 -70.291 -161.904 -120.825 -259.819 -107.073c-43.3975 6.09375 -84.9922 28.8857 -106.361 68.2109c-22.1699 40.7949 -8.35254 87.2334 12.1338 125.503c39.6562 74.0791 101.957 142.1 173.683 185.633
c31.6426 19.2002 60.582 -16.4258 29.8877 -39.9648c-34.8311 -26.7227 -69.123 -54.957 -95.3711 -90.5596c-23.5566 -31.9443 -52.9639 -82.3955 -28.8799 -121.341c44.5352 -72.0166 134.281 -5.96973 166.492 33.6992c47.5352 58.543 66.1367 137.868 77.0732 211.55
c12.8984 86.9072 15.3467 174.211 9.57324 261.806c-2.0752 31.5596 -17.7656 247.905 -74.915 225.569c-17.0957 -6.68066 -30.042 -39.7637 -38.0918 -54.6543c-7.78906 -14.4102 -15.1221 -29.0693 -22.1641 -43.8594
c-17.291 -36.2959 -31.2031 -73.9844 -45.8154 -111.406c-28.3164 -72.5264 -54.4463 -143.037 -99.7344 -207.104c-48.0918 -68.0332 -132.586 -123.47 -211.894 -67.583z" />
    <glyph glyph-name="Y" unicode="&#x178;" horiz-adv-x="798" 
d="M119.366 213.934c-69.1592 48.7324 -72.3672 151.168 -68.1465 227.736c4.71875 85.6025 22.585 192.462 93.1611 248.574c7.91992 6.30078 31.4883 12.7861 36.5566 -1.53516c16.7285 -47.25 -3.69238 -98.1875 -7.60449 -146.742
c-4.30957 -53.5391 -2.25293 -109.053 7.73535 -161.852c4.46387 -23.5928 10.8535 -44.3994 21.6777 -65.9229c4.80762 -9.56152 9.11133 -20.5518 15.8457 -28.9756c2.70898 -3.38477 7.03613 -7.93164 11.2148 -9.50879c16.627 5.66699 34.1846 35.1221 43.6982 48.0264
c14.6123 19.8164 27.25 40.9844 40.042 61.9922c47.79 78.4541 82.6924 163.304 125.467 244.407c32.9346 62.4434 85.0391 144.881 166.795 100.34c79.8584 -43.5098 108.466 -149.125 126.131 -231.177c20.7061 -96.1777 19.7578 -198.028 8.50098 -295.314
c-10.8301 -93.6406 -41.915 -188.022 -106.871 -258.474c-64.8018 -70.291 -161.904 -120.825 -259.819 -107.073c-43.3975 6.09375 -84.9922 28.8857 -106.361 68.2109c-22.1699 40.7949 -8.35254 87.2334 12.1338 125.503c39.6562 74.0791 101.957 142.1 173.683 185.633
c31.6426 19.2002 60.582 -16.4258 29.8877 -39.9648c-34.8311 -26.7227 -69.123 -54.957 -95.3711 -90.5596c-23.5566 -31.9443 -52.9639 -82.3955 -28.8799 -121.341c44.5352 -72.0166 134.281 -5.96973 166.492 33.6992c47.5352 58.543 66.1367 137.868 77.0732 211.55
c12.8984 86.9072 15.3467 174.211 9.57324 261.806c-2.0752 31.5596 -17.7656 247.905 -74.915 225.569c-17.0957 -6.68066 -30.042 -39.7637 -38.0918 -54.6543c-7.78906 -14.4102 -15.1221 -29.0693 -22.1641 -43.8594
c-17.291 -36.2959 -31.2031 -73.9844 -45.8154 -111.406c-28.3164 -72.5264 -54.4463 -143.037 -99.7344 -207.104c-48.0918 -68.0332 -132.586 -123.47 -211.894 -67.583z" />
    <glyph glyph-name="Y" unicode="&#xdd;" horiz-adv-x="798" 
d="M119.366 213.934c-69.1592 48.7324 -72.3672 151.168 -68.1465 227.736c4.71875 85.6025 22.585 192.462 93.1611 248.574c7.91992 6.30078 31.4883 12.7861 36.5566 -1.53516c16.7285 -47.25 -3.69238 -98.1875 -7.60449 -146.742
c-4.30957 -53.5391 -2.25293 -109.053 7.73535 -161.852c4.46387 -23.5928 10.8535 -44.3994 21.6777 -65.9229c4.80762 -9.56152 9.11133 -20.5518 15.8457 -28.9756c2.70898 -3.38477 7.03613 -7.93164 11.2148 -9.50879c16.627 5.66699 34.1846 35.1221 43.6982 48.0264
c14.6123 19.8164 27.25 40.9844 40.042 61.9922c47.79 78.4541 82.6924 163.304 125.467 244.407c32.9346 62.4434 85.0391 144.881 166.795 100.34c79.8584 -43.5098 108.466 -149.125 126.131 -231.177c20.7061 -96.1777 19.7578 -198.028 8.50098 -295.314
c-10.8301 -93.6406 -41.915 -188.022 -106.871 -258.474c-64.8018 -70.291 -161.904 -120.825 -259.819 -107.073c-43.3975 6.09375 -84.9922 28.8857 -106.361 68.2109c-22.1699 40.7949 -8.35254 87.2334 12.1338 125.503c39.6562 74.0791 101.957 142.1 173.683 185.633
c31.6426 19.2002 60.582 -16.4258 29.8877 -39.9648c-34.8311 -26.7227 -69.123 -54.957 -95.3711 -90.5596c-23.5566 -31.9443 -52.9639 -82.3955 -28.8799 -121.341c44.5352 -72.0166 134.281 -5.96973 166.492 33.6992c47.5352 58.543 66.1367 137.868 77.0732 211.55
c12.8984 86.9072 15.3467 174.211 9.57324 261.806c-2.0752 31.5596 -17.7656 247.905 -74.915 225.569c-17.0957 -6.68066 -30.042 -39.7637 -38.0918 -54.6543c-7.78906 -14.4102 -15.1221 -29.0693 -22.1641 -43.8594
c-17.291 -36.2959 -31.2031 -73.9844 -45.8154 -111.406c-28.3164 -72.5264 -54.4463 -143.037 -99.7344 -207.104c-48.0918 -68.0332 -132.586 -123.47 -211.894 -67.583z" />
    <glyph glyph-name="Z" unicode="Z" horiz-adv-x="842" 
d="M173.529 638.36c-28.999 -16.6865 -44.8721 17.7402 -16.6445 34.1006c90.6475 52.5078 193.968 80.25 298.782 79.3486c96.1006 -0.830078 193.896 -14.4043 261.254 -90.623c87.2803 -98.7627 87.3867 -228.118 51.5889 -348.096
c1.62402 0.0175781 3.25391 0.0585938 4.87793 0.0703125c33.6455 0.231445 16.1768 -39.9229 -9.52051 -39.7686c-2.875 0.0175781 -5.75 -0.0234375 -8.625 -0.0117188c-15.0625 -40.9551 -33.7588 -80.2441 -54.002 -116.131
c-33.1895 -58.8389 -73.9902 -117.357 -121.738 -169.172c65.0635 -20.1963 170.092 -52.7041 154.259 -133.677c-4.34473 -22.1875 -55.8867 -47.416 -66.7705 -18.0322c-11.0078 29.7217 -39.1943 46.3965 -66.8115 58.5068
c-27.4756 12.0449 -55.8047 22.7803 -84.542 31.915c-73.7412 -61.998 -160.263 -106.071 -258.089 -115.247c-64.0195 -5.99902 -234.905 10 -203.803 110.736c13.6816 44.2979 56.2842 63.9365 96.6162 78.2637c44.0674 15.6553 91.1104 24.6895 137.638 28.8154
c52.3125 4.63574 104.519 1.57715 155.941 -6.96484c73.5156 67.8848 131.732 157.602 173.642 248.652c-16.3311 -0.62207 -32.6562 -1.35742 -48.9814 -2.2168c-31.6719 -1.66602 -14.6943 35.7266 8.92188 37.2676c18.8564 1.22656 37.7246 2.25195 56.5928 3.16504
c44.7246 113.517 58.0977 269.725 -48.6553 352.755c-115.763 90.043 -297.14 42.3838 -411.931 -23.6572zM225.203 -73.7549c47.5225 -2.24707 93.8594 12.0928 132.396 32.5732c-40.6523 3.14746 -81.5537 1.87891 -121.625 -5.57227
c-18.7197 -3.47949 -37.2852 -8.6543 -55.1992 -15.0742c-1.7373 -0.62207 -3.88281 -1.68945 -6.20605 -2.91699c2.37109 -0.818359 4.71875 -1.60645 6.89453 -2.14551c14.25 -3.5332 29.0576 -6.1709 43.7402 -6.86426z" />
    <glyph glyph-name="bracketleft" unicode="[" horiz-adv-x="507" 
d="M407.981 -204.391c46.2725 10.1543 66.9365 -31.876 30.2383 -62.001c-49.5918 -40.7412 -125.918 -65.5371 -189.783 -59.5146c-54.7012 5.15723 -97.8848 35.6436 -127.867 80.4219c-26.9062 40.1846 -37.6709 88.9111 -46.8408 135.729
c-10.8896 55.5371 -15.1455 111.827 -17.5107 168.301c-4.77734 113.86 -8.12695 228.705 -5.00293 342.643c2.96387 108.14 12.1934 233.5 75.792 325.072c52.668 75.8457 147.15 108.247 236.529 90.6064c28.5361 -5.63184 0.539062 -36.7529 -18.9756 -34.7607
c-47.0244 4.79004 -92.5322 -15.7969 -120.025 -54.8604c-29.04 -41.2754 -34.2207 -96.7002 -38.542 -145.562c-10.2783 -116.184 2.85156 -233.174 8.69629 -349.191c5.82129 -115.538 6.0166 -236.986 36.7939 -349.358
c8.98633 -32.8105 21.3457 -72.1475 47.7598 -95.3252c39.2236 -34.4102 86.4023 -1.49316 128.738 7.80176z" />
    <glyph glyph-name="backslash" unicode="\" horiz-adv-x="441" 
d="M388.134 -161.859c10.042 -34.0488 -11.8682 -62.751 -42.3721 -77.6182c-23.0947 -11.2627 -76.3379 -18.8262 -87.251 14.4053c-97.9795 298.438 -117.908 616.184 -207.239 917.082c-11.8672 39.9883 62.751 79.8232 81.252 39.627
c130.103 -282.688 168.129 -596.859 255.61 -893.496z" />
    <glyph glyph-name="bracketright" unicode="]" horiz-adv-x="510" 
d="M411.226 698.489c46.6807 -100.31 48.9355 -221.513 48.6211 -330.015c-0.302734 -112.574 -0.984375 -226.203 -9.75781 -338.469c-7.72949 -98.875 -20.3975 -217.685 -93.6113 -292.38c-39.1113 -39.8994 -92.4551 -65.4482 -148.905 -64.4521
c-49.7217 0.876953 -111.477 20.5566 -147.813 55.7139c-34.2031 33.0947 30.1367 73.8418 60.4336 68.1982c28.5957 -5.32324 54.7959 -18.6367 83.6045 -23.2129c10.5986 -1.68359 21.1318 -2.96387 31.7842 -0.699219c3.08789 0.658203 6.33008 2.67383 7.8418 3.66406
c23.2305 23.2959 33.5029 66.5684 41.0547 101.127c24.8076 113.469 25.8691 229.771 32.6387 345.179c6.92383 118.116 17.8076 237.489 4.55273 355.594c-5.80957 51.7852 -13.9424 105.318 -47.4287 147.382c-30.5518 38.376 -73.2139 60.8662 -122.183 55.7324
c-27.0303 -2.83984 -16.9053 30.5576 2.82812 34.3398c104.934 20.1006 209.665 -17.4043 256.34 -117.702z" />
    <glyph glyph-name="asciicircum" unicode="^" horiz-adv-x="341" 
d="M288.276 537.817c23.1416 -52.2773 -85.2324 -103.712 -106.887 -52.1348c-8.55957 20.3799 -17.1133 40.7539 -25.6729 61.1338c-1.15625 2.75 -3.40332 9.79785 -6.11816 17.6875c-0.669922 -1.22754 -1.39355 -2.43066 -2.0459 -3.66992
c-9.7041 -18.3467 -18.7383 -36.2363 -31.7139 -52.5615c-14.873 -18.7197 -57.9854 -27.2324 -64.3164 2.95215c-6.56836 31.334 9.49023 67.6182 21.9736 95.7871c15.0205 33.9072 40.0537 62.6689 77.084 72.5264c87.2148 23.2129 111.146 -81.75 137.696 -141.721z" />
    <glyph glyph-name="underscore" unicode="_" horiz-adv-x="497" 
d="M406.327 11.5273c22.9639 1.96191 45.4238 -13.4629 40.1299 -38.3887c-5.5957 -26.3311 -35.3711 -41.998 -59.959 -44.4404c-63.7178 -6.33105 -127.548 -11.0674 -191.562 -12.7031c-31.8203 -0.818359 -64.3105 -1.67773 -96.0059 2.04492
c-19.1406 2.24707 -39.4258 6.93555 -47.4102 26.29c-7.61133 18.4531 15.0684 31.5537 30.0127 33.5273c107.772 14.2148 216.464 24.417 324.794 33.6699z" />
    <glyph glyph-name="grave" unicode="`" horiz-adv-x="193" 
d="M142.598 538.221c8.30469 -41.2275 -83.457 -67.5352 -85.2119 -22.7158c-1.26855 32.5254 -4.87305 64.915 -7.33301 97.3398c-1.55273 20.498 30.7598 40.042 48.3652 29.4072c32.6445 -19.7217 37.25 -69.6211 44.1797 -104.031z" />
    <glyph glyph-name="a" unicode="a" horiz-adv-x="696" 
d="M701.332 299.804c11.0908 14.8311 46.5605 13.085 36.0273 -10.7568c-30.7295 -69.5264 -70.9199 -141.792 -118.164 -201.544c-37.8779 -47.9082 -100.659 -108.134 -164.27 -115.869c-94.8203 -11.5293 -128.442 83.0537 -135.479 159.96
c-1.82617 20.0117 -2.72754 40.0596 -2.85156 60.1016c-18.8975 -47.6768 -40.7412 -93.7705 -68.4238 -135.212c-44.2148 -66.1895 -126.475 -134.638 -209.386 -90.5645c-85.2529 45.3174 -87.417 159.901 -72.5439 242.979
c17.4102 97.2744 87.6064 193.156 181.307 228.35c61.1689 22.9697 150.376 18.8145 199.499 -29.3486c35.667 53.9844 153.285 70.2441 141.957 -11.5469c-8.79102 -63.4805 -18.3877 -127.21 -21.0254 -191.312c-1.30957 -31.8799 -1.45801 -64.4473 -0.141602 -96.3389
c0.830078 -20.1367 0.930664 -55.834 22.1045 -67.1445c21.7783 -11.6299 54.3096 24.5947 67.9971 38.7676c19.6504 20.3438 36.876 42.8809 52.2881 66.5625c32.3066 49.6387 55.6445 105.479 91.1045 152.918zM229.32 104.617
c37.0186 70.2383 64.4873 145.685 91.1152 220.712c-3.09473 0.942383 -5.97559 2.29395 -8.5127 4.14941c-30.8955 22.585 -65.4844 53.4209 -106.878 48.335c-32.7275 -4.01855 -48.5605 -31.6592 -62.082 -58.6719c-32.5078 -64.9502 -46.082 -151.815 -33.8467 -223.488
c3.9834 -23.3135 15.8809 -70.415 43.4395 -75.6846c32.3242 -6.17676 64.8975 62.1348 76.7646 84.6484z" />
    <glyph glyph-name="a" unicode="&#xe5;" horiz-adv-x="696" 
d="M701.332 299.804c11.0908 14.8311 46.5605 13.085 36.0273 -10.7568c-30.7295 -69.5264 -70.9199 -141.792 -118.164 -201.544c-37.8779 -47.9082 -100.659 -108.134 -164.27 -115.869c-94.8203 -11.5293 -128.442 83.0537 -135.479 159.96
c-1.82617 20.0117 -2.72754 40.0596 -2.85156 60.1016c-18.8975 -47.6768 -40.7412 -93.7705 -68.4238 -135.212c-44.2148 -66.1895 -126.475 -134.638 -209.386 -90.5645c-85.2529 45.3174 -87.417 159.901 -72.5439 242.979
c17.4102 97.2744 87.6064 193.156 181.307 228.35c61.1689 22.9697 150.376 18.8145 199.499 -29.3486c35.667 53.9844 153.285 70.2441 141.957 -11.5469c-8.79102 -63.4805 -18.3877 -127.21 -21.0254 -191.312c-1.30957 -31.8799 -1.45801 -64.4473 -0.141602 -96.3389
c0.830078 -20.1367 0.930664 -55.834 22.1045 -67.1445c21.7783 -11.6299 54.3096 24.5947 67.9971 38.7676c19.6504 20.3438 36.876 42.8809 52.2881 66.5625c32.3066 49.6387 55.6445 105.479 91.1045 152.918zM229.32 104.617
c37.0186 70.2383 64.4873 145.685 91.1152 220.712c-3.09473 0.942383 -5.97559 2.29395 -8.5127 4.14941c-30.8955 22.585 -65.4844 53.4209 -106.878 48.335c-32.7275 -4.01855 -48.5605 -31.6592 -62.082 -58.6719c-32.5078 -64.9502 -46.082 -151.815 -33.8467 -223.488
c3.9834 -23.3135 15.8809 -70.415 43.4395 -75.6846c32.3242 -6.17676 64.8975 62.1348 76.7646 84.6484z" />
    <glyph glyph-name="a" unicode="&#xe4;" horiz-adv-x="696" 
d="M701.332 299.804c11.0908 14.8311 46.5605 13.085 36.0273 -10.7568c-30.7295 -69.5264 -70.9199 -141.792 -118.164 -201.544c-37.8779 -47.9082 -100.659 -108.134 -164.27 -115.869c-94.8203 -11.5293 -128.442 83.0537 -135.479 159.96
c-1.82617 20.0117 -2.72754 40.0596 -2.85156 60.1016c-18.8975 -47.6768 -40.7412 -93.7705 -68.4238 -135.212c-44.2148 -66.1895 -126.475 -134.638 -209.386 -90.5645c-85.2529 45.3174 -87.417 159.901 -72.5439 242.979
c17.4102 97.2744 87.6064 193.156 181.307 228.35c61.1689 22.9697 150.376 18.8145 199.499 -29.3486c35.667 53.9844 153.285 70.2441 141.957 -11.5469c-8.79102 -63.4805 -18.3877 -127.21 -21.0254 -191.312c-1.30957 -31.8799 -1.45801 -64.4473 -0.141602 -96.3389
c0.830078 -20.1367 0.930664 -55.834 22.1045 -67.1445c21.7783 -11.6299 54.3096 24.5947 67.9971 38.7676c19.6504 20.3438 36.876 42.8809 52.2881 66.5625c32.3066 49.6387 55.6445 105.479 91.1045 152.918zM229.32 104.617
c37.0186 70.2383 64.4873 145.685 91.1152 220.712c-3.09473 0.942383 -5.97559 2.29395 -8.5127 4.14941c-30.8955 22.585 -65.4844 53.4209 -106.878 48.335c-32.7275 -4.01855 -48.5605 -31.6592 -62.082 -58.6719c-32.5078 -64.9502 -46.082 -151.815 -33.8467 -223.488
c3.9834 -23.3135 15.8809 -70.415 43.4395 -75.6846c32.3242 -6.17676 64.8975 62.1348 76.7646 84.6484z" />
    <glyph glyph-name="a" unicode="&#xe3;" horiz-adv-x="696" 
d="M701.332 299.804c11.0908 14.8311 46.5605 13.085 36.0273 -10.7568c-30.7295 -69.5264 -70.9199 -141.792 -118.164 -201.544c-37.8779 -47.9082 -100.659 -108.134 -164.27 -115.869c-94.8203 -11.5293 -128.442 83.0537 -135.479 159.96
c-1.82617 20.0117 -2.72754 40.0596 -2.85156 60.1016c-18.8975 -47.6768 -40.7412 -93.7705 -68.4238 -135.212c-44.2148 -66.1895 -126.475 -134.638 -209.386 -90.5645c-85.2529 45.3174 -87.417 159.901 -72.5439 242.979
c17.4102 97.2744 87.6064 193.156 181.307 228.35c61.1689 22.9697 150.376 18.8145 199.499 -29.3486c35.667 53.9844 153.285 70.2441 141.957 -11.5469c-8.79102 -63.4805 -18.3877 -127.21 -21.0254 -191.312c-1.30957 -31.8799 -1.45801 -64.4473 -0.141602 -96.3389
c0.830078 -20.1367 0.930664 -55.834 22.1045 -67.1445c21.7783 -11.6299 54.3096 24.5947 67.9971 38.7676c19.6504 20.3438 36.876 42.8809 52.2881 66.5625c32.3066 49.6387 55.6445 105.479 91.1045 152.918zM229.32 104.617
c37.0186 70.2383 64.4873 145.685 91.1152 220.712c-3.09473 0.942383 -5.97559 2.29395 -8.5127 4.14941c-30.8955 22.585 -65.4844 53.4209 -106.878 48.335c-32.7275 -4.01855 -48.5605 -31.6592 -62.082 -58.6719c-32.5078 -64.9502 -46.082 -151.815 -33.8467 -223.488
c3.9834 -23.3135 15.8809 -70.415 43.4395 -75.6846c32.3242 -6.17676 64.8975 62.1348 76.7646 84.6484z" />
    <glyph glyph-name="a" unicode="&#xe2;" horiz-adv-x="696" 
d="M701.332 299.804c11.0908 14.8311 46.5605 13.085 36.0273 -10.7568c-30.7295 -69.5264 -70.9199 -141.792 -118.164 -201.544c-37.8779 -47.9082 -100.659 -108.134 -164.27 -115.869c-94.8203 -11.5293 -128.442 83.0537 -135.479 159.96
c-1.82617 20.0117 -2.72754 40.0596 -2.85156 60.1016c-18.8975 -47.6768 -40.7412 -93.7705 -68.4238 -135.212c-44.2148 -66.1895 -126.475 -134.638 -209.386 -90.5645c-85.2529 45.3174 -87.417 159.901 -72.5439 242.979
c17.4102 97.2744 87.6064 193.156 181.307 228.35c61.1689 22.9697 150.376 18.8145 199.499 -29.3486c35.667 53.9844 153.285 70.2441 141.957 -11.5469c-8.79102 -63.4805 -18.3877 -127.21 -21.0254 -191.312c-1.30957 -31.8799 -1.45801 -64.4473 -0.141602 -96.3389
c0.830078 -20.1367 0.930664 -55.834 22.1045 -67.1445c21.7783 -11.6299 54.3096 24.5947 67.9971 38.7676c19.6504 20.3438 36.876 42.8809 52.2881 66.5625c32.3066 49.6387 55.6445 105.479 91.1045 152.918zM229.32 104.617
c37.0186 70.2383 64.4873 145.685 91.1152 220.712c-3.09473 0.942383 -5.97559 2.29395 -8.5127 4.14941c-30.8955 22.585 -65.4844 53.4209 -106.878 48.335c-32.7275 -4.01855 -48.5605 -31.6592 -62.082 -58.6719c-32.5078 -64.9502 -46.082 -151.815 -33.8467 -223.488
c3.9834 -23.3135 15.8809 -70.415 43.4395 -75.6846c32.3242 -6.17676 64.8975 62.1348 76.7646 84.6484z" />
    <glyph glyph-name="a" unicode="&#xe1;" horiz-adv-x="696" 
d="M701.332 299.804c11.0908 14.8311 46.5605 13.085 36.0273 -10.7568c-30.7295 -69.5264 -70.9199 -141.792 -118.164 -201.544c-37.8779 -47.9082 -100.659 -108.134 -164.27 -115.869c-94.8203 -11.5293 -128.442 83.0537 -135.479 159.96
c-1.82617 20.0117 -2.72754 40.0596 -2.85156 60.1016c-18.8975 -47.6768 -40.7412 -93.7705 -68.4238 -135.212c-44.2148 -66.1895 -126.475 -134.638 -209.386 -90.5645c-85.2529 45.3174 -87.417 159.901 -72.5439 242.979
c17.4102 97.2744 87.6064 193.156 181.307 228.35c61.1689 22.9697 150.376 18.8145 199.499 -29.3486c35.667 53.9844 153.285 70.2441 141.957 -11.5469c-8.79102 -63.4805 -18.3877 -127.21 -21.0254 -191.312c-1.30957 -31.8799 -1.45801 -64.4473 -0.141602 -96.3389
c0.830078 -20.1367 0.930664 -55.834 22.1045 -67.1445c21.7783 -11.6299 54.3096 24.5947 67.9971 38.7676c19.6504 20.3438 36.876 42.8809 52.2881 66.5625c32.3066 49.6387 55.6445 105.479 91.1045 152.918zM229.32 104.617
c37.0186 70.2383 64.4873 145.685 91.1152 220.712c-3.09473 0.942383 -5.97559 2.29395 -8.5127 4.14941c-30.8955 22.585 -65.4844 53.4209 -106.878 48.335c-32.7275 -4.01855 -48.5605 -31.6592 -62.082 -58.6719c-32.5078 -64.9502 -46.082 -151.815 -33.8467 -223.488
c3.9834 -23.3135 15.8809 -70.415 43.4395 -75.6846c32.3242 -6.17676 64.8975 62.1348 76.7646 84.6484z" />
    <glyph glyph-name="b" unicode="b" horiz-adv-x="614" 
d="M640.146 285.021c33.9365 4.07227 15.3359 -37.084 -9.63184 -40.2734c-48.4893 -6.18848 -95.1523 -20.9424 -140.767 -38.1152c-18.7676 -108.537 -81.4658 -228.36 -185.942 -254.97c-57.8018 -14.7188 -112.93 14.7305 -110.387 78.4424
c2.24707 56.3555 53.6641 97.7666 97.1504 126.19c20.3975 13.3311 41.708 24.9375 63.5342 35.5186c9.78711 41.7549 13.2432 84.8555 8.43555 124.073c-2.51367 20.4863 -18.8682 96.7109 -51.1982 80.6709c-33.207 -16.4736 -55.0215 -72.4082 -70.2734 -103.582
c-37.3623 -76.3496 -66.3311 -157.121 -90.5518 -238.663c-3.58008 -32.5371 -14.001 -62.7568 -43.3438 -78.6016c-99.5977 -53.7822 -101.577 235.38 -102.104 283.193c-1.33398 121.086 10.1123 246.227 42.7441 362.956
c10.2607 36.7168 49.4844 62.0459 86.4141 64.0557c34.7188 1.89062 62.9229 -19.0459 57.8369 -55.3301c-15.4951 -110.541 -31.5889 -220.057 -36.9121 -331.676c-0.978516 -20.4863 -1.53027 -40.9902 -1.94531 -61.4941
c0.646484 1.70703 1.22754 3.42578 1.88574 5.12695c24.3037 62.751 53.8955 131.306 104.394 177.619c43.0176 39.4551 104.767 54.583 157.684 24.4287c55.8037 -31.8027 76.8477 -101.91 78.4775 -162.753c0.28418 -10.5986 0.00585938 -21.6543 -0.770508 -32.9941
c47.2383 16.5742 95.0928 30.1543 145.271 36.1768zM306.143 73.5537c12.1816 19.6035 22.7871 41.5371 31.5547 64.6846c-28.7559 -16.8232 -85.1943 -49.835 -79.3262 -87.3516c1.66602 -10.6641 4.81348 -10.8066 12.792 -15.3652
c0.367188 -0.213867 1.60645 0.129883 2.99316 0.62793c2.0332 1.50586 6.08789 4.16113 6.37793 4.46387c9.7334 10.1777 18.1572 20.9482 25.6084 32.9404z" />
    <glyph glyph-name="c" unicode="c" horiz-adv-x="443" 
d="M445.067 295.643c10.249 19.0039 54.3516 19.3477 40.7295 -6.72266c-47.2559 -90.4639 -107.097 -184.49 -186.262 -250.425c-64.6895 -53.877 -171.158 -114.778 -255.409 -69.2119c-83.0889 44.9326 -90.4033 160.168 -76.1885 242.712
c15.8389 91.999 71.3525 179.926 155.823 222.754c32.8516 16.6514 77.209 29.2949 109.841 5.61914c31.7969 -23.0645 37.0547 -67.665 40.6943 -103.7c2.36523 -23.4385 -46.0762 -39.8291 -49.5088 -13.1953c-3.6875 28.5957 -23.3857 113.884 -64.3047 65.9346
c-18.9395 -22.1934 -26.2305 -58.5068 -33.0771 -86.2188c-16.4375 -66.5215 -31.4883 -154.525 -5.00293 -220.478c12.2412 -30.4863 33.1836 -51.0137 67.5107 -51.9033c43.5869 -1.13184 77.4346 27.6768 106.735 56.9482c60.125 60.0664 108.24 133.387 148.419 207.887
z" />
    <glyph glyph-name="d" unicode="d" horiz-adv-x="708" 
d="M707.745 291.653c10.0059 20.6875 56.2363 20.9287 42.9463 -7.0918c-39.6631 -83.6641 -80.9385 -169.652 -146.085 -236.933c-52.0693 -53.7764 -161.62 -134.305 -232.777 -63.5752c-34.0371 33.8301 -41.376 91.6016 -48.0625 136.83
c-3.62207 24.5117 -5.74414 49.2422 -6.92969 74.0322c-19.1885 -48.8154 -41.3584 -96.0596 -69.6631 -138.425c-44.2148 -66.1895 -126.475 -134.638 -209.386 -90.5645c-85.2529 45.3174 -87.417 159.9 -72.5439 242.978c17.4102 97.2744 87.6064 193.156 181.307 228.35
c53.125 19.9531 127.37 19.3955 178.165 -12.6377c6.47949 61.6787 16.1475 123.103 28.6377 183.204c13.1719 63.374 144.939 91.8154 136.996 8.28711c-16.4492 -173.061 -54.3867 -347.224 -37.1426 -521.902c2.73242 -27.7061 4.94922 -72.6387 42.543 -74.2803
c37.2148 -1.62402 75.2412 48.0391 96.6406 73.9844c48.7441 59.0938 82.2002 129.213 115.354 197.744zM316.81 317.941c0.112305 2.70898 0.308594 5.42383 0.432617 8.13281c-2.26465 0.882812 -4.39258 1.99121 -6.31934 3.39648
c-30.8955 22.585 -65.4844 53.4209 -106.878 48.335c-32.7275 -4.01855 -48.5605 -31.6602 -62.082 -58.6729c-32.5078 -64.9502 -46.082 -151.81 -33.8408 -223.482c3.9834 -23.3135 15.8809 -70.415 43.4395 -75.6846c32.3242 -6.17676 64.8975 62.1348 76.7646 84.6484
c35.8037 67.9316 62.668 140.742 88.4834 213.327z" />
    <glyph glyph-name="e" unicode="e" horiz-adv-x="469" 
d="M470.316 278.108c16.1533 16.5381 55.9932 6.8584 34.3984 -15.7031c-81.1572 -84.749 -163.944 -168.668 -267.87 -225.42c-46.4619 -25.3711 -89.5449 -51.0801 -144.584 -47.8135c-50.1904 2.97559 -96.9785 32.0869 -114.804 80.7246
c-36.6455 99.9834 1.44629 231.834 65.2764 312.214c34.9023 43.9482 96.3262 86.2666 155.787 75.8994c39.9473 -6.96484 68.958 -45.6846 74.8564 -84.0312c15.3887 -100.084 -83.8477 -137.471 -167.097 -144.519c-6.78711 -30.3145 -9.65039 -61.2334 -8.74316 -90.3564
c1.15039 -36.9541 4.3457 -77.0908 47.9268 -84.5068c44.8906 -7.63477 90.167 21.8438 125.455 45.5781c74.2744 49.959 137.139 114.181 199.397 177.934zM173.845 365.199c-24.4219 -25.9814 -42.7568 -58.6318 -55.3711 -93.7539
c37.25 3.18359 72.4131 13.5752 92.5078 49.8711c8.61914 15.5723 12.2822 47.209 -9.8457 55.7861c-12.8691 4.98535 -18.7256 -2.79199 -27.291 -11.9033z" />
    <glyph glyph-name="e" unicode="&#xeb;" horiz-adv-x="469" 
d="M470.316 278.108c16.1533 16.5381 55.9932 6.8584 34.3984 -15.7031c-81.1572 -84.749 -163.944 -168.668 -267.87 -225.42c-46.4619 -25.3711 -89.5449 -51.0801 -144.584 -47.8135c-50.1904 2.97559 -96.9785 32.0869 -114.804 80.7246
c-36.6455 99.9834 1.44629 231.834 65.2764 312.214c34.9023 43.9482 96.3262 86.2666 155.787 75.8994c39.9473 -6.96484 68.958 -45.6846 74.8564 -84.0312c15.3887 -100.084 -83.8477 -137.471 -167.097 -144.519c-6.78711 -30.3145 -9.65039 -61.2334 -8.74316 -90.3564
c1.15039 -36.9541 4.3457 -77.0908 47.9268 -84.5068c44.8906 -7.63477 90.167 21.8438 125.455 45.5781c74.2744 49.959 137.139 114.181 199.397 177.934zM173.845 365.199c-24.4219 -25.9814 -42.7568 -58.6318 -55.3711 -93.7539
c37.25 3.18359 72.4131 13.5752 92.5078 49.8711c8.61914 15.5723 12.2822 47.209 -9.8457 55.7861c-12.8691 4.98535 -18.7256 -2.79199 -27.291 -11.9033z" />
    <glyph glyph-name="e" unicode="&#xea;" horiz-adv-x="469" 
d="M470.316 278.108c16.1533 16.5381 55.9932 6.8584 34.3984 -15.7031c-81.1572 -84.749 -163.944 -168.668 -267.87 -225.42c-46.4619 -25.3711 -89.5449 -51.0801 -144.584 -47.8135c-50.1904 2.97559 -96.9785 32.0869 -114.804 80.7246
c-36.6455 99.9834 1.44629 231.834 65.2764 312.214c34.9023 43.9482 96.3262 86.2666 155.787 75.8994c39.9473 -6.96484 68.958 -45.6846 74.8564 -84.0312c15.3887 -100.084 -83.8477 -137.471 -167.097 -144.519c-6.78711 -30.3145 -9.65039 -61.2334 -8.74316 -90.3564
c1.15039 -36.9541 4.3457 -77.0908 47.9268 -84.5068c44.8906 -7.63477 90.167 21.8438 125.455 45.5781c74.2744 49.959 137.139 114.181 199.397 177.934zM173.845 365.199c-24.4219 -25.9814 -42.7568 -58.6318 -55.3711 -93.7539
c37.25 3.18359 72.4131 13.5752 92.5078 49.8711c8.61914 15.5723 12.2822 47.209 -9.8457 55.7861c-12.8691 4.98535 -18.7256 -2.79199 -27.291 -11.9033z" />
    <glyph glyph-name="e" unicode="&#xe9;" horiz-adv-x="469" 
d="M470.316 278.108c16.1533 16.5381 55.9932 6.8584 34.3984 -15.7031c-81.1572 -84.749 -163.944 -168.668 -267.87 -225.42c-46.4619 -25.3711 -89.5449 -51.0801 -144.584 -47.8135c-50.1904 2.97559 -96.9785 32.0869 -114.804 80.7246
c-36.6455 99.9834 1.44629 231.834 65.2764 312.214c34.9023 43.9482 96.3262 86.2666 155.787 75.8994c39.9473 -6.96484 68.958 -45.6846 74.8564 -84.0312c15.3887 -100.084 -83.8477 -137.471 -167.097 -144.519c-6.78711 -30.3145 -9.65039 -61.2334 -8.74316 -90.3564
c1.15039 -36.9541 4.3457 -77.0908 47.9268 -84.5068c44.8906 -7.63477 90.167 21.8438 125.455 45.5781c74.2744 49.959 137.139 114.181 199.397 177.934zM173.845 365.199c-24.4219 -25.9814 -42.7568 -58.6318 -55.3711 -93.7539
c37.25 3.18359 72.4131 13.5752 92.5078 49.8711c8.61914 15.5723 12.2822 47.209 -9.8457 55.7861c-12.8691 4.98535 -18.7256 -2.79199 -27.291 -11.9033z" />
    <glyph glyph-name="f" unicode="f" horiz-adv-x="444" 
d="M464.476 300.225c24.9912 12.5605 37.1328 -14.7451 13.8193 -28.3135c-86.1484 -50.0957 -174.597 -96.4746 -263.163 -142.326c65.1221 -7.62891 136.196 -25.5664 138.277 -99.6934c2.11621 -75.6797 -65.46 -128.164 -134.945 -137.121
c-78.7744 -10.1543 -169.38 32.6621 -199.315 109.112c-34.2451 87.4521 -25.1104 190.998 -18.833 282.559c6.92969 101.032 18.7559 202.278 39.0645 301.545c6.53223 31.9443 41.8262 53.0117 71.4238 58.0381c22.0449 3.74609 65.7207 -4.1377 63.7109 -35.8213
c-6.24805 -98.3477 -19.8105 -196.12 -28.9629 -294.225c-4.21484 -45.1758 -7.06055 -90.5527 -6.90625 -135.936c0.0537109 -15.0273 -0.0234375 -30.3682 0.355469 -45.7451c108.976 55.0391 216.404 113.119 325.475 167.927zM264.208 77.25
c-37.3682 15.46 -82.791 13.4961 -122.922 17.2842c1.6416 -15.584 4.29688 -30.9727 8.73047 -45.8271c9.71582 -32.5254 28.0381 -62.0273 58.9336 -78.0918c27.7832 -14.4521 72.1172 -16.082 90.0127 14.8906c20.0771 34.7607 -0.302734 77.4883 -34.7549 91.7441z" />
    <glyph glyph-name="g" unicode="g" horiz-adv-x="646" 
d="M654.26 290.966c21.1084 18.2217 50.7832 -3.19434 26.7227 -24.7119c-69.2539 -61.915 -144.335 -117.411 -217.62 -174.644c-2.48926 -28.6611 -5.34668 -57.2393 -8.79688 -85.6211c-14.7783 -121.572 -44.1328 -250.021 -118.787 -349.731
c-51.957 -69.3965 -140.18 -134.021 -230.436 -134.353c-46.5742 -0.171875 -98.2344 23.8057 -113.676 70.7236c-29.082 88.3594 53.0117 179.955 109.989 236.103c72.8584 71.7969 150.174 139.474 229.221 204.661c3.43848 70.2266 3.4502 140.838 5.44238 211.26
c-23.415 -66.1895 -50.3096 -131.525 -88.1465 -188.165c-44.2148 -66.1895 -126.475 -134.638 -209.386 -90.5645c-85.2529 45.3174 -87.417 159.901 -72.5439 242.979c17.4102 97.2744 87.6064 193.156 181.307 228.35c62.4551 23.4561 154.092 18.5771 202.498 -32.4902
c23.5625 41.9033 120.528 64.2686 122.224 6.0459c2.58496 -88.8984 0.990234 -179.077 -5.02051 -268.592c63.0771 48.6846 126.795 96.7646 187.009 148.751zM229.322 104.616c37.0186 70.2383 64.4805 145.686 91.1084 220.707
c-3.08789 0.942383 -5.97461 2.29395 -8.51172 4.14941c-30.8955 22.585 -65.4844 53.4209 -106.878 48.335c-32.7275 -4.01855 -48.5605 -31.6602 -62.082 -58.6729c-32.5078 -64.9502 -46.082 -151.81 -33.8408 -223.482
c3.9834 -23.3135 15.8809 -70.415 43.4395 -75.6846c32.3242 -6.17676 64.8975 62.1348 76.7646 84.6484zM289.037 -233.854c22.1406 70.9492 32.958 143.162 38.6191 215.961c-60.5342 -50.7061 -119.018 -104.026 -169.818 -164.128
c-29.7393 -35.1816 -57.4336 -71.7266 -82.0039 -110.672c-15.7207 -24.9141 -36.5332 -57.1787 -29.9238 -88.2939c9.37793 -44.1562 63.3916 -62.4785 101.679 -44.3691c73.1074 34.5762 118.496 117.95 141.448 191.502z" />
    <glyph glyph-name="h" unicode="h" horiz-adv-x="702" 
d="M691.187 248.493c11.9268 19.4844 59.6016 19.5459 43.5137 -7.18848c-50.2734 -83.4922 -102.213 -176.185 -177.062 -240.53c-63.5576 -54.6357 -162.99 -71.1035 -201.011 21.0674c-37.3271 90.4873 -7.52832 200.275 3.8291 293.294
c2.6084 21.3457 9.56152 46.5449 8.73145 67.8076c-0.901367 23.1533 -12.2295 13.3486 -25.3477 2.25195c-33.6279 -28.4473 -60.6826 -64.873 -83.457 -102.312c-46.4795 -76.4033 -81.9033 -161.129 -112.401 -245.185
c-5.2168 -25.9453 -16.5449 -48.8799 -40.8135 -61.9863c-99.5977 -53.7822 -101.577 235.38 -102.104 283.193c-1.33398 121.086 10.1123 246.227 42.7441 362.956c10.2607 36.7168 49.4844 62.0459 86.4141 64.0557c34.7188 1.89062 62.9229 -19.0459 57.8369 -55.3301
c-15.4951 -110.541 -31.5889 -220.057 -36.9121 -331.676c-2.17578 -45.626 -2.60254 -91.3057 -2.85156 -136.979c20.4805 48.7793 43.9844 96.2373 72.0996 140.595c39.0576 61.6309 93.4385 134.501 171.537 143.114c106.361 11.7373 104.5 -131.738 100.605 -202.172
c-2.7627 -49.9121 -8.68457 -99.5273 -11.8027 -149.338c-1.30371 -20.7832 -0.829102 -41.0859 4.03711 -61.3652c1.85547 -7.74805 2.53711 -18.2051 10.0889 -19.3613c7.67676 -1.16797 18.8916 8.74316 24.4814 12.916c73.0479 54.4883 121.193 145.96 167.845 222.173z
" />
    <glyph glyph-name="i" unicode="i" horiz-adv-x="402" 
d="M404.473 292.122c11.3281 18.4824 56.583 18.5312 41.2891 -6.82129c-40.2256 -66.6758 -87.9912 -128.645 -143.683 -183.162c-50.8955 -49.8232 -109.213 -100.742 -180.606 -117.031c-33.166 -7.56934 -70.1133 1.55957 -95.9053 23.9482
c-29.1172 25.2822 -38.6367 70.5469 -43.5928 106.86c-11.6777 85.5137 0.984375 181.792 24.1855 264.567c8.58887 30.6523 38.4473 50.5693 68.5186 55.6787c22.1045 3.75781 61.8496 -3.99023 61.1201 -34.3643c-1.66016 -68.9395 -19.082 -136.415 -23.6406 -205.177
c-2.13379 -32.1465 -2.6084 -64.5479 0.74707 -96.6465c1.77246 -16.9531 7.34473 -53.5693 24.832 -63.1191c23.6396 -12.9102 70.9844 31.625 86.8525 44.8555c23.4854 19.5732 45.667 40.6758 66.7461 62.8037c42.9521 45.0928 80.5996 94.5361 113.137 147.607z
M59.4619 465.724c-3.36719 1.9502 -5.63086 4.65332 -6.99414 7.66504c-28.3408 35.7686 -81.584 137.181 -9.25977 155.479c20.1074 5.08594 36.5508 -4.99707 47.9258 -21.6367c4.45801 5.97559 9.14648 11.7852 14.333 17.2207
c19.0283 19.9473 58.6729 53 89.1123 38.376c66.083 -31.7549 -77.2324 -164.495 -99.7109 -187.317c-7.9668 -8.0918 -23.9951 -16.373 -35.4062 -9.78711z" />
    <glyph glyph-name="i" unicode="&#xef;" horiz-adv-x="402" 
d="M404.473 292.122c11.3281 18.4824 56.583 18.5312 41.2891 -6.82129c-40.2256 -66.6758 -87.9912 -128.645 -143.683 -183.162c-50.8955 -49.8232 -109.213 -100.742 -180.606 -117.031c-33.166 -7.56934 -70.1133 1.55957 -95.9053 23.9482
c-29.1172 25.2822 -38.6367 70.5469 -43.5928 106.86c-11.6777 85.5137 0.984375 181.792 24.1855 264.567c8.58887 30.6523 38.4473 50.5693 68.5186 55.6787c22.1045 3.75781 61.8496 -3.99023 61.1201 -34.3643c-1.66016 -68.9395 -19.082 -136.415 -23.6406 -205.177
c-2.13379 -32.1465 -2.6084 -64.5479 0.74707 -96.6465c1.77246 -16.9531 7.34473 -53.5693 24.832 -63.1191c23.6396 -12.9102 70.9844 31.625 86.8525 44.8555c23.4854 19.5732 45.667 40.6758 66.7461 62.8037c42.9521 45.0928 80.5996 94.5361 113.137 147.607z
M59.4619 465.724c-3.36719 1.9502 -5.63086 4.65332 -6.99414 7.66504c-28.3408 35.7686 -81.584 137.181 -9.25977 155.479c20.1074 5.08594 36.5508 -4.99707 47.9258 -21.6367c4.45801 5.97559 9.14648 11.7852 14.333 17.2207
c19.0283 19.9473 58.6729 53 89.1123 38.376c66.083 -31.7549 -77.2324 -164.495 -99.7109 -187.317c-7.9668 -8.0918 -23.9951 -16.373 -35.4062 -9.78711z" />
    <glyph glyph-name="i" unicode="&#xee;" horiz-adv-x="402" 
d="M404.473 292.122c11.3281 18.4824 56.583 18.5312 41.2891 -6.82129c-40.2256 -66.6758 -87.9912 -128.645 -143.683 -183.162c-50.8955 -49.8232 -109.213 -100.742 -180.606 -117.031c-33.166 -7.56934 -70.1133 1.55957 -95.9053 23.9482
c-29.1172 25.2822 -38.6367 70.5469 -43.5928 106.86c-11.6777 85.5137 0.984375 181.792 24.1855 264.567c8.58887 30.6523 38.4473 50.5693 68.5186 55.6787c22.1045 3.75781 61.8496 -3.99023 61.1201 -34.3643c-1.66016 -68.9395 -19.082 -136.415 -23.6406 -205.177
c-2.13379 -32.1465 -2.6084 -64.5479 0.74707 -96.6465c1.77246 -16.9531 7.34473 -53.5693 24.832 -63.1191c23.6396 -12.9102 70.9844 31.625 86.8525 44.8555c23.4854 19.5732 45.667 40.6758 66.7461 62.8037c42.9521 45.0928 80.5996 94.5361 113.137 147.607z
M59.4619 465.724c-3.36719 1.9502 -5.63086 4.65332 -6.99414 7.66504c-28.3408 35.7686 -81.584 137.181 -9.25977 155.479c20.1074 5.08594 36.5508 -4.99707 47.9258 -21.6367c4.45801 5.97559 9.14648 11.7852 14.333 17.2207
c19.0283 19.9473 58.6729 53 89.1123 38.376c66.083 -31.7549 -77.2324 -164.495 -99.7109 -187.317c-7.9668 -8.0918 -23.9951 -16.373 -35.4062 -9.78711z" />
    <glyph glyph-name="i" unicode="&#xed;" horiz-adv-x="402" 
d="M404.473 292.122c11.3281 18.4824 56.583 18.5312 41.2891 -6.82129c-40.2256 -66.6758 -87.9912 -128.645 -143.683 -183.162c-50.8955 -49.8232 -109.213 -100.742 -180.606 -117.031c-33.166 -7.56934 -70.1133 1.55957 -95.9053 23.9482
c-29.1172 25.2822 -38.6367 70.5469 -43.5928 106.86c-11.6777 85.5137 0.984375 181.792 24.1855 264.567c8.58887 30.6523 38.4473 50.5693 68.5186 55.6787c22.1045 3.75781 61.8496 -3.99023 61.1201 -34.3643c-1.66016 -68.9395 -19.082 -136.415 -23.6406 -205.177
c-2.13379 -32.1465 -2.6084 -64.5479 0.74707 -96.6465c1.77246 -16.9531 7.34473 -53.5693 24.832 -63.1191c23.6396 -12.9102 70.9844 31.625 86.8525 44.8555c23.4854 19.5732 45.667 40.6758 66.7461 62.8037c42.9521 45.0928 80.5996 94.5361 113.137 147.607z
M59.4619 465.724c-3.36719 1.9502 -5.63086 4.65332 -6.99414 7.66504c-28.3408 35.7686 -81.584 137.181 -9.25977 155.479c20.1074 5.08594 36.5508 -4.99707 47.9258 -21.6367c4.45801 5.97559 9.14648 11.7852 14.333 17.2207
c19.0283 19.9473 58.6729 53 89.1123 38.376c66.083 -31.7549 -77.2324 -164.495 -99.7109 -187.317c-7.9668 -8.0918 -23.9951 -16.373 -35.4062 -9.78711z" />
    <glyph glyph-name="j" unicode="j" horiz-adv-x="272" 
d="M274.126 296.26c10.7646 19.6387 56.6348 20.168 42.3965 -6.99316c-43.4502 -82.9238 -109.219 -147.524 -183.055 -202.445c-6.33691 -80.3623 -16.6689 -160.404 -37.8965 -238.343c-37.3389 -137.073 -116.32 -280.555 -267.027 -312.79
c-58.4834 -12.5078 -128.253 -6.93555 -177.673 29.4785c-52.7744 38.8857 -65.2646 110.771 -43.2783 170.298c23.2783 63.0234 77.8613 110.144 131.549 147.275c64.6836 44.7363 132.391 84.6299 200.353 124.114c21.1387 12.2764 42.3896 24.7305 63.4746 37.5518
c6.08789 115.087 1.04297 230.731 12.8506 345.487c5.22266 50.7656 125.473 85.6445 127.203 20.9131c2.43066 -91.0439 -0.40918 -182.895 -6.07617 -273.862c54.4639 44.5059 102.438 95.9473 137.18 159.315zM-5.37305 -52.3672
c2.20508 17.3213 3.94043 34.6602 5.36328 52.0166c-108.134 -63.4092 -237.288 -123.185 -306.839 -231.384c-33.1953 -51.6484 -53.96 -125.687 3.63379 -168.402c50.8604 -37.7188 115.414 -24.6357 162.949 11.5059c100.802 76.6455 119.996 219.096 134.893 336.264z
M62.7109 479.75c-1.48242 1.16211 -2.66602 2.52051 -3.44238 4.06152c-30 36.4912 -80.7295 128.069 -14.4219 151.881c19.6328 7.04785 37.4639 -2.83984 50.5645 -19.7871c4.55273 6.50879 9.38379 12.834 14.7725 18.75
c18.6074 20.4326 57.6182 54.1318 88.3125 39.7744c66 -30.8721 -73.2129 -166.244 -95.3887 -190.003c-5.70215 -6.11133 -14.1191 -9.05762 -22.1396 -9.43066c-6.85254 -1.42871 -13.4912 -0.586914 -17.4629 3.84082
c-0.260742 0.28418 -0.533203 0.616211 -0.793945 0.913086z" />
    <glyph glyph-name="k" unicode="k" horiz-adv-x="557" 
d="M554.532 260.746c11.3691 17.0605 54.502 16.4668 39.0781 -6.4502c-36.7227 -54.5527 -69.0645 -112.36 -109.575 -164.287c-31.5713 -40.4688 -77.748 -79.7871 -132.989 -71.7256c-61.4473 8.96875 -109.836 52.4844 -125.408 112.059
c-8.12695 31.0732 -10.9668 63.6221 -16.5029 95.2588c-1.09082 6.2002 -2.26465 12.543 -3.33203 18.9453c-21.21 -60.6592 -36.4502 -123.647 -52.6445 -185.562c-0.515625 -1.96777 -1.51172 -3.79395 -2.73926 -5.5127
c-3.66895 -32.2178 -14.167 -62.0459 -43.2549 -77.7549c-99.5977 -53.7822 -101.577 235.38 -102.104 283.193c-1.33398 121.086 10.1123 246.227 42.7441 362.956c10.2607 36.7168 49.4844 62.0459 86.4141 64.0557c34.7188 1.89062 62.9229 -19.0459 57.8369 -55.3301
c-15.4951 -110.541 -31.5889 -220.057 -36.9121 -331.676c-1.26855 -26.5918 -1.91504 -53.1953 -2.30664 -79.8105c6.53223 20.5273 13.6221 40.9014 21.5889 61.0322c24.1738 61.1035 55.1816 128.348 111.288 166.646c20.8477 14.2324 53.877 28.335 79.0762 16.7822
c25.0088 -11.4639 25.0977 -43 16.3301 -65.2705c-15.7559 -40.0068 -51.4414 -62.7041 -90.4932 -77.2568c15.5371 -12.1338 28.377 -30.1367 35.4727 -46.5029c23.0713 -53.2373 15.834 -109.9 24.6016 -165.408c4.08984 -25.9043 11.6299 -57.4521 46.5742 -48.7031
c26.5508 6.64453 46.7529 36.8701 62.4854 57.3389c34.8965 45.3945 63.0713 95.4072 94.7725 142.983zM249.422 345.666c39.8701 9.83984 95.7764 29.0928 88.7637 70.2021c-5.56055 32.6143 -45.4072 -8.19824 -57.3877 -22.2646
c-12.4189 -14.582 -22.3662 -31.0615 -31.376 -47.9375z" />
    <glyph glyph-name="l" unicode="l" horiz-adv-x="397" 
d="M395.902 291.653c10.0059 20.6875 56.2373 20.9297 42.9531 -7.09082c-39.6689 -83.6641 -80.9443 -169.652 -146.091 -236.933c-52.0693 -53.7764 -161.62 -134.305 -232.777 -63.5752c-34.0371 33.8301 -41.376 91.6016 -48.0625 136.83
c-7.56348 51.1865 -8.70801 103.321 -8.06738 154.999c1.36914 110.843 15.1211 223.518 37.6523 331.937c13.1719 63.374 144.94 91.8154 136.997 8.28711c-16.4492 -173.061 -54.3867 -347.224 -37.1426 -521.902c2.73242 -27.7061 4.94922 -72.6387 42.543 -74.2803
c37.2148 -1.62402 75.2412 48.0391 96.6406 73.9844c48.7441 59.0938 82.2002 129.213 115.354 197.744z" />
    <glyph glyph-name="m" unicode="m" horiz-adv-x="885" 
d="M881.635 284.623c10.249 20.5156 56.5811 20.7578 42.959 -7.0791c-35.4062 -72.3428 -71.3584 -144.845 -120.072 -209.374c-39.1826 -51.8916 -97.0371 -112.188 -169.089 -97.8496c-34.0137 6.76953 -54.6543 44.583 -65.5967 74.3701
c-14.6768 39.959 -8.7666 85.3838 -1.54102 126.351c7.17871 40.7236 17.1436 80.9316 24.209 121.649c3.59863 20.7295 20.3271 78.5967 8.21094 102.634c-29.5205 -8.1748 -49.6514 -43.8008 -64.0791 -67.707c-17.8838 -29.6387 -34.4697 -60.1074 -50.1191 -90.9795
c-27.0186 -53.2969 -51.0205 -108.17 -72.4258 -163.979c-0.954102 -9.33008 -1.95605 -18.666 -3.02344 -28.002c-3.66309 -32.1406 -44.5645 -54.0908 -72.3896 -58.8213c-22.3418 -3.79395 -66.6279 4.19043 -64.5771 36.3066
c4.68262 73.4033 11.8848 146.504 20.8535 219.516c3.99512 32.5078 8.31641 64.9863 12.4482 97.4648c1.62402 12.7627 6.07031 29.3193 4.19141 42.2539c-1.62988 11.1855 0.46875 15.2578 -13.6396 7.91309c-6.18848 -3.21875 -12.2881 -10.1602 -17.208 -14.9561
c-45.0449 -43.9189 -78.0449 -102.503 -107.382 -157.602c-26.7871 -50.3086 -49.1943 -102.598 -67.582 -156.451c-2.17578 -16.8525 -6.17676 -33.2959 -14.1797 -49.3838c-10.4502 -21.0078 -46.8174 -35.4834 -66.1357 -18.1982
c-26.8525 24.0195 -32.0693 61.6309 -37.3506 95.6855c-5.2998 34.1914 -6.48535 68.6914 -6.40234 103.262c0.177734 71.667 7.17285 148.141 31.7969 215.8c11.79 32.3955 41.9385 55.1582 76.9951 57.0674c31.4824 1.71289 55.3115 -16.9893 51.5293 -49.2959
c-7.86621 -67.1377 -22.0518 -133.03 -27.9199 -200.529c-0.901367 -10.3857 -1.58887 -20.8066 -2.19336 -31.2393c11.3994 24.4463 23.6279 48.5186 36.8887 72.0576c33.7764 59.9766 78.1221 142.989 143.653 173.601c27.0361 12.6318 62.377 8.64844 85.3652 -11.4404
c26.9355 -23.5391 34.6836 -67.4873 38.667 -101.021c4.54102 -38.1748 6.09961 -76.2607 5.65527 -114.311c17.8486 38.7021 37.2207 76.7168 58.4424 113.836c33.9893 59.4609 88.3584 141.555 169.444 119.806c86.1064 -23.0947 67.1318 -159.836 60.8545 -225.012
c-4.38086 -45.4893 -5.91016 -91.6426 -13.0654 -136.735c-1.67773 -10.5811 -8.98633 -43.9248 0.907227 -52.959c0.154297 -0.136719 0.249023 -0.237305 0.385742 -0.361328c-0.213867 0.865234 0.135742 1.76074 1.91406 2.27051
c4.49902 1.28027 9.78027 6.14648 13.5684 8.88477c8.53027 6.16504 16.3672 13.1719 23.7949 20.6055c63.7764 63.8359 103.415 152.272 143.237 231.953z" />
    <glyph glyph-name="n" unicode="n" horiz-adv-x="677" 
d="M676.427 272.572c17.0127 16.5566 58.2012 6.03027 35.3262 -16.1338c-70.3213 -68.1514 -116.575 -160.938 -194.922 -220.832c-27.1309 -20.7412 -60.5693 -37.6289 -95.1582 -39.7744c-35.3535 -2.19336 -80.1494 2.78613 -99.4385 36.2725
c-21.127 36.6748 -18.9697 84.8203 -15.8516 125.331c3.70508 48.2041 10.8779 95.875 16.0645 143.913c2.66797 24.6709 7.5166 49.5381 7.90234 74.3457c0.171875 11.0078 2.01562 17.6465 -9.06348 20.3379c-12.1221 2.94629 -22.4424 -8.68359 -30.6816 -16.6562
c-33.2246 -32.1582 -58.7969 -74.3105 -82.2705 -113.789c-39.6211 -66.6338 -71.8203 -137.233 -102.936 -208.165c-2.25879 -15.8564 -6.24219 -31.3574 -13.7939 -46.5381c-10.4502 -21.0078 -46.8174 -35.4834 -66.1357 -18.1982
c-26.8525 24.0195 -32.0693 61.6309 -37.3506 95.6855c-5.2998 34.1914 -6.48535 68.6914 -6.40234 103.262c0.177734 71.667 7.17285 148.141 31.7969 215.8c11.79 32.3955 41.9385 55.1582 76.9951 57.0674c31.4824 1.71289 55.3115 -16.9893 51.5293 -49.2959
c-7.86621 -67.1377 -22.0518 -133.03 -27.9199 -200.529c-1.3457 -15.4834 -2.25879 -31.0498 -3.00586 -46.6221c23.6514 49.6924 49.4072 98.3174 79.5674 144.441c38.2871 58.5488 96.8887 147.916 180.215 129.511c90.8018 -20.0596 86.6289 -160.12 81.1631 -229.345
c-3.58594 -45.4775 -12.0332 -90.6709 -15.3643 -135.994c-1.07324 -14.6123 -9.16504 -35.0332 6.69727 -37.5586c18.2275 -2.89844 41.4463 16.3848 54.3867 26.8711c70.6768 57.2676 113.594 143.285 178.65 206.594z" />
    <glyph glyph-name="o" unicode="o" horiz-adv-x="525" 
d="M550.198 301.398c30.6523 9.68555 27.6768 -26.8857 2.95801 -35.3213c-54.3936 -18.542 -123.352 -39.5498 -190.549 -44.5947c-2.85156 -27.4277 -8.09766 -54.4111 -15.9932 -79.6338c-19.04 -60.8486 -56.5098 -114.133 -112.516 -146.096
c-56.2363 -32.0928 -138.383 -43.373 -196.926 -11.0488c-129.154 71.3164 -76.8066 289.416 0.378906 380.377c17.8125 20.9902 50.1719 34.209 77.6172 29.4316c6.25391 -1.09082 12.6377 -3.65723 18.334 -7.30859c0.788086 22.0215 7 43.7529 19.6377 62.8281
c29.0459 43.8535 85.502 61.3223 132.414 35.2285c51.251 -28.5127 67.0127 -93.3027 74.8193 -146.961c3.68066 -25.2881 5.25195 -51.8857 4.6416 -78.6143c62.917 1.89062 127.18 23.3848 185.183 41.7129zM293.899 177.885
c5.28125 14.4102 9.33789 28.9453 12.4385 43.5752c-58.1748 4.9375 -111.217 26.9238 -147.311 79.3906c-6.08789 8.85059 -11.127 18.3945 -15.1279 28.335c-18.0918 -45.7744 -39.2539 -88.3652 -48.0273 -138.028c-7.34473 -41.5889 -14.8789 -101.151 21.5586 -132.491
c31.2744 -26.8945 76.2129 -16.3848 105.603 7.71777c33.4385 27.416 56.2129 71.542 70.8662 111.501zM312.194 263.315c1.55859 22.0635 0.881836 44.3691 -2.27734 66.96c-5.91016 42.2764 -18.9336 98.7441 -60.1963 120.559
c-51.708 27.333 -72.7637 -37.5049 -65.834 -77.6533c7.49902 -43.4385 39.7637 -76.7227 78.7979 -94.5596c16.1357 -7.37402 32.6924 -12.2939 49.5098 -15.3057z" />
    <glyph glyph-name="o" unicode="&#xf6;" horiz-adv-x="525" 
d="M550.198 301.398c30.6523 9.68555 27.6768 -26.8857 2.95801 -35.3213c-54.3936 -18.542 -123.352 -39.5498 -190.549 -44.5947c-2.85156 -27.4277 -8.09766 -54.4111 -15.9932 -79.6338c-19.04 -60.8486 -56.5098 -114.133 -112.516 -146.096
c-56.2363 -32.0928 -138.383 -43.373 -196.926 -11.0488c-129.154 71.3164 -76.8066 289.416 0.378906 380.377c17.8125 20.9902 50.1719 34.209 77.6172 29.4316c6.25391 -1.09082 12.6377 -3.65723 18.334 -7.30859c0.788086 22.0215 7 43.7529 19.6377 62.8281
c29.0459 43.8535 85.502 61.3223 132.414 35.2285c51.251 -28.5127 67.0127 -93.3027 74.8193 -146.961c3.68066 -25.2881 5.25195 -51.8857 4.6416 -78.6143c62.917 1.89062 127.18 23.3848 185.183 41.7129zM293.899 177.885
c5.28125 14.4102 9.33789 28.9453 12.4385 43.5752c-58.1748 4.9375 -111.217 26.9238 -147.311 79.3906c-6.08789 8.85059 -11.127 18.3945 -15.1279 28.335c-18.0918 -45.7744 -39.2539 -88.3652 -48.0273 -138.028c-7.34473 -41.5889 -14.8789 -101.151 21.5586 -132.491
c31.2744 -26.8945 76.2129 -16.3848 105.603 7.71777c33.4385 27.416 56.2129 71.542 70.8662 111.501zM312.194 263.315c1.55859 22.0635 0.881836 44.3691 -2.27734 66.96c-5.91016 42.2764 -18.9336 98.7441 -60.1963 120.559
c-51.708 27.333 -72.7637 -37.5049 -65.834 -77.6533c7.49902 -43.4385 39.7637 -76.7227 78.7979 -94.5596c16.1357 -7.37402 32.6924 -12.2939 49.5098 -15.3057z" />
    <glyph glyph-name="o" unicode="&#xf5;" horiz-adv-x="525" 
d="M550.198 301.398c30.6523 9.68555 27.6768 -26.8857 2.95801 -35.3213c-54.3936 -18.542 -123.352 -39.5498 -190.549 -44.5947c-2.85156 -27.4277 -8.09766 -54.4111 -15.9932 -79.6338c-19.04 -60.8486 -56.5098 -114.133 -112.516 -146.096
c-56.2363 -32.0928 -138.383 -43.373 -196.926 -11.0488c-129.154 71.3164 -76.8066 289.416 0.378906 380.377c17.8125 20.9902 50.1719 34.209 77.6172 29.4316c6.25391 -1.09082 12.6377 -3.65723 18.334 -7.30859c0.788086 22.0215 7 43.7529 19.6377 62.8281
c29.0459 43.8535 85.502 61.3223 132.414 35.2285c51.251 -28.5127 67.0127 -93.3027 74.8193 -146.961c3.68066 -25.2881 5.25195 -51.8857 4.6416 -78.6143c62.917 1.89062 127.18 23.3848 185.183 41.7129zM293.899 177.885
c5.28125 14.4102 9.33789 28.9453 12.4385 43.5752c-58.1748 4.9375 -111.217 26.9238 -147.311 79.3906c-6.08789 8.85059 -11.127 18.3945 -15.1279 28.335c-18.0918 -45.7744 -39.2539 -88.3652 -48.0273 -138.028c-7.34473 -41.5889 -14.8789 -101.151 21.5586 -132.491
c31.2744 -26.8945 76.2129 -16.3848 105.603 7.71777c33.4385 27.416 56.2129 71.542 70.8662 111.501zM312.194 263.315c1.55859 22.0635 0.881836 44.3691 -2.27734 66.96c-5.91016 42.2764 -18.9336 98.7441 -60.1963 120.559
c-51.708 27.333 -72.7637 -37.5049 -65.834 -77.6533c7.49902 -43.4385 39.7637 -76.7227 78.7979 -94.5596c16.1357 -7.37402 32.6924 -12.2939 49.5098 -15.3057z" />
    <glyph glyph-name="o" unicode="&#xf4;" horiz-adv-x="525" 
d="M550.198 301.398c30.6523 9.68555 27.6768 -26.8857 2.95801 -35.3213c-54.3936 -18.542 -123.352 -39.5498 -190.549 -44.5947c-2.85156 -27.4277 -8.09766 -54.4111 -15.9932 -79.6338c-19.04 -60.8486 -56.5098 -114.133 -112.516 -146.096
c-56.2363 -32.0928 -138.383 -43.373 -196.926 -11.0488c-129.154 71.3164 -76.8066 289.416 0.378906 380.377c17.8125 20.9902 50.1719 34.209 77.6172 29.4316c6.25391 -1.09082 12.6377 -3.65723 18.334 -7.30859c0.788086 22.0215 7 43.7529 19.6377 62.8281
c29.0459 43.8535 85.502 61.3223 132.414 35.2285c51.251 -28.5127 67.0127 -93.3027 74.8193 -146.961c3.68066 -25.2881 5.25195 -51.8857 4.6416 -78.6143c62.917 1.89062 127.18 23.3848 185.183 41.7129zM293.899 177.885
c5.28125 14.4102 9.33789 28.9453 12.4385 43.5752c-58.1748 4.9375 -111.217 26.9238 -147.311 79.3906c-6.08789 8.85059 -11.127 18.3945 -15.1279 28.335c-18.0918 -45.7744 -39.2539 -88.3652 -48.0273 -138.028c-7.34473 -41.5889 -14.8789 -101.151 21.5586 -132.491
c31.2744 -26.8945 76.2129 -16.3848 105.603 7.71777c33.4385 27.416 56.2129 71.542 70.8662 111.501zM312.194 263.315c1.55859 22.0635 0.881836 44.3691 -2.27734 66.96c-5.91016 42.2764 -18.9336 98.7441 -60.1963 120.559
c-51.708 27.333 -72.7637 -37.5049 -65.834 -77.6533c7.49902 -43.4385 39.7637 -76.7227 78.7979 -94.5596c16.1357 -7.37402 32.6924 -12.2939 49.5098 -15.3057z" />
    <glyph glyph-name="o" unicode="&#xf3;" horiz-adv-x="525" 
d="M550.198 301.398c30.6523 9.68555 27.6768 -26.8857 2.95801 -35.3213c-54.3936 -18.542 -123.352 -39.5498 -190.549 -44.5947c-2.85156 -27.4277 -8.09766 -54.4111 -15.9932 -79.6338c-19.04 -60.8486 -56.5098 -114.133 -112.516 -146.096
c-56.2363 -32.0928 -138.383 -43.373 -196.926 -11.0488c-129.154 71.3164 -76.8066 289.416 0.378906 380.377c17.8125 20.9902 50.1719 34.209 77.6172 29.4316c6.25391 -1.09082 12.6377 -3.65723 18.334 -7.30859c0.788086 22.0215 7 43.7529 19.6377 62.8281
c29.0459 43.8535 85.502 61.3223 132.414 35.2285c51.251 -28.5127 67.0127 -93.3027 74.8193 -146.961c3.68066 -25.2881 5.25195 -51.8857 4.6416 -78.6143c62.917 1.89062 127.18 23.3848 185.183 41.7129zM293.899 177.885
c5.28125 14.4102 9.33789 28.9453 12.4385 43.5752c-58.1748 4.9375 -111.217 26.9238 -147.311 79.3906c-6.08789 8.85059 -11.127 18.3945 -15.1279 28.335c-18.0918 -45.7744 -39.2539 -88.3652 -48.0273 -138.028c-7.34473 -41.5889 -14.8789 -101.151 21.5586 -132.491
c31.2744 -26.8945 76.2129 -16.3848 105.603 7.71777c33.4385 27.416 56.2129 71.542 70.8662 111.501zM312.194 263.315c1.55859 22.0635 0.881836 44.3691 -2.27734 66.96c-5.91016 42.2764 -18.9336 98.7441 -60.1963 120.559
c-51.708 27.333 -72.7637 -37.5049 -65.834 -77.6533c7.49902 -43.4385 39.7637 -76.7227 78.7979 -94.5596c16.1357 -7.37402 32.6924 -12.2939 49.5098 -15.3057z" />
    <glyph glyph-name="p" unicode="p" horiz-adv-x="619" 
d="M626.797 288.352c22.8096 16.4023 54.5771 -5.73242 27.416 -25.3711c-47.1143 -34.0488 -100.624 -54.0137 -156.398 -68.0625c-12.875 -69.1885 -48.8916 -138.223 -98.4893 -187.127c-52.7988 -52.0576 -168.034 -109.433 -222.428 -25.999
c-33 50.6172 -6.6748 118.964 34.2744 156.504c46.0527 42.2236 108.336 58.1875 168.74 70.4639c4.70117 23.5098 7.20898 47.5049 7.92578 71.5068c0.97168 32.6143 -11.7021 171.33 -74.459 132.474c-51.8145 -32.0869 -77.2324 -109.142 -97.6475 -162.8
c-24.0078 -63.0947 -43.1426 -127.998 -58.9814 -193.601c-28.0684 -116.255 -46.1777 -234.869 -63.2314 -353.258c-0.716797 -15.7148 -1.23242 -31.417 -1.39258 -47.0957c-0.378906 -37.8965 -64.7012 -70.1787 -87.7305 -32.8223
c-34.4639 55.916 -34.0488 128.359 -36.5977 192.059c-2.67383 66.7646 -1.6543 133.333 1.42773 200.073c6.40234 138.597 18.1035 278.895 47.001 414.753c13.5391 63.6523 147.838 92.5381 138.205 8.3584c-13.7705 -120.352 -31.7256 -240.051 -41.417 -360.841
c12.2354 48.4238 26.4082 96.3789 43.1895 143.665c25.2344 71.1035 52.7861 149.189 108.785 202.421c50.9609 48.4414 134.347 52.8936 185.195 -0.550781c45.9697 -48.3174 57.1084 -123.416 52.5732 -188.586c44.0078 11.3164 86.5693 26.9004 124.039 53.8359z
M348.834 119.374c8.26367 15.6963 15.0264 32.0039 20.4795 48.7197c-28.6611 -6.55566 -56.7764 -14.6885 -83.0479 -26.7393c-22.4365 -10.291 -51.749 -28.3711 -54.7188 -55.8281c-1.93848 -17.9492 7.69434 -45.1279 25.7266 -51.8145
c38.0566 -14.1084 77.9746 59.8525 91.5605 85.6621z" />
    <glyph glyph-name="q" unicode="q" horiz-adv-x="633" 
d="M481.248 98.7227c-16.3311 -14.4219 -35.1797 -28.4082 -51.5518 -43.9209c-0.266602 -3.09473 -0.521484 -6.18945 -0.776367 -9.29004c9.08105 -2.89844 20.9785 -5.64258 24.0732 -6.79297c13.8291 -5.13965 26.9053 -11.9209 39.377 -19.7695
c21.5537 -13.5625 40.9023 -30.3438 57.1387 -49.9824c37.4639 -45.3115 57.9092 -101.317 62.9062 -159.652c8.43555 -98.4365 -17.1484 -212.237 -117.962 -250.157c-123.659 -46.5088 -180.53 91.6611 -198.995 188.337
c-20.208 105.805 -14.3457 218.361 -5.81543 325.043c1.91504 23.9062 4.16211 47.7773 6.65723 71.6133c-14.0547 -30.6582 -29.7812 -60.2021 -48.1279 -87.665c-44.2148 -66.1895 -126.475 -134.638 -209.386 -90.5645c-85.2588 45.3174 -87.416 159.901 -72.543 242.979
c17.4102 97.2744 87.6064 193.156 181.307 228.35c59.04 22.1816 144.198 19.0576 194.223 -24.5c26.3193 57.3809 151.537 79.2842 138.247 -1.69531c-16.5264 -100.688 -33.9004 -201.668 -45.1094 -303.223c17.7422 15.5957 35.4775 31.1914 53.2197 46.7871
c51.7793 45.5254 103.872 90.6709 156.013 135.781c20.2725 17.54 48.7432 -3.0293 25.6602 -23.7471c-42.6973 -38.3291 -85.3174 -76.7354 -128.317 -114.721c-20.0771 -17.7363 -40.1602 -35.4727 -60.2373 -53.209zM229.32 104.618
c37.0186 70.2383 64.4873 145.686 91.1152 220.707c-3.09473 0.942383 -5.98145 2.29395 -8.5127 4.14941c-30.8955 22.585 -65.4844 53.4209 -106.878 48.335c-32.7334 -4.01855 -48.5605 -31.6602 -62.082 -58.6729c-32.5078 -64.9502 -46.082 -151.81 -33.8408 -223.482
c3.9834 -23.3135 15.8809 -70.415 43.4395 -75.6846c32.3184 -6.17676 64.8916 62.1348 76.7588 84.6484zM484.083 -36.1494c-17.6289 15.8564 -37.1299 27.7539 -58.5586 36.4082c-3.1123 -47.5225 -5.27051 -95.1523 -4.57715 -142.776
c0.865234 -59.2363 1.80176 -121.01 16.0635 -178.787c5.73828 -23.2363 12.0752 -59.5078 33.9189 -73.4258c25.6787 -16.3662 50.4453 8.75586 62.9111 29.6689c30.7529 51.5889 34.7129 123.332 26.3311 181.353c-8.11523 56.2129 -33.5986 109.344 -76.0889 147.56z" />
    <glyph glyph-name="r" unicode="r" horiz-adv-x="500" 
d="M523.215 292.839c30.5039 9.67969 26.7471 -26.1221 2.91797 -34.8359c-41.7852 -15.2939 -82.5801 -33.2969 -126.748 -40.6299c-35.9043 -5.95703 -86.1064 -12.7266 -120.997 -0.207031c-36.8887 13.2363 -69.7051 41.583 -79.2959 80.4746
c-10.4805 -23.9951 -20.7236 -48.0918 -30.5049 -72.3779c-25.8809 -64.2627 -48.5547 -129.527 -68.6201 -195.806c-1.81348 -9.59082 -3.78125 -19.1641 -6.0459 -28.7021c-5.9873 -25.1934 -49.5088 -47.4287 -70.3984 -26.5986
c-22.4785 22.4189 -25.7568 61.8975 -28.958 91.9395c-3.81738 35.7617 -5.28125 71.9268 -5.15039 107.867c0.27832 75.751 4.48145 151.407 16.124 226.299c9.69141 62.3662 139.267 87.9678 132.153 7.99023c-4.99707 -56.1836 -11.251 -112.278 -16.124 -168.485
c2.20508 6.50879 4.39258 13.0293 6.65137 19.5205c12.9521 37.2734 26.8174 74.209 41.3525 110.896c12.4658 31.4707 22.0742 65.6855 57.6699 77.168c34.5234 11.1387 60.9258 -12.1572 72.3721 -43.4561c11.6064 -31.7373 4.32715 -68.0684 21.168 -98.5254
c17.665 -31.9443 49.6396 -49.3359 85.4434 -45.708c40.1016 4.06055 78.8809 21.0791 116.99 33.1777z" />
    <glyph glyph-name="s" unicode="s" horiz-adv-x="400" 
d="M417.368 306.567c26.7285 14.8672 41.3418 -16.5488 15.2305 -31.208c-70.1133 -39.3369 -146.179 -65.3242 -220.151 -96.0361c0.841797 -1.22656 1.74316 -2.40039 2.57324 -3.63379c28.4951 -42.2354 45.4482 -93.8662 27.4814 -143.766
c-16.5684 -46.0107 -55.3896 -83.0176 -98.9053 -104.079c-63.3086 -30.6406 -205.249 -37.4219 -208.302 62.7686c-1.33398 43.7529 33.7998 80.1318 64.0674 107.008c20.1367 17.8838 42.0039 33.6934 64.8496 47.9854
c-51.6074 63.1309 -104.702 142.456 -59.1357 223.998c20.0059 35.7979 57.7949 58.0029 96.9414 66.8174c33.8828 7.62891 78.3174 9.77441 95.958 -26.2246c11.4053 -23.2725 -34.375 -44.375 -48.0322 -23.4268c-14.6592 22.4844 -57.6416 -3.04688 -58.7861 -25.4424
c-1.1377 -22.2412 17.0723 -49.0996 29.5322 -66.4736c21.5654 -30.0713 46.6816 -57.2383 69.7646 -86.1182c76.1064 31.6006 154.602 57.6172 226.914 97.8311zM60.6133 -51.3018c34.1084 4.43945 72.0156 37.3037 72.4717 73.2793
c0.432617 33.7471 -23.7285 68.5664 -45.5957 95.5557c-28.1807 -17.416 -55.0391 -37.6299 -76.8652 -61.957c-19.5908 -21.832 -35.1631 -50.1016 -17.6582 -78.0273c13.4795 -21.5 42.8574 -32.0811 67.6475 -28.8506z" />
    <glyph glyph-name="t" unicode="t" horiz-adv-x="464" 
d="M463.116 291.653c10.0117 20.6875 56.2422 20.9326 42.9521 -7.08789c-39.6689 -83.6641 -80.9443 -169.652 -146.091 -236.933c-52.0752 -53.7764 -161.626 -134.305 -232.776 -63.5752c-34.0371 33.8301 -41.376 91.6016 -48.0625 136.83
c-7.56348 51.1865 -8.70801 103.321 -8.06738 154.999c0.841797 67.9443 6.37793 136.576 15.6904 204.496c-32.0986 -3.87109 -63.9248 -3.5332 -95.1758 10.083c-23.4912 10.2373 9.98242 37.1729 27.4639 31.085c23.1475 -8.06152 47.8896 -8.68359 72.9229 -6.06348
c4.86621 31.0195 10.4209 61.8555 16.752 92.3359c13.1719 63.374 144.934 91.8154 136.996 8.28711c-2.40039 -25.2051 -5.27539 -50.4336 -8.3457 -75.6855c17.0957 2.0625 34.2383 3.7041 51.4404 4.5752c23.166 1.16797 47.0195 3.1123 67.749 -8.82031
c24.3213 -14.001 -11.625 -45.833 -30.6709 -34.7188c-24.2148 14.1318 -65.0566 4.83691 -91.832 1.93848c-0.438477 -0.0478516 -0.876953 -0.113281 -1.32129 -0.161133c-17.3564 -135.841 -37.6592 -272.274 -24.1621 -409.033
c2.73242 -27.7061 4.94922 -72.6387 42.543 -74.2803c37.2148 -1.62402 75.2412 48.0391 96.6406 73.9844c48.7441 59.0938 82.2002 129.213 115.354 197.744z" />
    <glyph glyph-name="u" unicode="u" horiz-adv-x="739" 
d="M740.633 292.122c11.3281 18.4824 56.584 18.5312 41.2959 -6.81543c-40.2256 -66.6758 -87.9912 -128.645 -143.683 -183.162c-50.9014 -49.8232 -109.219 -100.742 -180.612 -117.031c-33.166 -7.56934 -70.1133 1.55957 -95.9053 23.9482
c-29.123 25.2822 -38.6367 70.5469 -43.5928 106.86c-4.68848 34.3457 -5.39941 70.4277 -3.12891 106.67c-9.05176 -22.1582 -18.6016 -44.1084 -29.3486 -65.502c-29.959 -59.6387 -73.8721 -138.869 -145.367 -153.125
c-80.5107 -16.0527 -132.995 39.0752 -150.654 112.502c-20.7471 86.29 -1.06055 183.155 14.0908 268.96c11.2803 63.8535 145.111 90.8955 136.392 8.25098c-7.6709 -72.668 -27.3447 -143.665 -30.6816 -216.896c-1.81934 -39.9238 -6.09277 -185.729 66.7236 -111.572
c46.0938 46.9424 74.7129 112.889 99.3008 172.901c12.8516 31.3701 24.5352 63.1963 36.752 94.8145c8.87402 22.9814 15.6436 44.2979 34.4824 60.9375c0.598633 0.533203 1.22656 0.918945 1.84277 1.38086c12.6436 22.2529 37.3799 36.6865 62.2998 40.9189
c22.1045 3.75781 61.8496 -3.99023 61.1201 -34.3643c-1.66016 -68.9395 -19.082 -136.415 -23.6406 -205.177c-2.13379 -32.1465 -2.6084 -64.5479 0.74707 -96.6465c1.77246 -16.9531 7.34473 -53.5693 24.832 -63.1191c23.6455 -12.9102 70.9844 31.625 86.8525 44.8555
c23.4854 19.5732 45.667 40.6758 66.7461 62.8037c42.9521 45.0928 80.5996 94.5361 113.137 147.607z" />
    <glyph glyph-name="u" unicode="&#xfc;" horiz-adv-x="739" 
d="M740.633 292.122c11.3281 18.4824 56.584 18.5312 41.2959 -6.81543c-40.2256 -66.6758 -87.9912 -128.645 -143.683 -183.162c-50.9014 -49.8232 -109.219 -100.742 -180.612 -117.031c-33.166 -7.56934 -70.1133 1.55957 -95.9053 23.9482
c-29.123 25.2822 -38.6367 70.5469 -43.5928 106.86c-4.68848 34.3457 -5.39941 70.4277 -3.12891 106.67c-9.05176 -22.1582 -18.6016 -44.1084 -29.3486 -65.502c-29.959 -59.6387 -73.8721 -138.869 -145.367 -153.125
c-80.5107 -16.0527 -132.995 39.0752 -150.654 112.502c-20.7471 86.29 -1.06055 183.155 14.0908 268.96c11.2803 63.8535 145.111 90.8955 136.392 8.25098c-7.6709 -72.668 -27.3447 -143.665 -30.6816 -216.896c-1.81934 -39.9238 -6.09277 -185.729 66.7236 -111.572
c46.0938 46.9424 74.7129 112.889 99.3008 172.901c12.8516 31.3701 24.5352 63.1963 36.752 94.8145c8.87402 22.9814 15.6436 44.2979 34.4824 60.9375c0.598633 0.533203 1.22656 0.918945 1.84277 1.38086c12.6436 22.2529 37.3799 36.6865 62.2998 40.9189
c22.1045 3.75781 61.8496 -3.99023 61.1201 -34.3643c-1.66016 -68.9395 -19.082 -136.415 -23.6406 -205.177c-2.13379 -32.1465 -2.6084 -64.5479 0.74707 -96.6465c1.77246 -16.9531 7.34473 -53.5693 24.832 -63.1191c23.6455 -12.9102 70.9844 31.625 86.8525 44.8555
c23.4854 19.5732 45.667 40.6758 66.7461 62.8037c42.9521 45.0928 80.5996 94.5361 113.137 147.607z" />
    <glyph glyph-name="u" unicode="&#xfb;" horiz-adv-x="739" 
d="M740.633 292.122c11.3281 18.4824 56.584 18.5312 41.2959 -6.81543c-40.2256 -66.6758 -87.9912 -128.645 -143.683 -183.162c-50.9014 -49.8232 -109.219 -100.742 -180.612 -117.031c-33.166 -7.56934 -70.1133 1.55957 -95.9053 23.9482
c-29.123 25.2822 -38.6367 70.5469 -43.5928 106.86c-4.68848 34.3457 -5.39941 70.4277 -3.12891 106.67c-9.05176 -22.1582 -18.6016 -44.1084 -29.3486 -65.502c-29.959 -59.6387 -73.8721 -138.869 -145.367 -153.125
c-80.5107 -16.0527 -132.995 39.0752 -150.654 112.502c-20.7471 86.29 -1.06055 183.155 14.0908 268.96c11.2803 63.8535 145.111 90.8955 136.392 8.25098c-7.6709 -72.668 -27.3447 -143.665 -30.6816 -216.896c-1.81934 -39.9238 -6.09277 -185.729 66.7236 -111.572
c46.0938 46.9424 74.7129 112.889 99.3008 172.901c12.8516 31.3701 24.5352 63.1963 36.752 94.8145c8.87402 22.9814 15.6436 44.2979 34.4824 60.9375c0.598633 0.533203 1.22656 0.918945 1.84277 1.38086c12.6436 22.2529 37.3799 36.6865 62.2998 40.9189
c22.1045 3.75781 61.8496 -3.99023 61.1201 -34.3643c-1.66016 -68.9395 -19.082 -136.415 -23.6406 -205.177c-2.13379 -32.1465 -2.6084 -64.5479 0.74707 -96.6465c1.77246 -16.9531 7.34473 -53.5693 24.832 -63.1191c23.6455 -12.9102 70.9844 31.625 86.8525 44.8555
c23.4854 19.5732 45.667 40.6758 66.7461 62.8037c42.9521 45.0928 80.5996 94.5361 113.137 147.607z" />
    <glyph glyph-name="u" unicode="&#xfa;" horiz-adv-x="739" 
d="M740.633 292.122c11.3281 18.4824 56.584 18.5312 41.2959 -6.81543c-40.2256 -66.6758 -87.9912 -128.645 -143.683 -183.162c-50.9014 -49.8232 -109.219 -100.742 -180.612 -117.031c-33.166 -7.56934 -70.1133 1.55957 -95.9053 23.9482
c-29.123 25.2822 -38.6367 70.5469 -43.5928 106.86c-4.68848 34.3457 -5.39941 70.4277 -3.12891 106.67c-9.05176 -22.1582 -18.6016 -44.1084 -29.3486 -65.502c-29.959 -59.6387 -73.8721 -138.869 -145.367 -153.125
c-80.5107 -16.0527 -132.995 39.0752 -150.654 112.502c-20.7471 86.29 -1.06055 183.155 14.0908 268.96c11.2803 63.8535 145.111 90.8955 136.392 8.25098c-7.6709 -72.668 -27.3447 -143.665 -30.6816 -216.896c-1.81934 -39.9238 -6.09277 -185.729 66.7236 -111.572
c46.0938 46.9424 74.7129 112.889 99.3008 172.901c12.8516 31.3701 24.5352 63.1963 36.752 94.8145c8.87402 22.9814 15.6436 44.2979 34.4824 60.9375c0.598633 0.533203 1.22656 0.918945 1.84277 1.38086c12.6436 22.2529 37.3799 36.6865 62.2998 40.9189
c22.1045 3.75781 61.8496 -3.99023 61.1201 -34.3643c-1.66016 -68.9395 -19.082 -136.415 -23.6406 -205.177c-2.13379 -32.1465 -2.6084 -64.5479 0.74707 -96.6465c1.77246 -16.9531 7.34473 -53.5693 24.832 -63.1191c23.6455 -12.9102 70.9844 31.625 86.8525 44.8555
c23.4854 19.5732 45.667 40.6758 66.7461 62.8037c42.9521 45.0928 80.5996 94.5361 113.137 147.607z" />
    <glyph glyph-name="v" unicode="v" horiz-adv-x="599" 
d="M603.724 280.669c15.0449 17.5762 53.3525 8.51758 33.9092 -15.4844c-41.9805 -51.8438 -101.412 -95.0391 -168.982 -97.1201c-1.81934 -4.08398 -3.54395 -8.22168 -5.43457 -12.2705c-30.7773 -65.7803 -72.0527 -125.146 -135.396 -162.58
c-66.3076 -39.1885 -147.826 -34.9082 -203.873 20.5342c-123.469 122.136 -125.336 306.483 -107.256 467.476c3.6875 32.8516 45.5967 55.3057 74.0029 60.1309c22.7334 3.86523 68.2344 -4.2793 66.0117 -37.1133c-8.95117 -132.367 -22.1699 -273.418 41.127 -395.577
c20.9668 -40.457 54.9502 -95.5439 108.3 -81.0508c51.0615 13.8711 85.9883 82.8643 107.352 126.332c3.14746 6.39648 6.14648 12.8574 9.05078 19.3545c-74.1084 21.458 -102.384 122.082 -99.8643 190.127c2.68555 72.4785 25.8271 153.024 68.8984 211.988
c29.3369 40.166 111.271 106.646 150.009 39.0752c17.3623 -30.291 16.5859 -73.2852 15.0684 -106.652c-1.77832 -39.0576 -8.37598 -77.6055 -17.208 -115.638c-13.9238 -59.9893 -30.1006 -120.707 -52.0098 -178.787c45.1992 -5.8623 87.1377 33.207 116.296 67.2559z
M445.869 232.63c10.5635 30.3379 19.6133 61.2324 28.1611 92.1572c17.2559 62.4961 34.5947 126.842 33.9307 192.172c-0.201172 19.5498 2.27051 69.6152 -19.6797 81.0205c-23.0469 11.9736 -52.2109 -37.6592 -60.2197 -52.3066
c-29.1943 -53.3672 -37.9551 -113.599 -33.0703 -173.646c3.81152 -46.8525 12.4424 -107.02 50.8779 -139.396z" />
    <glyph glyph-name="w" unicode="w" horiz-adv-x="816" 
d="M845.65 307.777c24.416 7.55762 25.3701 -19.1475 7.90723 -29.0527c-37.8965 -21.4883 -77.6602 -26.1123 -114.821 -18.5957c-0.486328 -1.21484 -0.936523 -2.44824 -1.42871 -3.66309c-24.541 -60.6465 -49.959 -123.683 -89.9951 -176.019
c-38.0029 -49.6748 -98.2705 -94.7793 -164.383 -87.4707c-66.4443 7.34473 -106.913 66.1777 -124.169 125.947c-5.82715 20.1777 -9.80469 40.54 -12.4961 61.0205c-6.79297 -29.4014 -14.6172 -58.5186 -25.3164 -86.8594
c-26.1416 -69.2363 -74.915 -145.219 -158.318 -142.599c-98.7803 3.10645 -140.855 88.0811 -156.825 173.944c-19.2891 103.712 -11.1973 213.44 7.16113 316.56c5.39453 30.3145 40.3389 50.4746 67.873 55.1514c20.7002 3.52148 62.7754 -3.92383 60.5469 -34.0371
c-6.09375 -82.2949 -15.5664 -165.136 -13.6045 -247.757c1.41699 -59.7041 -3.45605 -156.007 49.2178 -197.815c62.1406 -49.3252 102.159 89.8584 113.321 129.723c19.7812 70.6709 30.7061 143.333 57.5762 211.965
c0.225586 0.581055 0.586914 1.12012 0.889648 1.67773c24.2441 56.2363 132.876 77.4277 126.16 1.90234c-5.26367 -59.1172 -10.4922 -119.456 -3.16504 -178.609c4.41602 -35.6787 11.2334 -108.856 53.5518 -122.176c39.0703 -12.2939 81.6973 52.5264 100.44 78.8281
c29.4961 41.3936 52.5547 86.6699 71.5469 133.713c0.0419922 0.0947266 0.0771484 0.189453 0.112305 0.28418c-68.3057 32.1699 -119.539 105.567 -118.531 185.242c0.764648 60.3145 25.6611 119.159 67.2324 162.764c31.2871 32.8105 91.418 65.4131 130.132 24.0967
c41.8682 -44.6777 26.3193 -131.804 18.1924 -186.001c-8.12695 -54.209 -22.1162 -107.238 -40.3145 -158.852c29.834 -6.47266 60.3916 -2.94531 91.5068 6.6875zM713.438 316.774c11.7314 34.0137 21.4463 68.7568 28.832 103.92
c10.54 50.1484 20.6709 105.3 12.3662 156.444c-4.59961 28.3291 -19.668 65.1523 -54.7783 44.5c-19.4961 -11.4639 -35.0332 -34.8789 -45.7686 -54.1201c-23.1475 -41.4766 -32.4541 -90.0068 -22.2588 -136.735c10.2021 -46.7402 39.6689 -90.2207 81.6074 -114.009z
" />
    <glyph glyph-name="x" unicode="x" horiz-adv-x="492" 
d="M494.168 287.954c8.53027 19.1582 49.9688 19.6094 39.0791 -6.44922c-33.0713 -79.1055 -67.4229 -158.792 -122.201 -225.717c-51.1387 -62.4785 -132.142 -119.663 -216.837 -99.0762c-69.9951 17.0127 -115.235 81.6494 -143.185 146.742
c-7.52832 -9.10547 -14.9795 -18.2695 -22.3066 -27.541c-14.2266 -18.0029 -27.9082 -36.3848 -40.9375 -55.2705c-13.6631 -19.8105 -35.418 -44.1201 -37.748 -68.4951c-1.62402 -16.9951 -42.5674 -27.5996 -41.7607 -6.86426
c1.64746 42.4365 38.0908 84.2686 62.4062 117.203c20.6104 27.9199 42.6611 54.7129 65.0801 81.1924c-31.0498 93.2139 -31.2871 190.168 -22.6084 286.98c2.71484 30.3262 42.7393 51.2988 68.5195 55.6797c21.8496 3.7168 62.1699 -3.97754 61.1211 -34.3633
c-1.90918 -55.2588 -4.16797 -117.411 0.935547 -178.692c35.8984 46.6338 68.2578 95.6562 91.9863 150.298c9.08691 20.9307 54.6123 21.043 42.3955 -7.00098c-31.4941 -72.3184 -77.9385 -135.751 -127.892 -196.208
c11.1855 -66.9717 34.3037 -130.084 80.1191 -178.591c111.934 -118.496 229.926 170.055 263.833 246.173z" />
    <glyph glyph-name="y" unicode="y" horiz-adv-x="589" 
d="M589.221 296.26c10.7646 19.6387 56.6338 20.1689 42.4014 -6.99805c-43.4561 -82.9238 -109.225 -147.524 -183.061 -202.445c-6.33691 -80.3623 -16.6689 -160.404 -37.8965 -238.343c-37.3389 -137.073 -116.314 -280.555 -267.027 -312.79
c-58.4775 -12.5078 -128.247 -6.93555 -177.667 29.4785c-52.7744 38.8857 -65.2646 110.771 -43.2783 170.298c23.2783 63.0234 77.8613 110.144 131.549 147.275c64.6836 44.7363 132.391 84.6299 200.353 124.114c21.1387 12.2764 42.3838 24.7305 63.4746 37.5518
c2.69727 50.9961 3.25488 102.094 4.00195 153.186c-7.28516 -17.9375 -15.0684 -35.6855 -23.5039 -53.1543c-32.917 -68.1631 -72.3779 -137.689 -149.925 -159.444c-88.1631 -24.7305 -142.781 61.0322 -156.693 136.03
c-7.61133 41.0322 -8.06738 82.8818 -5.8623 124.418c2.60254 48.9453 6.41992 97.8906 21.4287 144.731c9.56738 29.8701 36.6924 49.2363 66.9062 54.3701c20.498 3.47949 61.7549 -3.87109 59.6807 -33.5576c-5.12793 -73.2793 -20.6709 -144.958 -23.7061 -218.593
c-1.2627 -30.7471 -0.96582 -63.2666 5.60254 -93.4512c3.97754 -18.2695 16.0049 -65.8936 39.3486 -69.4561c29.6982 -4.53516 60.2793 52.0098 71.9688 72.1699c16.4912 28.4414 31.1152 58.0332 44.1445 88.2109c27.499 63.6758 46.2363 130.968 59.3604 198.995
c0.0351562 0.34375 0.0585938 0.693359 0.09375 1.03711c5.22266 50.7656 125.473 85.6445 127.203 20.9131c2.43066 -91.0439 -0.40918 -182.895 -6.07617 -273.862c54.4697 44.5059 102.438 95.9473 137.18 159.315zM309.728 -52.3662
c2.19922 17.3213 3.93457 34.6602 5.35742 52.0166c-108.128 -63.4092 -237.288 -123.185 -306.832 -231.384c-33.1953 -51.6484 -53.96 -125.687 3.63379 -168.402c50.8604 -37.7188 115.414 -24.6357 162.948 11.5059c100.802 76.6455 119.996 219.096 134.893 336.264z
" />
    <glyph glyph-name="y" unicode="&#xff;" horiz-adv-x="589" 
d="M589.221 296.26c10.7646 19.6387 56.6338 20.1689 42.4014 -6.99805c-43.4561 -82.9238 -109.225 -147.524 -183.061 -202.445c-6.33691 -80.3623 -16.6689 -160.404 -37.8965 -238.343c-37.3389 -137.073 -116.314 -280.555 -267.027 -312.79
c-58.4775 -12.5078 -128.247 -6.93555 -177.667 29.4785c-52.7744 38.8857 -65.2646 110.771 -43.2783 170.298c23.2783 63.0234 77.8613 110.144 131.549 147.275c64.6836 44.7363 132.391 84.6299 200.353 124.114c21.1387 12.2764 42.3838 24.7305 63.4746 37.5518
c2.69727 50.9961 3.25488 102.094 4.00195 153.186c-7.28516 -17.9375 -15.0684 -35.6855 -23.5039 -53.1543c-32.917 -68.1631 -72.3779 -137.689 -149.925 -159.444c-88.1631 -24.7305 -142.781 61.0322 -156.693 136.03
c-7.61133 41.0322 -8.06738 82.8818 -5.8623 124.418c2.60254 48.9453 6.41992 97.8906 21.4287 144.731c9.56738 29.8701 36.6924 49.2363 66.9062 54.3701c20.498 3.47949 61.7549 -3.87109 59.6807 -33.5576c-5.12793 -73.2793 -20.6709 -144.958 -23.7061 -218.593
c-1.2627 -30.7471 -0.96582 -63.2666 5.60254 -93.4512c3.97754 -18.2695 16.0049 -65.8936 39.3486 -69.4561c29.6982 -4.53516 60.2793 52.0098 71.9688 72.1699c16.4912 28.4414 31.1152 58.0332 44.1445 88.2109c27.499 63.6758 46.2363 130.968 59.3604 198.995
c0.0351562 0.34375 0.0585938 0.693359 0.09375 1.03711c5.22266 50.7656 125.473 85.6445 127.203 20.9131c2.43066 -91.0439 -0.40918 -182.895 -6.07617 -273.862c54.4697 44.5059 102.438 95.9473 137.18 159.315zM309.728 -52.3662
c2.19922 17.3213 3.93457 34.6602 5.35742 52.0166c-108.128 -63.4092 -237.288 -123.185 -306.832 -231.384c-33.1953 -51.6484 -53.96 -125.687 3.63379 -168.402c50.8604 -37.7188 115.414 -24.6357 162.948 11.5059c100.802 76.6455 119.996 219.096 134.893 336.264z
" />
    <glyph glyph-name="y" unicode="&#xfd;" horiz-adv-x="589" 
d="M589.221 296.26c10.7646 19.6387 56.6338 20.1689 42.4014 -6.99805c-43.4561 -82.9238 -109.225 -147.524 -183.061 -202.445c-6.33691 -80.3623 -16.6689 -160.404 -37.8965 -238.343c-37.3389 -137.073 -116.314 -280.555 -267.027 -312.79
c-58.4775 -12.5078 -128.247 -6.93555 -177.667 29.4785c-52.7744 38.8857 -65.2646 110.771 -43.2783 170.298c23.2783 63.0234 77.8613 110.144 131.549 147.275c64.6836 44.7363 132.391 84.6299 200.353 124.114c21.1387 12.2764 42.3838 24.7305 63.4746 37.5518
c2.69727 50.9961 3.25488 102.094 4.00195 153.186c-7.28516 -17.9375 -15.0684 -35.6855 -23.5039 -53.1543c-32.917 -68.1631 -72.3779 -137.689 -149.925 -159.444c-88.1631 -24.7305 -142.781 61.0322 -156.693 136.03
c-7.61133 41.0322 -8.06738 82.8818 -5.8623 124.418c2.60254 48.9453 6.41992 97.8906 21.4287 144.731c9.56738 29.8701 36.6924 49.2363 66.9062 54.3701c20.498 3.47949 61.7549 -3.87109 59.6807 -33.5576c-5.12793 -73.2793 -20.6709 -144.958 -23.7061 -218.593
c-1.2627 -30.7471 -0.96582 -63.2666 5.60254 -93.4512c3.97754 -18.2695 16.0049 -65.8936 39.3486 -69.4561c29.6982 -4.53516 60.2793 52.0098 71.9688 72.1699c16.4912 28.4414 31.1152 58.0332 44.1445 88.2109c27.499 63.6758 46.2363 130.968 59.3604 198.995
c0.0351562 0.34375 0.0585938 0.693359 0.09375 1.03711c5.22266 50.7656 125.473 85.6445 127.203 20.9131c2.43066 -91.0439 -0.40918 -182.895 -6.07617 -273.862c54.4697 44.5059 102.438 95.9473 137.18 159.315zM309.728 -52.3662
c2.19922 17.3213 3.93457 34.6602 5.35742 52.0166c-108.128 -63.4092 -237.288 -123.185 -306.832 -231.384c-33.1953 -51.6484 -53.96 -125.687 3.63379 -168.402c50.8604 -37.7188 115.414 -24.6357 162.948 11.5059c100.802 76.6455 119.996 219.096 134.893 336.264z
" />
    <glyph glyph-name="z" unicode="z" horiz-adv-x="508" 
d="M512.797 283.076c23.6455 16.1533 56.4619 -6.49805 28.1035 -25.9941c-67.8076 -46.6455 -130.126 -100.025 -189.949 -156.238c21.0732 -34.6357 32.0635 -75.6973 34.832 -116.587c8.58887 -126.913 -56.1426 -253.945 -166.867 -317.366
c-73.7471 -42.2412 -240.59 -50.3086 -209.345 78.2168c13.6104 55.9932 51.4297 104.701 87.0732 148.578c40.1016 49.3662 83.5693 95.6143 128.62 140.47c-4.83691 7.35645 -10.4385 14.25 -17.0303 20.4561c-27.4219 25.8389 -48.916 25.2939 -79.0762 7.68848
c-23.1064 -13.4854 -62.8701 -16.082 -83.5879 3.49707c-20.7295 19.585 -12.709 51.5352 4.69531 70.374c75.5312 81.7383 139.817 172.771 200.921 265.492c7.2793 11.043 20.3916 25.8506 24.583 38.1982c5.88672 3.76367 6.36133 6.99414 1.43555 9.69727
c-7.41602 -1.22656 -14.7959 -2.66113 -22.1406 -4.29102c-24.7959 -5.23438 -49.2891 -11.8438 -73.8594 -18.0322c-54.292 -13.6689 -108.91 -25.6611 -165.218 -24.0137c-31.085 0.907227 -14.9736 37.2559 8.80273 36.7637
c72.8936 -1.51758 141.317 21.4346 211.354 38.3047c43.2725 10.4209 103.007 22.5078 110.518 -38.6611c3.82324 -31.1445 -8.60742 -63.5635 -20.2734 -91.667c-13.3438 -32.1582 -27.9795 -63.4863 -45.4902 -93.5938
c-14.126 -24.2861 -29.2539 -47.8311 -45.1816 -70.8125c21.3574 -4.35059 42.1465 -12.5488 61.667 -25.7441c11.0312 -7.45117 20.9014 -16.0049 29.7158 -25.3945c58.6133 54.1797 119.711 105.591 185.698 150.659zM170.285 -275.675
c58.584 52.6738 86.042 142.332 81.2578 219.108c-1.07324 17.2793 -3.64551 34.9619 -8.61328 51.7793c-51.6191 -52.1113 -101.661 -106.7 -140.813 -168.343c-17.3213 -27.2734 -57.9326 -91.4062 -34.666 -124.323c24.0254 -33.9961 81.4717 2.57227 102.835 21.7783z
" />
    <glyph glyph-name="braceleft" unicode="{" horiz-adv-x="490" 
d="M404.983 -162.286c41.1387 8.44727 46.2686 -32.7041 13.5771 -49.9365c-53.7295 -28.3164 -117.779 -25.459 -171.592 1.58984c-57.9199 29.1113 -89.3311 79.8467 -105.129 141.104c-16.7871 65.0811 -11.0791 133.736 -8.29297 200.139
c1.44043 34.3574 3.39648 69.2188 -1.31055 103.428c-1.2207 8.84375 -2.89844 21.8555 -8.6543 29.2236c-8.23926 10.5518 -18.0557 7.23828 -30.2969 5.99902c-36.6035 -3.71094 -58.6367 35.8037 -30.5508 62.6387c77.8076 74.3398 111.53 177.092 154.862 272.813
c22.709 50.1611 50.9307 100.369 87.8965 141.543c28.6729 31.9443 63.6113 62.2471 108.94 60.9785c32.4961 -0.913086 15.418 -37.8369 -9.16406 -38.2695c-49.0996 -0.859375 -62.7871 -64.043 -76.4209 -100.955c-16.6514 -45.0811 -31.2754 -90.9385 -47.5889 -136.161
c-23.3496 -64.7373 -51.4766 -128.953 -91.7793 -184.751c26.5859 -13.3076 45.4004 -38.3105 54.8906 -75.2051c16.6152 -64.5947 10.9131 -131.667 12.7207 -197.578c1.64746 -59.9473 10.9658 -117.903 40.9131 -170.66
c20.4033 -35.9521 61.8027 -75.2178 106.979 -65.9404z" />
    <glyph glyph-name="verticalbar" unicode="|" horiz-adv-x="473" 
d="M375.568 739.711c8.39355 9.88184 49.1348 22.5381 47.3857 -2.16895c-2.81543 -39.6445 -18.708 -78.9814 -31.8613 -116.231c-13.8232 -39.1406 -26.6328 -78.6191 -39.8398 -117.968c-26.6514 -79.4375 -49.9238 -159.877 -72.3008 -240.607
c-45.7207 -164.928 -76.2012 -332.227 -104.731 -500.771c-9.82227 -58.0449 -133.339 -82.0645 -123.683 -7.48145c22.2168 171.62 65.6611 341.693 117.037 506.716c25.9932 83.5039 56.9893 165.497 89.6748 246.595c31.2041 77.416 63.7354 167.666 118.318 231.917z
" />
    <glyph glyph-name="braceright" unicode="}" horiz-adv-x="495" 
d="M432.979 346.819c40.6699 -38.5723 -35.7764 -80.1885 -68.1777 -76.9346c-0.249023 0.0537109 -0.503906 0.0595703 -0.75293 0.107422c-0.46875 -10.2021 -6.04688 -26.9062 -6.48535 -34.873c-1.92676 -34.9326 1.01367 -70.1787 2.38867 -105.081
c2.51367 -63.7471 5.09863 -130.589 -14.7412 -192.107c-20.9844 -65.0752 -62.8105 -118.863 -125.324 -148.686c-49.1475 -23.4443 -108.573 -32.123 -157.453 -3.74121c-34.6836 20.1367 11.4697 58.1514 37.7002 53.2783
c120.114 -22.3184 135.076 149.053 135.366 229.931c0.231445 65.3242 -4.56445 137.222 18.2637 199.617c10.1426 27.7236 26.1416 48.6484 46.1182 63.3613c-41.0908 57.0898 -69.1172 122.71 -92.4072 189.367c-16.9414 48.4775 -32.9053 97.2393 -49.7344 145.746
c-13.1357 37.8662 -29.1758 101.258 -79.959 102.159c-32.5674 0.581055 -15.3232 37.5879 9.16406 38.2695c45.5078 1.2627 78.5674 -26.959 107.637 -59.3008c35.1221 -39.0762 62.9883 -85.5381 84.3047 -133.41c41.8799 -94.0615 77.7373 -195.284 154.093 -267.703z
" />
    <glyph glyph-name="nonbreakingspace" unicode="&#xa0;" horiz-adv-x="377" 
 />
    <glyph glyph-name="exclamdown" unicode="&#xa1;" horiz-adv-x="248" 
d="M186.322 98.1143c-0.640625 -49.1885 0.0166016 -98.0635 1.79492 -147.217c1.67773 -46.3428 14.7305 -100.451 -14.8545 -139.539c-11.375 -15.0332 -34.7773 -20.582 -51.9326 -14.3574c-42.4307 15.4004 -48.9688 88.0156 -56.0703 126.872
c-8.60156 47.0371 -13.1777 95.9414 -14.541 143.725c-2.88086 100.979 2.92285 200.922 17.001 300.911c4.31543 30.6582 41.7666 51.3398 68.8447 55.9395c22.2822 3.78809 62.0576 -4.00684 61.4111 -34.5225c-2.0625 -97.3691 -10.3906 -194.431 -11.6533 -291.812z
M169.083 542.974c-5.07422 -40.0244 -90.7881 -55.8359 -84.3564 -5.10645c2.31738 18.2578 3.61523 36.4502 4.75977 54.7969c1.1084 17.6533 13.1006 29.6514 29.1406 35.8164c12.5488 4.81934 34.8252 5.9043 41.4229 -9.41895
c10.6934 -24.8369 12.4062 -49.4727 9.0332 -76.0879z" />
    <glyph glyph-name="cent" unicode="&#xa2;" horiz-adv-x="656" 
d="M541.192 24.918c29.3662 23.2607 88.8457 2.28223 54.1504 -35.5723c-69.2959 -75.6201 -166.979 -122.111 -267.977 -138.062c-0.189453 -8.18652 -0.467773 -16.3672 -0.598633 -24.5537c-0.337891 -20.9961 -0.509766 -41.998 -0.498047 -63
c0.00585938 -14.7539 -3.82324 -37.5459 5.85059 -50.1543c15.833 -20.6348 -25.4297 -47.3213 -39.3535 -29.7393c-20.9307 26.4316 -15.1338 63.5576 -15.377 95.4727c-0.171875 22.1934 -0.118164 44.3867 0.101562 66.5801
c-48.2871 -2.34766 -96.8652 4.59961 -137.726 32.2646c-42.2354 28.6016 -65.7979 71.4766 -78.0918 120.066c-24.8672 98.2939 -7.07812 212.326 25.9219 306.743c32.8164 93.8721 89.8477 186.061 162.759 254.075c30.6816 28.625 74.6357 56.4141 118.122 59.6865
c2.40625 10.8594 4.73633 21.7363 7.23828 32.5781c5.4834 23.7705 57.9912 32.9346 51.0791 3.08789c-3.10059 -13.4023 -6.04102 -26.835 -9.00488 -40.2676c22.6738 -6.09375 42.7812 -18.625 51.9453 -41.7783c8.20996 -20.7412 -32.502 -40.8008 -42.2061 -20.5869
c-5.18652 10.8066 -11.5293 17.3867 -18.6963 20.6113c-26.6748 -127.417 -47.1494 -256.079 -60.7773 -385.583c-8.39355 -79.7637 -13.8291 -159.711 -17.4688 -239.818c-0.0712891 -1.62988 -0.119141 -3.25977 -0.19043 -4.88965
c77.5645 0.106445 150.357 34.9678 210.797 82.8398zM293.97 149.597c12.958 135.924 33.4502 270.985 60.7832 404.716c-47.2207 -39.2178 -97.9092 -122.965 -108.271 -144.328c-38.8271 -80.0664 -60.167 -171.081 -62.4316 -259.902
c-2.05078 -80.5166 10.1719 -179.604 95.9883 -202.516c2.70312 67.4521 7.52832 134.845 13.9307 202.03z" />
    <glyph glyph-name="sterling" unicode="&#xa3;" horiz-adv-x="471" 
d="M403.663 -2.39648c35.2646 -4.02539 10.0459 -45.6299 -11.875 -50.0576c-87.7188 -17.7178 -176.256 -33.9893 -255.741 -77.3037c-29.7217 -16.1943 -98.1758 -10.083 -84.1865 39.3545c11.4287 40.3799 29.0576 78.2822 39.2529 119.172
c10.3262 41.4229 16.793 83.8955 21.1201 126.344c3.52734 34.624 4.78418 69.4736 6.20703 104.293c-10.6104 -1.83203 -21.2266 -3.62793 -31.8252 -5.54883c-33.1123 -5.99902 -31.5352 32.3535 -3.15332 37.6885c12.2412 2.2998 24.5059 4.46973 36.7705 6.66895
c2.16992 39.9707 5.75 79.7812 14.4932 119.064c16.7754 75.3828 55.1279 164.607 128.093 201.525c50.2314 25.4121 127.079 15.3057 143.202 -47.1074c4.75977 -18.418 -37.0664 -35.751 -43.9961 -16.4561c-10.2607 28.5713 -35.418 32.833 -53.5742 9.89258
c-15.9512 -20.1543 -25.5781 -46.7109 -32.3418 -71.2637c-15.7676 -57.2383 -20.6816 -114.963 -22.6025 -173.837c16.4141 2.4248 32.8457 4.78418 49.2891 7.01855c12.1699 1.6543 21.6836 -7.20215 19.9941 -19.1289
c-1.89062 -13.3438 -18.2812 -20.6465 -29.876 -22.1465c-13.4912 -1.74316 -26.9648 -3.60449 -40.4385 -5.47754c-2.30566 -96.9961 -6.40137 -201.905 -39.7031 -294.497c62.9707 12.1221 126.801 19.1172 190.892 11.8027z" />
    <glyph glyph-name="currency" unicode="&#xa4;" horiz-adv-x="645" 
d="M588.551 489.05c12.8154 -12.1104 3.50195 -32.9102 -9.24316 -41.1738c-24.3984 -15.833 -50.7178 -31.6426 -73.1133 -50.4873c23.0117 -42.0273 25.8926 -94.7783 9.51465 -142.509c-12.8984 -37.582 -33.4619 -71.9219 -59.752 -101.004
c12.8867 -11.5293 27.5762 -20.9189 40.5049 -32.5137c15.1221 -13.5625 26.4502 -28.2988 38.6084 -44.5586c19.6865 -26.3311 -27.8604 -56.1064 -49.5205 -37.416c-15.4238 13.3135 -29.6387 25.7852 -42.1699 41.8672
c-9.22949 11.8496 -16.7461 25.1807 -25.5723 37.3447c-23.9365 -18.4824 -50.7598 -33.3438 -79.7588 -43.4209c-55.9521 -19.4492 -123.138 -16.918 -170.66 16.0518c-2.7627 -2.95215 -5.40039 -5.74414 -7.60547 -8.29297
c-13.7461 -15.8984 -26.9297 -32.3477 -40.1963 -48.6494c-12.0752 -14.8369 -38.2637 -24.0186 -56.2783 -15.5596c-18.6484 8.76074 -15.3877 29.6562 -4.33789 43.2305c16.4434 20.208 34.6064 38.3408 53.8125 55.9287c4.77734 4.375 10.5508 9.05176 16.8574 13.2422
c-2.82715 4.62402 -5.42969 9.50293 -7.78906 14.6426c-36.1123 78.7207 -17.6357 177.714 17.1064 253.275c3.52734 7.6709 8.92773 14.2686 15.4365 19.7871c-9.75098 21.9268 -21.1797 42.9053 -34.3574 62.9648c-6.72168 10.2373 6.83496 23.1602 14.748 27.0195
c10.3975 5.06836 23.3672 5.05664 30.374 -5.01465c13.9062 -19.9883 26.0586 -40.9492 36.4971 -62.9473c0.432617 -0.918945 0.741211 -1.83789 0.990234 -2.75098c15.0566 1.2627 29.4082 -1.49414 39.2656 -8.69629c17.3564 17.3389 37.4219 30.6699 64.3105 39.2773
c44.4521 14.2266 97.2393 9.57324 138.858 -11.7842c14.3691 -7.37402 26.7402 -16.6572 37.2441 -27.3271c5.58398 6.74023 11.1201 13.5039 17.2793 19.7578c12.4307 12.6201 25.7324 24.4814 39.0107 36.1885c11.9863 10.5635 37.2324 15.5312 49.9355 3.52734z
M365.772 189.61c43.7168 40.6582 77.2148 109.473 47.3809 167.404c-29.6387 57.5527 -122.657 73.5996 -163.831 20.0127c-0.314453 -0.397461 -0.652344 -0.783203 -1.00195 -1.15625c-20.8008 -54.8018 -37.9795 -137.643 -3.47949 -189.309
c30.1426 -45.1396 87.8311 -27.7354 120.932 3.04785z" />
    <glyph glyph-name="yen" unicode="&#xa5;" horiz-adv-x="634" 
d="M565.73 201.34c33.2188 0.948242 15.8906 -38.791 -9.39746 -39.2471c-17.0068 -0.320312 -34.0137 -0.841797 -51.0146 -1.42285c-5.3584 -33.8945 -11.4404 -67.6885 -17.6582 -101.405c-9.6084 -52.0928 -17.5928 -106.616 -36.5322 -156.273
c-12.6318 -33.124 -39.5439 -54.6953 -74.6484 -60.6582c-23.3555 -3.96582 -68.2939 4.32715 -66.5869 37.4395c3.36133 65.2764 22.4727 129.45 36.5449 193.025c5.91016 26.7041 11.6367 53.4678 17.2266 80.2676c-15.6377 -1.12598 -31.2695 -2.26367 -46.8887 -3.56152
c-29.7451 -2.47168 -13.082 32.2529 8.32324 34.7607c15.3174 1.7959 30.6348 3.39648 45.9639 4.9082c1.71875 8.5127 3.46191 17.0186 5.13965 25.5371c-18.9688 -1.79004 -37.9316 -3.57422 -56.9004 -5.3584c-30.2373 -2.85156 -13.8828 33.5088 8.55957 35.7617
c18.4111 1.84961 36.8291 3.69922 55.2402 5.54883c0.835938 4.41602 1.71289 8.82617 2.53711 13.2422c10.3438 55.4658 20.2842 111.501 26.668 167.583c3.10645 27.291 4.09082 54.6533 4.31641 82.1104c0.106445 12.9102 -0.0771484 25.8213 -0.930664 38.708
c-0.106445 1.67188 -0.432617 3.87109 -0.799805 6.23633c-6.87598 -9.29492 -13.0293 -19.1943 -19.2178 -28.9395c-12.626 -19.8877 -24.7363 -40.125 -36.5625 -60.499c-25.3887 -43.7529 -51.1748 -86.4688 -80.8135 -127.519
c-30.3262 -42.0098 -68.9277 -79.6514 -124.067 -79.7754c-55.0986 -0.130859 -85.3477 43.4199 -97.0078 92.2705c-12.1875 51.0557 -6.93555 106.48 1.01367 157.737c6.41992 41.376 18.8271 115.318 73.2852 116.314c7.26172 0.130859 18.7852 -1.70703 21.542 -10.0771
c11.3047 -18.5713 6.91797 -52.5078 7.23828 -73.2197c0.444336 -28.8799 1.70703 -57.5938 3.94141 -86.4023c1.97363 -25.5127 5.39941 -50.5342 15.0791 -74.3633c3.62207 -8.92676 7.85449 -16.4551 13.3496 -24.2676c6.66309 7.73535 18.7676 17.7773 21.9092 21.6182
c6.31934 7.71191 12.2764 15.7383 18.0674 23.8535c13.7109 19.2061 26.3076 39.2178 38.833 59.2061c25.916 41.3643 49.4785 84.5537 79.165 123.439c25.0273 32.7861 68.999 74.1914 114.169 58.5596c41.3105 -14.292 49.5557 -73.2314 56.4492 -110.541
c16.2832 -88.1514 8.17969 -181.952 -2.22949 -271.645c14.1914 1.42285 28.377 2.85156 42.5684 4.27441c31.3281 3.14746 14.6533 -35.0508 -8.9209 -37.2676c-12.6553 -1.19141 -25.3174 -2.38281 -37.9795 -3.57422
c-0.249023 -2.08691 -0.503906 -4.18555 -0.75293 -6.2666c-0.888672 -7.41602 -1.97949 -14.8018 -2.98145 -22.1992c18.2334 0.853516 36.4854 1.55859 54.7607 2.08008z" />
    <glyph glyph-name="section" unicode="&#xa7;" horiz-adv-x="537" 
d="M401.648 347.721c54.3691 -39.9355 98.2168 -101.163 81.9863 -171.846c-9.04004 -39.4199 -33.3496 -76.3496 -67.2031 -97.6543c13.1182 -49.6094 6.50879 -102.082 -28.998 -147.009c-52.8574 -66.8828 -150.203 -88.7803 -229.214 -62.4609
c-35.958 11.9805 -66.1064 35.5488 -85.0342 68.5547c-18.3584 32.0039 -17.0781 68.4297 -22.8818 103.706c-5.625 34.1738 68.6494 55.8223 70.4395 18.7734c2.80957 -58.2695 67.4873 -132.053 130.63 -110.968c45.75 15.2754 37.5049 81.1445 17.2197 118.555
c-16.2422 29.9531 -40.7949 54.5059 -66.0117 77.0312c-24.1553 21.5713 -53.7344 41.2158 -68.5127 71.1572c-25.3828 51.4414 11.4111 95.4316 57.4463 114.092c-22.3418 20.7529 -39.5977 45.5898 -46.1895 77.7363c-14.9971 73.1777 36.4678 154.27 98.7207 189.208
c51.915 29.1289 142.462 31.3281 171.461 -31.4346c14.9912 -32.4424 -40.8008 -56.165 -63.5098 -38.9033c-18.6367 14.167 -44.8965 31.0908 -68.7852 17.9727c-23.5742 -12.9463 -30.0713 -45.5371 -23.835 -69.5859c15.6904 -60.4932 96.3496 -93.1963 142.271 -126.925
zM403.812 113.106c12.2705 20.0947 -0.626953 50.4678 -16.8867 72.5371c-20.2021 27.4277 -51.5781 50.0957 -80.1797 67.9268c-25.0566 15.626 -53.2842 30.5762 -79.1885 48.0098c-0.272461 -0.0351562 -0.533203 -0.124023 -0.805664 -0.15332
c-12.5732 -1.28613 10.9893 -28.8203 13.3193 -31.0312c13.4385 -12.7744 30.7471 -21.8027 45.9219 -32.2773c32.8281 -22.6621 64.8555 -46.5928 89.3906 -78.3838c11.2979 -14.6357 20.8887 -30.3203 28.4287 -46.6279z" />
    <glyph glyph-name="copyright" unicode="&#xa9;" horiz-adv-x="815" 
d="M758.255 405.848c23.8057 -157.583 -10.1279 -342.358 -133.781 -451.708c-117.938 -104.305 -319.56 -128.134 -449.988 -33.7285c-142.64 103.244 -132.877 310.68 -113.464 464.896c3.90625 31.0381 42.6973 52.1172 69.8105 56.7227
c12.3945 2.10449 29.6328 0.693359 42.8457 -5.89844c0.652344 149.38 158.117 265.795 301.313 261.966c158.935 -4.25 261.289 -146.789 283.264 -292.25zM551.314 40.0625c78.5068 87.334 91.2744 230.6 80.9658 342.693
c-9.64453 104.897 -65.4961 232.463 -183.197 249.138c-117.114 16.5859 -240.571 -104.488 -226.036 -220.5c1.76074 -14.0664 -16.0996 -25.3643 -30.2549 -25.1211c-2.61426 -124.892 -15.6436 -299.666 101.483 -375.369
c79.3076 -51.2568 196.333 -38.3643 257.039 29.1592zM546.328 189.126c12.3828 -9.2832 11.0781 -25.3408 0.769531 -36.2061c-50.7949 -53.5928 -127.28 -103.392 -203.95 -74.292c-76.5869 29.0693 -76.0176 131.281 -67.6357 198.49
c9.31836 74.7666 42.9824 154.578 103.019 202.593c44.6357 35.6973 114.156 49.9893 149.51 -5.55957c11.3574 -17.8428 -27.7539 -38.8506 -40.5996 -24.8672c-55.1582 60.0596 -88.1045 -134.074 -90.0664 -162.143c-2.57812 -36.9414 -2.75 -82.751 20.748 -113.896
c24.2568 -32.1523 55.8457 -5.79199 82.1885 10.4023c12.6797 7.79492 32.123 15.8926 46.0176 5.47754z" />
    <glyph glyph-name="softhyphen" unicode="&#xad;" 
 />
    <glyph glyph-name="registered" unicode="&#xae;" horiz-adv-x="815" 
d="M758.255 405.848c23.8057 -157.583 -10.1279 -342.358 -133.781 -451.708c-117.938 -104.305 -319.56 -128.134 -449.988 -33.7285c-142.64 103.244 -132.877 310.68 -113.464 464.896c3.90625 31.0381 42.7031 52.1172 69.8105 56.7227
c12.3945 2.10449 29.6328 0.693359 42.8457 -5.89844c0.652344 149.38 158.117 265.795 301.313 261.966c158.935 -4.25 261.289 -146.789 283.264 -292.25zM551.314 40.0625c78.5068 87.334 91.2744 230.6 80.9658 342.693
c-9.64453 104.897 -65.4961 232.463 -183.197 249.138c-117.114 16.5859 -240.571 -104.488 -226.036 -220.5c1.76074 -14.0664 -16.0996 -25.3643 -30.2549 -25.1211c-2.61426 -124.892 -15.6436 -299.666 101.483 -375.369
c79.3076 -51.2568 196.333 -38.3643 257.039 29.1592zM508.456 185.22c11.0732 -1.89648 16.0303 -12.1455 10.749 -22.0215c-5.96289 -11.168 -19.0576 -15.9453 -31.0381 -15.1387c-28.2158 1.89062 -54.7666 12.2109 -78.1104 27.9199
c-19.4785 13.1064 -33.7822 29.6572 -46.7939 48.3115c-4.76562 -24.8496 -9.94629 -49.5625 -15.7021 -74.3525c0.0117188 -0.0830078 0.0117188 -0.171875 0.0234375 -0.249023c2.83984 -3.37305 2.91113 -8.26953 0.735352 -12.5312
c-3.47949 -6.81738 -11.5771 -10.6289 -18.8145 -11.4111c-14.6123 -1.58301 -18.4658 9.33008 -21.4893 21.0488c-3.36719 13.041 -5.32324 26.4678 -7.30273 39.7812c-3.97168 26.6572 -5.53027 53.8359 -6.31836 80.7598c-1.6123 55.0098 2.40625 110.684 12.5898 164.78
c4.32715 22.9883 53.9131 32.4844 49.2119 2.97559c-7.62891 -47.8545 -12.5664 -95.7451 -13.6807 -144.21c-0.243164 -10.4746 -0.254883 -20.9551 -0.124023 -31.4355c2.19922 17.374 4.89648 34.7012 8.38184 51.8027c8.70215 42.7334 20.6826 92.5566 50.8604 125.734
c13.7646 15.1338 32.8047 27.0186 53.7412 27.7891c21.458 0.788086 39.4365 -13.6582 48.1738 -32.5322c17.6406 -38.1152 1.6709 -86.166 -19.4678 -119.587c-18.2041 -28.7793 -43.6992 -54.0078 -73.5693 -70.8955c22.4658 -30.9785 61.3994 -50.2793 97.9443 -56.5391z
M370.619 262.44c30.8242 15.0684 57.7988 37.3574 76.6787 67.2627c16.5918 26.2832 33.7998 65.4424 19.0635 96c-8.55957 17.7422 -24.582 16.7109 -37.9785 4.52344c-12.9814 -11.8145 -21.0732 -28.7793 -27.54 -44.7842
c-15.0449 -37.2383 -22.6855 -77.2803 -29.4902 -116.706c-0.378906 -2.17578 -0.764648 -4.3457 -1.14355 -6.51562c0.136719 0.0712891 0.279297 0.154297 0.410156 0.219727z" />
    <glyph glyph-name="mu" unicode="&#xb5;" horiz-adv-x="541" 
d="M481.619 529.762c6.07031 -46.4141 9.43848 -93.8135 9.71094 -140.637c0.308594 -51.625 -106.51 -90.1846 -111.062 -29.6025c-2.52539 33.6221 -3.47949 67.7773 -2.98145 101.69c-26.1475 -50.1367 -59.7871 -105.508 -108.893 -136.054
c-22.7207 -14.1318 -54.0605 -25.0566 -79.2412 -10.4688c-0.118164 0.0712891 -0.224609 0.154297 -0.342773 0.225586c-2.43066 -35.0449 -4.04883 -70.1494 -5.26953 -105.235c-2.31738 -66.9365 -1.98535 -133.944 -3.34277 -200.904
c-1.14453 -56.4443 7.78906 -134.584 -26.373 -182.35c-8.66602 -12.1104 -27.5693 -14.582 -39.2764 -6.84668c-23.8711 15.7793 -30.4688 54.4756 -36.5029 81.1865c-7.34473 32.5078 -12.0332 66.5098 -15.8564 99.5869
c-7.33887 63.5273 -11.3574 126.759 -12.0391 190.72c-1.39258 129.983 6.4082 270.146 45.7568 394.753c10.5391 33.3672 44.1729 56.5273 78.8086 58.4121c31.3164 1.70117 57.8428 -17.3623 52.7393 -50.457c-4.96777 -32.1699 -10.7236 -64.1973 -16.207 -96.2666
c-2.19922 -24.3154 -2.97559 -48.6611 -0.788086 -72.3184c0.930664 -10.083 5.91016 -57.0547 22.5615 -58.9873c10.1426 -1.17969 34.3574 37.1494 38.6074 43.083c51.1211 71.3701 78.0869 156.926 115.829 235.427c10.3438 21.5117 57.1904 39.5557 70.7412 11.9795
c17.9912 -36.6221 18.1924 -86.9365 23.4209 -126.937z" />
    <glyph glyph-name="paragraph" unicode="&#xb6;" horiz-adv-x="661" 
d="M610.4 541.943c-11.8496 -118.229 -28.0723 -234.798 -29.3643 -353.869c-0.62793 -57.8135 1.02637 -115.183 3.2666 -172.925c2.33008 -60.0664 6.98926 -121.502 -16.4785 -178.112c-8.98633 -21.6777 -53.8301 -36.0225 -66.7881 -11.3096
c-25.8984 49.4082 -30.54 113.837 -38.6963 168.384c-8.67773 58.0391 -13.4492 117.245 -13.7812 175.918c-0.503906 90.043 3.5332 181.692 14.8018 271.753c-15.7441 -11.8438 -31.6367 -23.5869 -47.7422 -35.0391
c-2.72656 -62.2588 -4.54004 -124.554 -4.87207 -186.914c-0.308594 -58.2227 1.57617 -116.345 2.82129 -174.537c1.2334 -57.4521 13.8955 -128.911 -6.88086 -183.672c-9.91113 -26.124 -45.8867 -46.207 -70.9316 -26.7998
c-43.0537 33.3555 -42.3242 115.431 -48.874 164.963c-7.75977 58.7324 -11.5771 118.123 -14.8848 177.252c-2.63184 47.0488 -4.20312 94.1807 -4.62988 141.324c-10.7588 -4.92578 -21.624 -9.61426 -32.6738 -13.8945
c-41.915 -16.2305 -95.2354 -34.707 -139.468 -15.6729c-42.3125 18.2041 -52.2891 64.3633 -40.8066 105.639c26.3789 94.8623 124.395 165.937 213.353 196.191c14.3037 4.86035 29.2598 8.97461 44.4883 11.8379c9.67969 6.56836 20.7822 11.5596 32.7861 14.7305
c22.8037 6.02246 68.3467 2.41211 78.2227 -24.292c25.7734 -12.377 41.1504 -31.8262 55.6553 -53.8418c17.5107 58.1982 139.326 81.2217 131.478 2.88672zM267.363 366.364c0.46875 55.4834 2.6543 110.944 6.8457 166.269
c-0.521484 -0.171875 -1.03125 -0.290039 -1.55273 -0.473633c-59.5205 -20.7178 -131.756 -72.3369 -146.931 -137.329c-21.0195 -90.043 86.3613 -53.4453 141.638 -28.4658zM418.068 458.067c11.4941 8.25098 22.9062 16.626 34.2812 25.0498
c-9.73926 10.8535 -20.2139 20.3799 -31.3525 28.376c-1.03711 -17.8066 -2.01562 -35.6133 -2.92871 -53.4258z" />
    <glyph glyph-name="questiondown" unicode="&#xbf;" horiz-adv-x="516" 
d="M463.542 55.8203c11.417 -87.2979 -20.749 -181.258 -88.5625 -238.49c-59.2715 -50.0186 -148.224 -81.0566 -225.118 -60.6533c-86.083 22.8457 -115.793 113.706 -91.8984 193.523c25.9873 86.7939 88.0869 161.732 137.619 236.084
c49.0459 73.6348 90.5166 148.888 109.562 235.931c12.6318 57.748 138.069 83.1191 125.496 7.58789c-15.8096 -94.9746 -69.373 -178.146 -124.478 -254.97c-27.4102 -38.2158 -56.5391 -75.1875 -83.7715 -113.54c-25.7676 -36.29 -53.7646 -76.1123 -64.3105 -119.989
c-9.03418 -37.582 -2.51953 -82.0107 33.3193 -103.279c30.6699 -18.1924 70.9902 -12.6504 102.662 -0.18457c83.9844 33.0527 129.64 117.701 122.432 205.443c-1.82031 22.2109 43.7285 37.9258 47.0479 12.5371zM329.496 534.684
c-4.36328 10.9307 -5.64844 22.0684 -6.95215 33.6689c-5.32324 47.0723 93.1963 67.375 85.0928 13.9893c-1.55273 -10.208 -2.65527 -20.125 -5.53613 -30.0361c-1.55273 -5.34668 -3.35449 -10.7168 -5.80273 -15.7314
c-2.6377 -5.39453 -6.83496 -9.87598 -9.37793 -15.2227c-5.1748 -10.877 -28.7676 -22.2646 -38.4951 -10.5928c-3.02344 3.62207 -7.39844 5.91602 -10.5762 9.7334c-3.77637 4.53516 -6.20703 8.80859 -8.35254 14.1914z" />
    <glyph glyph-name="Agrave" unicode="&#xc0;" horiz-adv-x="888" 
d="M750.212 252.873c5.70215 -121.703 15.6016 -250.136 86.6279 -353.35c18.1562 -26.373 -14.5234 -60.4639 -34.3047 -72.9238c-26.0352 -16.4023 -62.0225 -21.8682 -87.5771 -1.73145c-109.593 86.3672 -115.308 259.345 -119.605 386.721
c-1.19727 35.46 -1.13184 70.9668 -0.568359 106.474c-36.2842 -2.73242 -73.5752 -12.0742 -105.069 -18.8672c-43.5156 -9.38379 -86.5215 -20.8662 -129.628 -31.9277c-0.420898 -0.723633 -0.835938 -1.44727 -1.25684 -2.1709
c-43.0596 -74.5293 -87.1504 -148.887 -132.812 -221.857c-23.5098 -37.5703 -48.6436 -74.0498 -73.2441 -110.902c-20.54 -30.7773 -38.1104 -63.6523 -68.3477 -86.1367c-20.8652 -15.5127 -49.2354 3.71094 -25.3105 23.4268
c27.2383 22.4424 43.3262 61.832 58.46 92.9531c14.7305 30.2852 28.5898 60.9434 42.6924 91.5186c28.3525 61.4648 56.3848 123.066 84.5293 184.62c-70.4277 -14.3984 -146.327 -17.3506 -188.047 43.0234c-12.7031 18.3818 30.1426 40.0537 43.373 21.1562
c36.8174 -52.585 112.468 -32.7568 164.608 -21.4824c48.9453 102.781 105.544 202.516 170.909 295.6c35.0801 49.9648 71.1924 104.695 123.215 138.584c33.5039 21.8262 81.5781 42.0576 121.336 25.626c30.3975 -12.5664 45.8037 -40.1719 52.9346 -70.6943
c14.8311 -63.457 11.7607 -133.221 12.3418 -197.993c0.658203 -73.2607 1.31055 -146.463 4.74316 -219.665zM600.75 561.908c0.415039 18.625 1.56055 37.3232 1.53125 55.9424c-0.00585938 3.9541 -0.415039 7.97266 -0.764648 11.9736
c-15.7324 -14.707 -28.6133 -35.1104 -40.3203 -49.9834c-24.6953 -31.376 -47.9678 -63.7773 -70.043 -97.0498c-37.084 -55.8867 -71.6133 -113.416 -105.419 -171.342c9.00977 2.36523 18.0195 4.74219 27.0352 7.07227c47.5586 12.2881 95.3545 23.6631 143.927 31.209
c12.8809 2.00391 25.8389 3.91895 38.8145 5.34766c0.710938 29.9229 1.6123 59.8281 2.28809 89.71c0.888672 39.04 2.08594 78.0742 2.95117 117.12zM891.027 964.968c33.7646 8.52441 31.5283 -31.2578 3.22363 -38.6377
c-53.332 -13.9121 -106.759 -27.4219 -160.203 -40.9014c-27.6289 -6.9707 -55.2578 -13.9355 -82.8867 -20.9062c-25.709 -6.48535 -55.2529 -10.332 -77.9678 -24.6533c-23.041 -14.5293 -55.0215 7.10156 -27.0605 25.0391
c47.665 30.5811 108.537 38.8799 162.634 52.9941c60.7178 15.8447 121.418 31.7129 182.261 47.0654z" />
    </font>
</defs>
</svg>
